<?xml version="1.0" standalone="no"?>
<!DOCTYPE svg PUBLIC "-//W3C//DTD SVG 1.1//EN" "http://www.w3.org/Graphics/SVG/1.1/DTD/svg11.dtd" >
<svg>
<metadata>
Created by FontForge 20120731 at Mon Jun 12 07:31:56 2017
 By www
Copyright 1992, 1994, 1997, 2000, 2004 Adobe Systems Incorporated. All rights reserved. Protected by U.S. Patents D454,582. Myriad is either a registered trademark or a trademark of Adobe Systems Incorporated in the United States and/or other countries.
</metadata>
<defs>
<font id="MyriadPro-BoldIt" horiz-adv-x="395" >
  <font-face 
    font-family="Myriad Pro"
    font-weight="700"
    font-style="italic"
    font-stretch="normal"
    units-per-em="1000"
    panose-1="2 11 7 3 3 4 3 9 2 4"
    ascent="750"
    descent="-250"
    x-height="489"
    cap-height="674"
    bbox="-201 -250 1225 987"
    underline-thickness="50"
    underline-position="-50"
    slope="-11"
    stemh="110"
    stemv="152"
    unicode-range="U+0020-FB04"
  />
<missing-glyph horiz-adv-x="500" 
d="M0 0v700h500v-700h-500zM250 395l170 255h-340zM280 350l170 -255v510zM80 50h340l-170 255zM50 605v-510l170 255z" />
    <glyph glyph-name="f_f" unicode="ff" horiz-adv-x="632" 
d="M727 709l-25 -115c-12 5 -27 8 -46 8c-47 0 -75 -40 -84 -88l-5 -24h97l-21 -110h-96l-70 -380h-145l72 380h-159l-71 -380h-144l72 380h-63l20 110h64l3 15c12 53 32 108 71 147c33 33 80 55 145 55c30 0 55 -6 73 -13l-39 -109c-10 3 -20 6 -33 6
c-49 0 -66 -44 -75 -85l-3 -16h160l5 25c10 57 33 118 82 160c39 33 91 46 139 46c35 0 61 -5 76 -12z" />
    <glyph glyph-name="f_f_i" unicode="ffi" horiz-adv-x="865" 
d="M837 692l-38 -111c-24 10 -62 22 -107 22c-84 0 -113 -46 -121 -94l-3 -19h283l-93 -490h-144l71 380h-137l-71 -380h-145l72 380h-160l-71 -380h-144l71 380h-63l21 110h63l4 18c12 54 34 105 71 142c34 35 82 57 149 57c36 0 71 -12 85 -20l-47 -106
c-11 6 -25 10 -39 10c-19 0 -34 -6 -45 -17c-16 -16 -26 -42 -32 -70l-3 -14h161l4 19c27 135 128 211 273 211c56 0 111 -14 135 -28z" />
    <glyph glyph-name="f_f_j" unicode="ffj" horiz-adv-x="859" 
d="M837 692l-38 -111c-24 10 -62 22 -107 22c-84 0 -113 -46 -121 -94l-3 -19h283l-89 -473c-15 -85 -36 -138 -69 -174c-31 -36 -82 -52 -133 -52c-22 0 -46 2 -69 8l16 108c11 -1 20 -2 33 -2c33 0 60 17 77 105l70 370h-139l-72 -380h-144l72 380h-160l-71 -380h-144
l71 380h-63l21 110h63l4 18c12 54 34 105 71 142c34 35 82 57 149 57c36 0 70 -12 85 -20l-47 -106c-11 6 -25 10 -39 10c-19 0 -34 -6 -45 -17c-16 -16 -26 -42 -32 -70l-3 -14h161l4 19c27 135 128 211 273 211c56 0 111 -14 135 -28z" />
    <glyph glyph-name="f_f_l" unicode="ffl" horiz-adv-x="865" 
d="M429 688l-44 -106c-13 5 -26 9 -41 9c-20 0 -35 -7 -46 -18c-18 -18 -27 -46 -31 -69l-3 -14h161l3 21c10 56 40 117 98 159c47 35 110 51 183 51c56 0 133 -14 177 -41l-128 -680h-144l113 598c-10 5 -26 10 -55 10c-57 0 -92 -45 -101 -100l-3 -18h84l-21 -110h-83
l-72 -380h-144l72 380h-160l-71 -380h-144l71 380h-63l21 110h63l3 14c11 57 34 110 71 147c35 35 83 56 148 56c38 0 70 -11 86 -19z" />
    <glyph glyph-name="f_i" unicode="fi" horiz-adv-x="564" 
d="M174 0h-143l71 380h-63l21 110h63l4 19c25 136 128 211 273 211c56 0 111 -14 135 -28l-38 -111c-24 10 -62 22 -107 22c-84 0 -113 -46 -121 -94l-3 -19h283l-93 -490h-144l71 380h-137z" />
    <glyph glyph-name="f_j" unicode="fj" horiz-adv-x="557" 
d="M535 692l-38 -111c-23 10 -61 22 -107 22c-84 0 -112 -46 -121 -94l-3 -19h283l-89 -473c-15 -85 -36 -138 -69 -174c-31 -36 -82 -52 -133 -52c-22 0 -46 2 -68 8l16 108c10 -1 19 -2 32 -2c33 0 61 17 77 105l70 370h-139l-71 -380h-144l71 380h-63l21 110h63l4 19
c27 135 128 211 273 211c56 0 111 -14 135 -28z" />
    <glyph glyph-name="f_l" unicode="fl" horiz-adv-x="564" 
d="M174 0h-144l72 380h-64l21 110h63l4 21c11 56 40 117 98 159c47 35 110 51 183 51c56 0 133 -14 177 -41l-128 -680h-144l113 598c-10 5 -26 10 -55 10c-57 0 -92 -45 -101 -100l-3 -18h84l-21 -110h-83z" />
    <glyph glyph-name=".notdef" horiz-adv-x="500" 
d="M0 0v700h500v-700h-500zM250 395l170 255h-340zM280 350l170 -255v510zM80 50h340l-170 255zM50 605v-510l170 255z" />
    <glyph glyph-name="space" unicode=" " horiz-adv-x="184" 
 />
    <glyph glyph-name="exclam" unicode="!" horiz-adv-x="269" 
d="M185 221h-112l65 453h155zM94 -11c-48 0 -80 35 -80 82c0 53 40 100 97 100c48 0 82 -35 82 -84c0 -57 -41 -98 -99 -98z" />
    <glyph glyph-name="quotedbl" unicode="&#x22;" horiz-adv-x="387" 
d="M115 692h134l-74 -278h-91zM307 692h134l-74 -278h-91z" />
    <glyph glyph-name="numbersign" unicode="#" horiz-adv-x="541" 
d="M222 269h87l36 115h-87zM137 0h-89l56 179h-82l15 90h96l38 115h-85l14 90h98l56 176h87l-56 -176h88l56 176h88l-56 -176h81l-15 -90h-94l-36 -115h83l-15 -90h-98l-55 -179h-89l56 179h-87z" />
    <glyph glyph-name="dollar" unicode="$" horiz-adv-x="541" 
d="M250 -87h-95l18 95c-61 3 -126 30 -156 53l46 109c38 -28 89 -50 158 -50c60 0 103 27 103 70c0 34 -23 58 -85 87c-77 40 -145 90 -145 172c0 100 80 178 202 191l18 89h94l-17 -88c56 -3 104 -20 130 -37l-46 -107c-25 15 -71 36 -136 36c-57 0 -89 -29 -89 -63
c0 -31 27 -52 100 -88c79 -39 131 -92 131 -171c0 -122 -99 -189 -213 -202z" />
    <glyph glyph-name="percent" unicode="%" horiz-adv-x="869" 
d="M276 661c90 0 143 -63 143 -149c0 -143 -91 -252 -209 -252c-86 0 -148 57 -148 154c0 130 85 247 214 247zM260 578c-57 0 -88 -106 -88 -167c0 -39 15 -68 49 -68c60 0 88 113 88 171c0 34 -13 64 -49 64zM248 -11h-86l483 671h85zM691 392c90 0 143 -63 143 -149
c0 -143 -91 -252 -209 -252c-86 0 -148 57 -148 154c0 130 85 247 214 247zM675 309c-57 0 -88 -106 -88 -167c0 -38 15 -68 49 -68c60 0 88 113 88 171c0 34 -13 64 -49 64z" />
    <glyph glyph-name="ampersand" unicode="&#x26;" horiz-adv-x="666" 
d="M610 0h-170c-14 15 -24 30 -36 46c-43 -32 -99 -57 -181 -57c-126 0 -209 69 -209 178c0 102 76 167 163 208l1 3c-21 35 -37 73 -37 114c0 109 86 193 211 193c101 0 171 -60 171 -150c0 -78 -59 -136 -167 -186v-3c27 -42 63 -92 90 -129c43 49 72 111 92 171h133
c-36 -103 -83 -190 -159 -262c26 -38 60 -82 98 -126zM264 97c36 0 62 14 82 32c-34 44 -80 108 -119 169c-30 -22 -66 -56 -66 -106c0 -52 35 -95 103 -95zM339 592c-39 0 -69 -37 -69 -85c0 -31 11 -59 30 -84c52 24 95 61 95 111c0 31 -17 58 -56 58z" />
    <glyph glyph-name="quoteright" unicode="&#x2019;" horiz-adv-x="255" 
d="M168 683l143 9c-45 -98 -101 -196 -157 -271l-95 -8c43 85 82 182 109 270z" />
    <glyph glyph-name="parenleft" unicode="(" horiz-adv-x="314" 
d="M261 690h107c-103 -128 -191 -318 -191 -533c0 -97 8 -176 41 -273h-102c-35 78 -55 171 -55 268c0 232 88 418 200 538z" />
    <glyph glyph-name="parenright" unicode=")" horiz-adv-x="314" 
d="M71 -116h-108c102 128 191 319 191 534c0 97 -8 175 -41 272h103c35 -78 54 -171 54 -267c0 -232 -88 -418 -199 -539z" />
    <glyph glyph-name="asterisk" unicode="*" horiz-adv-x="452" 
d="M347 685l84 -51l-123 -127l1 -2l165 33l-20 -103l-152 28l-1 -2l95 -123l-95 -51l-40 154l-2 -1l-74 -154l-81 53l122 123l-1 2l-162 -29l20 103l147 -33v2l-91 128l95 50l39 -154h2z" />
    <glyph glyph-name="plus" unicode="+" horiz-adv-x="596" 
d="M250 533h97v-219h207v-93h-207v-221h-97v221h-207v93h207v219z" />
    <glyph glyph-name="comma" unicode="," horiz-adv-x="260" 
d="M46 -110l-104 -9c44 89 88 193 114 284l156 10c-46 -102 -107 -207 -166 -285z" />
    <glyph glyph-name="hyphen" unicode="-" horiz-adv-x="322" 
d="M44 313h259l-20 -101h-259z" />
    <glyph glyph-name="period" unicode="." horiz-adv-x="260" 
d="M98 -10c-48 0 -80 35 -80 83c0 55 40 102 97 102c49 0 83 -35 83 -86c0 -58 -41 -99 -100 -99z" />
    <glyph glyph-name="slash" unicode="/" horiz-adv-x="326" 
d="M62 -40h-102l348 725h102z" />
    <glyph glyph-name="zero" unicode="0" horiz-adv-x="541" 
d="M344 661c139 0 187 -107 187 -223c0 -203 -98 -449 -303 -449c-136 0 -189 103 -189 234c0 205 105 438 305 438zM327 547c-96 0 -146 -234 -146 -329c0 -49 7 -115 64 -115c99 0 144 248 144 334c0 44 -7 110 -62 110z" />
    <glyph glyph-name="one" unicode="1" horiz-adv-x="541" 
d="M183 0l97 515h-2l-127 -56l-5 112l180 79h118l-123 -650h-138z" />
    <glyph glyph-name="two" unicode="2" horiz-adv-x="541" 
d="M442 0h-445l18 93l140 108c130 106 213 182 213 260c0 46 -32 79 -89 79c-58 0 -104 -17 -138 -38l-29 103c52 32 127 56 202 56c131 0 202 -77 202 -177c0 -133 -106 -225 -220 -313l-65 -46v-2h233z" />
    <glyph glyph-name="three" unicode="3" horiz-adv-x="541" 
d="M8 33l44 113c26 -14 78 -36 142 -36c81 0 129 40 129 92c0 59 -48 87 -133 87h-25l21 110h23c67 0 144 27 144 86c0 32 -24 56 -80 56c-55 0 -104 -15 -134 -32l-20 108c48 26 117 44 183 44c109 0 203 -50 203 -152c0 -81 -64 -141 -144 -161l-1 -2
c67 -14 113 -68 113 -143c0 -136 -139 -214 -281 -214c-83 0 -155 20 -184 44z" />
    <glyph glyph-name="four" unicode="4" horiz-adv-x="541" 
d="M392 0h-135l30 157h-277l18 97l310 396h177l-72 -382h76l-20 -111h-77zM172 268h136l30 141c9 41 21 86 31 127h-4c-29 -44 -54 -85 -85 -128l-107 -138z" />
    <glyph glyph-name="five" unicode="5" horiz-adv-x="541" 
d="M533 650l-25 -123h-229l-31 -101c11 1 17 2 28 2c37 0 94 -11 134 -40c46 -31 72 -83 72 -144c0 -163 -137 -255 -301 -255c-78 0 -143 18 -168 38l37 115c26 -16 78 -32 133 -32c71 0 149 38 149 108c0 58 -36 100 -161 100c-31 0 -54 -2 -80 -4l93 336h349z" />
    <glyph glyph-name="six" unicode="6" horiz-adv-x="541" 
d="M513 659l-22 -117c-16 1 -32 0 -54 -2c-119 -11 -197 -76 -230 -153l2 -1c36 32 82 50 134 50c96 0 166 -74 166 -182c0 -139 -107 -265 -260 -265c-146 0 -217 100 -217 228c0 148 71 276 161 347c73 58 169 90 266 95c25 2 40 1 54 0zM254 100c69 0 106 78 106 139
c0 57 -32 90 -80 90c-40 0 -74 -25 -94 -60c-6 -10 -10 -23 -11 -33c-2 -13 -2 -24 -2 -35c0 -56 29 -101 81 -101z" />
    <glyph glyph-name="seven" unicode="7" horiz-adv-x="541" 
d="M121 650h441l-18 -96c-119 -184 -238 -369 -357 -554h-160c118 175 236 350 353 525v2h-283z" />
    <glyph glyph-name="eight" unicode="8" horiz-adv-x="541" 
d="M334 661c105 0 192 -55 192 -158c0 -70 -47 -122 -117 -155v-2c58 -33 89 -89 89 -144c0 -142 -136 -213 -262 -213c-138 1 -218 71 -218 167c0 92 64 154 139 184l1 3c-44 33 -65 76 -65 122c0 121 114 196 241 196zM251 94h2c47 0 94 35 94 94c0 52 -36 82 -84 99
c-49 -13 -94 -53 -94 -112c0 -45 30 -81 82 -81zM316 556c-47 0 -85 -39 -85 -83c0 -41 33 -67 76 -82c41 14 80 49 80 96c0 39 -25 69 -71 69z" />
    <glyph glyph-name="nine" unicode="9" horiz-adv-x="541" 
d="M48 -9l17 118c17 -2 34 -1 61 0c45 4 90 17 128 41c48 29 84 71 106 119l-2 2c-32 -32 -80 -47 -124 -47c-103 0 -173 71 -173 176c0 141 117 261 264 261c144 0 211 -98 211 -227c-1 -154 -79 -286 -166 -356c-67 -53 -159 -83 -247 -87c-38 -2 -57 -1 -75 0zM312 550
c-57 0 -104 -67 -104 -132c0 -53 31 -87 76 -87c39 0 71 20 87 43c6 7 11 17 14 31c4 13 6 35 6 52c0 52 -25 93 -79 93z" />
    <glyph glyph-name="colon" unicode=":" horiz-adv-x="260" 
d="M159 312c-48 0 -80 35 -80 82c0 54 40 101 97 101c48 0 82 -35 82 -85c0 -57 -41 -98 -99 -98zM98 -11c-48 0 -80 35 -80 82c0 54 40 101 97 101c48 0 82 -35 82 -85c0 -57 -41 -98 -99 -98z" />
    <glyph glyph-name="semicolon" unicode=";" horiz-adv-x="260" 
d="M46 -110l-104 -9c45 89 88 193 114 284l155 10c-45 -102 -106 -207 -165 -285zM164 312c-48 0 -80 35 -80 82c0 54 40 101 97 101c48 0 82 -35 82 -85c0 -57 -41 -98 -99 -98z" />
    <glyph glyph-name="less" unicode="&#x3c;" horiz-adv-x="596" 
d="M52 223v86l476 223v-106l-359 -159v-2l359 -159v-106z" />
    <glyph glyph-name="equal" unicode="=" horiz-adv-x="596" 
d="M553 325h-511v93h511v-93zM553 117h-511v93h511v-93z" />
    <glyph glyph-name="greater" unicode="&#x3e;" horiz-adv-x="596" 
d="M552 312v-92l-476 -220v105l367 160v2l-367 160v105z" />
    <glyph glyph-name="question" unicode="?" horiz-adv-x="437" 
d="M269 219h-140c1 9 2 18 3 26c8 54 35 107 91 166c39 42 80 76 80 111c0 26 -13 47 -58 48c-45 0 -81 -11 -109 -28l-19 101c37 22 94 43 169 43c96 0 165 -54 165 -136c0 -80 -53 -131 -109 -189c-39 -39 -59 -73 -68 -118c-2 -7 -3 -15 -5 -24zM165 -11
c-47 0 -79 35 -79 82c0 53 40 100 97 100c48 0 82 -35 82 -84c0 -57 -41 -98 -100 -98z" />
    <glyph glyph-name="at" unicode="@" horiz-adv-x="749" 
d="M431 250l15 95c-9 2 -19 4 -31 4c-66 0 -118 -65 -118 -142c0 -38 17 -62 49 -62c37 0 76 47 85 105zM516 -11l18 -57c-60 -28 -112 -36 -182 -36c-168 0 -313 119 -313 315c0 204 149 381 374 381c176 0 302 -121 302 -289c0 -147 -82 -239 -190 -239
c-47 0 -80 25 -85 77h-3c-31 -50 -75 -77 -129 -77c-64 0 -112 49 -112 131c0 123 91 233 234 233c45 0 94 -11 119 -24l-30 -186c-9 -59 -3 -86 26 -87c42 -2 96 53 96 169c0 131 -84 231 -238 231s-288 -119 -288 -311c0 -168 106 -262 257 -262c49 0 104 11 144 31z" />
    <glyph glyph-name="A" unicode="A" horiz-adv-x="618" 
d="M399 175h-194l-79 -175h-154l328 674h185l79 -674h-152zM247 285h146l-14 145c-2 37 -6 91 -9 132h-2c-17 -41 -36 -93 -54 -132z" />
    <glyph glyph-name="B" unicode="B" horiz-adv-x="582" 
d="M20 7l124 656c48 10 111 16 177 16c71 0 122 -9 167 -35c45 -23 78 -67 78 -124c0 -85 -62 -139 -136 -160v-3c65 -20 106 -73 106 -147c0 -73 -39 -125 -92 -160c-57 -39 -142 -55 -254 -55c-76 0 -137 5 -170 12zM268 563l-30 -157h48c79 0 133 34 133 92
c0 48 -39 69 -94 69c-25 0 -46 -2 -57 -4zM216 301l-36 -191c17 -2 34 -2 55 -2c78 0 149 31 149 106c0 67 -56 87 -123 87h-45z" />
    <glyph glyph-name="C" unicode="C" horiz-adv-x="583" 
d="M512 135l12 -116c-36 -16 -96 -29 -177 -29c-179 0 -298 109 -298 286c0 151 68 269 170 337c70 48 152 71 247 71c73 0 128 -17 148 -28l-40 -117c-19 9 -64 22 -122 22s-113 -18 -154 -52c-56 -47 -93 -123 -93 -217c0 -107 61 -179 179 -179c48 0 95 8 128 22z" />
    <glyph glyph-name="D" unicode="D" horiz-adv-x="681" 
d="M20 8l125 656c58 10 121 15 187 15c105 0 188 -24 245 -73c55 -45 89 -111 89 -211c0 -131 -55 -243 -138 -310c-78 -63 -177 -90 -323 -90c-81 0 -151 7 -185 13zM271 559l-85 -444c17 -2 38 -3 63 -3c78 0 147 27 191 78c46 52 70 123 70 204c0 107 -59 170 -178 170
c-25 0 -46 -2 -61 -5z" />
    <glyph glyph-name="E" unicode="E" horiz-adv-x="517" 
d="M481 407l-24 -121h-239l-31 -163h269l-23 -123h-414l128 674h399l-24 -123h-254l-28 -144h241z" />
    <glyph glyph-name="F" unicode="F" horiz-adv-x="511" 
d="M19 0l128 674h395l-24 -123h-250l-31 -158h235l-24 -121h-234l-51 -272h-144z" />
    <glyph glyph-name="G" unicode="G" horiz-adv-x="673" 
d="M643 384l-68 -353c-51 -17 -133 -38 -218 -38c-92 0 -169 24 -224 74c-54 47 -85 122 -85 208c0 126 51 235 137 308c76 63 181 98 298 98c87 0 152 -17 178 -30l-43 -121c-30 14 -83 27 -143 27c-67 0 -126 -19 -171 -54c-59 -46 -98 -126 -98 -218
c0 -113 67 -170 173 -170c34 0 57 5 74 12l27 142h-105l23 115h245z" />
    <glyph glyph-name="H" unicode="H" horiz-adv-x="666" 
d="M147 674h144l-50 -263h244l50 263h145l-128 -674h-144l53 283h-245l-53 -283h-144z" />
    <glyph glyph-name="I" unicode="I" horiz-adv-x="274" 
d="M144 674h144l-128 -674h-144z" />
    <glyph glyph-name="J" unicode="J" horiz-adv-x="399" 
d="M194 247l81 427h144l-85 -445c-33 -171 -106 -240 -259 -240c-42 0 -89 7 -111 16l28 123c21 -7 48 -12 80 -12c63 0 103 31 122 131z" />
    <glyph glyph-name="K" unicode="K" horiz-adv-x="590" 
d="M19 0l128 674h142l-57 -301h3c20 29 41 53 60 77l187 224h180l-273 -291l156 -383h-156l-113 293l-72 -68l-43 -225h-142z" />
    <glyph glyph-name="L" unicode="L" horiz-adv-x="487" 
d="M19 0l128 674h144l-104 -548h259l-24 -126h-403z" />
    <glyph glyph-name="M" unicode="M" horiz-adv-x="821" 
d="M722 0h-140l41 278c11 73 26 166 45 263h-3c-37 -87 -79 -180 -116 -254l-138 -276h-112l-24 273c-6 74 -11 167 -15 257h-2c-19 -89 -39 -190 -56 -263l-67 -278h-132l169 674h193l21 -256c4 -63 11 -140 12 -215h4c26 75 62 154 91 215l125 256h195z" />
    <glyph glyph-name="N" unicode="N" horiz-adv-x="666" 
d="M153 0h-134l128 674h169l89 -257c27 -86 45 -156 61 -230h3c3 69 13 143 31 242l46 245h135l-128 -674h-149l-94 269c-30 91 -48 153 -66 235h-3c-7 -66 -23 -162 -43 -268z" />
    <glyph glyph-name="O" unicode="O" horiz-adv-x="705" 
d="M418 685c178 0 272 -120 272 -281c0 -123 -43 -243 -120 -318c-63 -61 -148 -97 -249 -97c-175 0 -273 124 -273 281c0 122 45 243 124 319c63 60 149 96 246 96zM401 565c-45 0 -85 -19 -116 -51c-54 -53 -84 -158 -84 -239c0 -95 43 -166 141 -166c43 0 82 18 113 49
c53 53 82 164 82 242c0 84 -30 165 -136 165z" />
    <glyph glyph-name="P" unicode="P" horiz-adv-x="559" 
d="M19 0l125 662c44 11 111 17 176 17c61 0 130 -10 179 -44c46 -31 73 -79 73 -144c0 -84 -39 -149 -91 -189c-55 -43 -134 -63 -216 -63c-24 0 -44 3 -59 4l-46 -243h-141zM266 560l-38 -199c15 -3 31 -5 56 -5c86 0 143 55 143 123c0 64 -47 85 -102 85
c-27 0 -47 -2 -59 -4z" />
    <glyph glyph-name="Q" unicode="Q" horiz-adv-x="705" 
d="M632 -7l-50 -114c-92 27 -192 66 -252 95c-32 14 -41 17 -48 17c-131 9 -234 111 -234 281c0 114 41 232 117 310c67 67 158 103 254 103c182 0 271 -131 271 -281c0 -114 -41 -236 -113 -309c-27 -26 -61 -50 -99 -65v-3c41 -11 97 -24 154 -34zM402 565
c-46 0 -85 -19 -116 -50c-55 -55 -85 -165 -85 -243c0 -95 44 -164 140 -164c44 0 82 19 113 49c52 53 83 165 83 246c0 76 -29 162 -135 162z" />
    <glyph glyph-name="R" unicode="R" horiz-adv-x="583" 
d="M20 0l126 662c45 11 113 17 180 17c64 0 130 -9 177 -39c44 -26 75 -69 75 -131c0 -100 -66 -163 -153 -191v-3c40 -18 58 -62 64 -123c9 -76 14 -164 26 -192h-148c-6 18 -13 76 -19 159c-7 82 -35 107 -92 107h-44l-50 -266h-142zM269 561l-35 -187h59
c78 0 135 47 135 113c0 55 -45 79 -103 79c-27 0 -44 -2 -56 -5z" />
    <glyph glyph-name="S" unicode="S" horiz-adv-x="510" 
d="M0 37l48 119c40 -24 97 -43 159 -43c56 0 107 26 107 78c0 39 -29 63 -91 96c-71 38 -139 91 -139 178c0 137 118 219 265 219c82 0 130 -18 159 -33l-45 -120c-22 12 -70 30 -125 29c-68 0 -103 -33 -103 -70c0 -39 41 -64 98 -96c82 -42 134 -97 134 -178
c0 -150 -124 -227 -274 -227c-94 1 -161 25 -193 48z" />
    <glyph glyph-name="T" unicode="T" horiz-adv-x="527" 
d="M141 0l104 548h-178l25 126h501l-24 -126h-180l-104 -548h-144z" />
    <glyph glyph-name="U" unicode="U" horiz-adv-x="655" 
d="M144 674h144l-73 -388c-5 -23 -8 -50 -8 -79c0 -55 34 -97 98 -97c76 0 125 50 149 175l74 389h144l-73 -383c-39 -204 -128 -302 -312 -302c-139 -1 -224 72 -224 215c0 29 4 62 10 94z" />
    <glyph glyph-name="V" unicode="V" horiz-adv-x="611" 
d="M331 0h-167l-84 674h149l30 -321c7 -72 12 -137 16 -207h2c25 66 57 138 90 208l151 320h161z" />
    <glyph glyph-name="W" unicode="W" horiz-adv-x="864" 
d="M278 0h-160l-26 674h146v-300c0 -81 -2 -158 -4 -218h2c24 66 48 134 80 216l120 302h158l-2 -301c0 -81 -3 -148 -6 -214h2c23 70 48 143 74 215l117 300h151l-297 -674h-156l-5 277c-1 79 1 147 6 223h-2c-25 -72 -48 -144 -82 -227z" />
    <glyph glyph-name="X" unicode="X" horiz-adv-x="569" 
d="M517 0h-153l-46 136c-13 41 -24 73 -36 115h-2c-22 -38 -40 -72 -68 -120l-80 -131h-173l252 344l-118 330h152l41 -129c12 -42 21 -72 31 -112h3c25 46 43 78 64 114l78 127h172l-246 -331z" />
    <glyph glyph-name="Y" unicode="Y" horiz-adv-x="570" 
d="M295 0h-144l52 275l-132 399h154l43 -171c13 -56 20 -88 26 -122h2c20 36 41 74 69 123l101 170h172l-291 -396z" />
    <glyph glyph-name="Z" unicode="Z" horiz-adv-x="553" 
d="M-25 0l15 83l391 464v3h-274l25 124h467l-17 -89l-384 -458v-3h302l-24 -124h-501z" />
    <glyph glyph-name="bracketleft" unicode="[" horiz-adv-x="314" 
d="M201 -112h-201l152 798h201l-16 -83h-93l-121 -632h93z" />
    <glyph glyph-name="backslash" unicode="\" horiz-adv-x="337" 
d="M313 -40h-100l-161 725h99z" />
    <glyph glyph-name="bracketright" unicode="]" horiz-adv-x="314" 
d="M126 686h201l-152 -798h-201l16 83h93l120 632h-93z" />
    <glyph glyph-name="asciicircum" unicode="^" horiz-adv-x="596" 
d="M544 177h-108l-145 356h-3l-146 -356h-106l208 473h92z" />
    <glyph glyph-name="underscore" unicode="_" horiz-adv-x="500" 
d="M-54 -75h500l-10 -50h-500z" />
    <glyph glyph-name="quoteleft" unicode="&#x2018;" horiz-adv-x="255" 
d="M206 422l-143 -9c45 98 101 195 157 271l95 8c-43 -85 -83 -182 -109 -270z" />
    <glyph glyph-name="a" unicode="a" horiz-adv-x="554" 
d="M466 0h-132c1 29 4 62 6 97h-2c-45 -81 -108 -108 -165 -108c-88 0 -148 68 -148 170c0 165 110 341 350 341c59 0 121 -11 162 -24l-51 -256c-12 -63 -22 -159 -20 -220zM353 274l22 113c-11 2 -24 4 -39 4c-93 0 -161 -114 -161 -205c0 -48 19 -81 59 -81
c43 0 96 49 119 169z" />
    <glyph glyph-name="b" unicode="b" horiz-adv-x="560" 
d="M146 710h145l-58 -280h2c36 43 91 70 151 70c102 0 148 -84 148 -171c0 -158 -104 -340 -324 -340c-116 0 -174 50 -174 137c0 30 5 60 11 89zM199 246l-9 -40c-3 -16 -6 -34 -5 -54c1 -35 21 -54 55 -54c84 0 143 116 143 201c0 48 -20 84 -64 84
c-52 0 -103 -52 -120 -137z" />
    <glyph glyph-name="c" unicode="c" horiz-adv-x="435" 
d="M373 125l1 -109c-31 -15 -81 -26 -139 -26c-121 0 -206 74 -206 200c0 174 133 310 319 310c42 0 78 -8 100 -16l-36 -111c-17 7 -37 12 -66 12c-102 0 -166 -87 -166 -179c0 -67 43 -101 96 -101c42 0 72 10 97 20z" />
    <glyph glyph-name="d" unicode="d" horiz-adv-x="560" 
d="M444 710h143l-99 -520c-12 -62 -21 -132 -23 -190h-132l7 79h-2c-43 -65 -103 -90 -161 -90c-83 0 -151 66 -151 185c0 170 123 327 308 327c20 0 46 -4 67 -12zM355 243l26 131c-12 10 -34 17 -57 17c-87 0 -148 -100 -148 -194c0 -59 26 -92 67 -92c42 0 93 44 112 138
z" />
    <glyph glyph-name="e" unicode="e" horiz-adv-x="501" 
d="M412 132l10 -104c-57 -29 -128 -39 -183 -39c-139 0 -211 79 -211 207c0 149 108 304 285 304c99 0 170 -56 170 -147c0 -124 -121 -169 -318 -164c1 -14 6 -36 16 -50c19 -25 52 -38 94 -38c53 0 98 12 137 31zM348 354c0 24 -20 41 -53 41c-67 0 -106 -56 -116 -101
c113 -1 169 14 169 60z" />
    <glyph glyph-name="f" unicode="f" horiz-adv-x="329" 
d="M173 0h-143l72 380h-64l21 110h64l4 25c10 58 33 119 82 160c39 33 91 46 139 46c35 0 61 -5 76 -12l-25 -114c-12 5 -27 8 -46 8c-47 0 -75 -40 -84 -89l-5 -24h97l-21 -110h-96z" />
    <glyph glyph-name="g" unicode="g" horiz-adv-x="558" 
d="M11 -178l34 110c27 -16 86 -27 128 -27c72 0 125 32 146 130l8 42h-2c-38 -50 -82 -73 -140 -73c-97 0 -156 79 -157 175c-1 161 115 321 328 321c69 0 129 -13 181 -34l-74 -403c-17 -90 -45 -170 -103 -217c-53 -42 -124 -55 -189 -55c-66 0 -126 12 -160 31zM356 250
l25 131c-11 5 -32 9 -52 9c-87 0 -149 -97 -149 -189c0 -50 22 -86 66 -86c47 0 94 53 110 135z" />
    <glyph glyph-name="h" unicode="h" horiz-adv-x="563" 
d="M157 0h-144l135 710h144l-55 -284h2c41 45 92 74 156 74c76 0 123 -48 123 -132c0 -23 -4 -60 -9 -88l-53 -280h-144l51 268c4 19 6 40 6 60c0 33 -13 56 -49 56c-51 0 -102 -62 -120 -160z" />
    <glyph glyph-name="i" unicode="i" horiz-adv-x="265" 
d="M157 0h-144l93 489h144zM197 550h-2c-40 0 -69 28 -69 70c0 49 39 82 83 82c43 0 73 -28 73 -71c0 -51 -39 -81 -85 -81z" />
    <glyph glyph-name="j" unicode="j" horiz-adv-x="275" 
d="M121 489h143l-89 -473c-15 -84 -36 -137 -68 -173s-83 -52 -134 -52c-22 0 -46 2 -68 8l16 108c10 -1 20 -2 32 -2c33 0 61 17 77 105zM205 550c-40 0 -69 28 -69 70c0 49 39 82 83 82c42 0 72 -28 72 -71c0 -51 -39 -81 -86 -81z" />
    <glyph glyph-name="k" unicode="k" horiz-adv-x="530" 
d="M156 0h-143l135 710h143l-81 -425h2c15 19 30 38 44 55l125 149h178l-208 -202l136 -287h-161l-86 209l-54 -52z" />
    <glyph glyph-name="l" unicode="l" horiz-adv-x="265" 
d="M157 0h-144l136 710h144z" />
    <glyph glyph-name="m" unicode="m" horiz-adv-x="831" 
d="M152 0h-139l61 330c11 62 19 115 25 159h123l-9 -79h2c45 63 105 91 168 91c78 0 112 -50 116 -93c44 63 105 93 169 93c75 0 119 -49 119 -132c0 -20 -4 -59 -8 -84l-53 -285h-140l49 268c4 19 7 40 7 59c0 34 -15 58 -48 58c-48 0 -96 -64 -115 -163l-41 -222h-139
l51 269c3 20 6 39 6 56c0 34 -11 60 -46 60c-49 0 -101 -68 -118 -165z" />
    <glyph glyph-name="n" unicode="n" horiz-adv-x="563" 
d="M156 0h-144l62 330c13 62 20 115 27 159h127l-9 -81h2c46 63 106 92 171 92c80 0 126 -49 126 -134c0 -22 -4 -58 -8 -82l-54 -284h-145l52 271c3 17 5 36 5 54c0 35 -12 59 -49 59c-47 0 -102 -59 -122 -167z" />
    <glyph glyph-name="o" unicode="o" horiz-adv-x="559" 
d="M322 501c131 0 207 -90 207 -202c0 -179 -123 -310 -292 -310c-124 0 -207 81 -207 203c0 169 118 309 292 309zM303 391c-83 0 -124 -121 -124 -197c0 -57 28 -95 79 -95c77 0 122 116 122 199c0 45 -20 93 -77 93z" />
    <glyph glyph-name="p" unicode="p" horiz-adv-x="562" 
d="M117 -198h-144l95 498c11 58 22 143 28 193h129l-9 -75h2c40 53 98 82 157 82c106 0 158 -85 158 -186c0 -169 -113 -325 -284 -325c-39 0 -73 10 -90 20h-3zM197 227l-18 -106c16 -14 37 -23 66 -23c77 0 137 109 137 205c0 39 -17 80 -63 80c-54 0 -104 -60 -122 -156z
" />
    <glyph glyph-name="q" unicode="q" horiz-adv-x="560" 
d="M415 -198h-144l59 269h-2c-37 -55 -95 -82 -151 -82c-90 0 -151 74 -151 185c0 156 108 326 333 326c71 0 133 -16 181 -29zM356 247l25 133c-13 6 -32 10 -56 10c-88 0 -149 -106 -149 -198c0 -57 25 -87 61 -87c50 0 102 54 119 142z" />
    <glyph glyph-name="r" unicode="r" horiz-adv-x="370" 
d="M157 0h-144l55 291c14 74 20 156 25 198h125c-3 -33 -5 -66 -9 -100h3c35 65 89 111 156 111c9 0 18 0 27 -1l-28 -140c-7 1 -15 1 -23 1c-92 0 -135 -82 -153 -178z" />
    <glyph glyph-name="s" unicode="s" horiz-adv-x="416" 
d="M-4 28l35 101c28 -14 80 -34 127 -34c41 0 62 20 62 44s-16 41 -61 63c-56 28 -103 69 -103 130c0 102 89 169 215 169c57 0 102 -12 126 -25l-35 -102c-20 9 -55 21 -97 21c-39 0 -64 -16 -64 -43c0 -20 20 -37 59 -56c54 -27 110 -66 110 -134
c0 -112 -95 -173 -225 -172c-62 1 -120 17 -149 38z" />
    <glyph glyph-name="t" unicode="t" horiz-adv-x="348" 
d="M141 582l148 40l-25 -132h105l-22 -110h-104l-33 -166c-4 -19 -8 -45 -8 -62c0 -24 10 -41 42 -41c12 0 27 0 39 2l-16 -113c-19 -7 -55 -11 -85 -11c-87 0 -128 44 -128 106c0 26 3 53 11 91l37 194h-62l20 110h63z" />
    <glyph glyph-name="u" unicode="u" horiz-adv-x="560" 
d="M400 489h143l-62 -330c-12 -62 -20 -115 -26 -159h-127l9 79l-2 1c-50 -64 -109 -91 -168 -91c-79 0 -126 44 -126 137c0 26 3 56 10 90l52 273h144l-50 -262c-4 -23 -7 -47 -7 -65c0 -31 13 -56 49 -56c49 0 99 59 118 156z" />
    <glyph glyph-name="v" unicode="v" horiz-adv-x="512" 
d="M46 489h148l23 -214c5 -60 10 -97 13 -133h3c13 35 28 72 55 132l98 215h161l-272 -489h-147z" />
    <glyph glyph-name="w" unicode="w" horiz-adv-x="733" 
d="M51 489h146l1 -207c0 -56 -2 -102 -5 -156h2c17 52 39 101 60 151l96 212h118l12 -205c2 -58 4 -105 1 -158h3c16 54 33 103 53 160l84 203h145l-238 -489h-135l-14 170c-4 52 -4 99 -4 157h-2c-26 -69 -38 -105 -58 -150l-83 -177h-136z" />
    <glyph glyph-name="x" unicode="x" horiz-adv-x="498" 
d="M49 489h158l29 -73c15 -39 24 -64 31 -82h3c18 26 31 48 52 78l54 77h165l-206 -238l114 -251h-158l-31 78c-14 35 -22 60 -31 89h-3c-14 -23 -27 -48 -49 -82l-59 -85h-166l212 253z" />
    <glyph glyph-name="y" unicode="y" horiz-adv-x="497" 
d="M44 489h151l30 -213c7 -51 12 -86 16 -117h2c11 30 22 61 43 114l89 216h152l-175 -352c-65 -130 -123 -218 -188 -279c-57 -54 -125 -79 -157 -84l-32 124c23 7 55 19 83 38c33 23 61 52 80 85c4 8 4 14 2 24z" />
    <glyph glyph-name="z" unicode="z" horiz-adv-x="450" 
d="M-26 0l16 87l159 170c41 43 72 73 119 113l1 2h-209l23 117h382l-17 -91l-155 -166c-44 -46 -75 -77 -119 -113l-1 -2h230l-23 -117h-406z" />
    <glyph glyph-name="braceleft" unicode="{" horiz-adv-x="314" 
d="M31 249l14 77c68 3 82 38 88 68c9 49 10 106 19 157c18 94 80 135 172 135h37l-16 -84h-18c-43 0 -64 -27 -73 -71c-8 -36 -8 -75 -16 -126c-11 -76 -45 -105 -103 -117v-2c40 -9 66 -35 66 -74c0 -29 -10 -65 -21 -101c-10 -35 -21 -69 -21 -93c0 -29 16 -46 48 -46h18
l-15 -84h-30c-79 0 -131 28 -131 106c0 35 13 75 23 111c11 37 23 71 23 95c0 29 -20 48 -64 49z" />
    <glyph glyph-name="bar" unicode="|" horiz-adv-x="240" 
d="M87 750h98v-1000h-98v1000z" />
    <glyph glyph-name="braceright" unicode="}" horiz-adv-x="314" 
d="M296 325l-14 -77c-68 -3 -82 -38 -88 -68c-9 -49 -10 -106 -19 -157c-18 -94 -80 -135 -172 -135h-37l16 84h18c43 0 64 27 73 72c8 36 8 74 16 125c11 76 45 105 103 117v2c-40 9 -66 35 -66 74c0 29 12 65 22 101c10 35 21 69 21 93c0 29 -16 46 -48 46h-18l15 84h30
c79 0 131 -28 131 -106c0 -35 -11 -74 -23 -111c-12 -36 -24 -70 -24 -95c0 -29 20 -48 64 -49z" />
    <glyph glyph-name="asciitilde" unicode="~" horiz-adv-x="596" 
d="M143 193h-95c-1 133 58 185 139 185c47 0 84 -16 138 -47c43 -25 70 -40 94 -40s39 21 41 81h95c6 -142 -57 -187 -133 -187c-48 0 -92 20 -146 53c-25 14 -61 36 -87 36c-30 0 -43 -33 -46 -81z" />
    <glyph glyph-name="exclamdown" unicode="&#xa1;" horiz-adv-x="269" 
d="M128 -191h-155l109 452h111zM172 494c48 0 80 -35 80 -82c0 -53 -40 -100 -97 -100c-48 0 -82 35 -82 84c0 57 41 98 99 98z" />
    <glyph glyph-name="cent" unicode="&#xa2;" horiz-adv-x="541" 
d="M318 -12h-95l19 99c-52 9 -91 33 -118 67c-26 33 -40 78 -40 131c0 157 114 268 252 293l18 95h94l-17 -91c27 -1 65 -8 86 -19l-42 -109c-21 10 -47 17 -85 17c-85 0 -152 -71 -152 -167c0 -69 46 -108 109 -108c35 0 65 9 91 19l6 -107c-31 -15 -70 -23 -109 -24z" />
    <glyph glyph-name="sterling" unicode="&#xa3;" horiz-adv-x="541" 
d="M459 0h-445l14 81c51 21 105 73 125 126c8 19 10 40 9 62h-94l20 103h73c1 36 4 73 13 109c28 109 109 180 236 180c52 0 90 -13 108 -25l-38 -110c-20 11 -44 16 -75 16c-58 0 -90 -37 -101 -88c-5 -28 -6 -55 -5 -82h137l-20 -103h-121c-2 -20 -6 -38 -14 -59
c-11 -33 -33 -65 -64 -86v-2h261z" />
    <glyph glyph-name="fraction" unicode="&#x2044;" horiz-adv-x="143" 
d="M-115 -11h-86l490 672h86z" />
    <glyph glyph-name="yen" unicode="&#xa5;" horiz-adv-x="541" 
d="M284 0h-134l30 160h-150l14 71h149l12 64h-150l14 71h115l-106 284h150l37 -160c9 -40 17 -74 23 -109h3c18 33 38 71 62 110l99 159h159l-220 -284h114l-14 -71h-152l-11 -64h152l-14 -71h-151z" />
    <glyph glyph-name="florin" unicode="&#x192;" horiz-adv-x="541" 
d="M117 307l15 103h89l8 34c17 69 64 217 233 217c34 0 62 -7 79 -18l-36 -103c-14 7 -30 10 -49 10c-43 0 -72 -37 -86 -97l-10 -43h102l-15 -103h-112l-44 -186c-28 -116 -80 -213 -214 -212c-42 0 -72 10 -87 19l30 102c13 -6 31 -10 50 -10c39 0 66 31 93 146l33 141
h-79z" />
    <glyph glyph-name="section" unicode="&#xa7;" horiz-adv-x="556" 
d="M181 335c0 -29 18 -53 74 -75c35 -14 79 -32 98 -44c23 14 43 38 43 64c0 32 -22 55 -56 72c-36 16 -85 35 -110 48c-24 -10 -49 -34 -49 -65zM529 649l-35 -88c-30 16 -77 31 -131 31s-90 -23 -90 -56c0 -28 27 -44 94 -68c85 -32 153 -73 153 -155
c0 -68 -46 -116 -97 -146c19 -19 28 -47 28 -72c0 -123 -121 -172 -230 -172c-60 0 -133 11 -186 49l39 90c33 -23 88 -45 146 -45c57 0 94 22 94 56c0 28 -25 48 -94 75c-77 30 -162 73 -162 152c0 64 45 118 111 148c-20 23 -26 46 -26 68c0 114 118 169 231 169
c59 0 117 -13 155 -36z" />
    <glyph glyph-name="currency" unicode="&#xa4;" horiz-adv-x="541" 
d="M281 550c47 0 86 -13 113 -36l78 84l66 -69l-87 -79c16 -24 33 -60 33 -114c0 -57 -18 -95 -36 -120l86 -81l-65 -67l-75 87c-29 -25 -74 -39 -115 -39c-42 0 -86 14 -113 38l-73 -86l-66 67l85 80c-18 24 -37 62 -37 118c0 57 18 93 35 117l-87 79l67 69l76 -84
c29 23 70 36 115 36zM278 452c-52 0 -96 -47 -96 -118c0 -81 53 -120 98 -120c46 0 97 38 97 121c0 67 -42 117 -99 117z" />
    <glyph glyph-name="quotesingle" unicode="'" horiz-adv-x="198" 
d="M117 692h134l-74 -277h-91z" />
    <glyph glyph-name="quotedblleft" unicode="&#x201c;" horiz-adv-x="448" 
d="M205 422l-143 -9c45 98 101 195 157 271l95 8c-43 -85 -83 -182 -109 -270zM401 422l-143 -9c44 98 100 195 157 271l95 8c-43 -85 -83 -182 -109 -270z" />
    <glyph glyph-name="guillemotleft" unicode="&#xab;" horiz-adv-x="461" 
d="M267 443l-144 -193l96 -188h-100l-97 190l135 191h110zM460 443l-144 -193l96 -188h-100l-97 190l135 191h110z" />
    <glyph glyph-name="guilsinglleft" unicode="&#x2039;" horiz-adv-x="268" 
d="M267 443l-144 -193l96 -188h-100l-97 190l135 191h110z" />
    <glyph glyph-name="guilsinglright" unicode="&#x203a;" horiz-adv-x="267" 
d="M149 256l-96 187h100l97 -191l-135 -190h-110z" />
    <glyph glyph-name="fi" unicode="&#xfb01;" horiz-adv-x="564" 
d="M174 0h-143l71 380h-63l21 110h63l4 19c25 136 128 211 273 211c56 0 111 -14 135 -28l-38 -111c-24 10 -62 22 -107 22c-84 0 -113 -46 -121 -94l-3 -19h283l-93 -490h-144l71 380h-137z" />
    <glyph glyph-name="fl" unicode="&#xfb02;" horiz-adv-x="564" 
d="M174 0h-144l72 380h-64l21 110h63l4 21c11 56 40 117 98 159c47 35 110 51 183 51c56 0 133 -14 177 -41l-128 -680h-144l113 598c-10 5 -26 10 -55 10c-57 0 -92 -45 -101 -100l-3 -18h84l-21 -110h-83z" />
    <glyph glyph-name="endash" unicode="&#x2013;" horiz-adv-x="500" 
d="M40 301h440l-18 -94h-440z" />
    <glyph glyph-name="dagger" unicode="&#x2020;" horiz-adv-x="519" 
d="M273 674h135l-52 -201l172 12l-22 -116l-167 12l-70 -431h-135l96 431l-172 -12l22 116l167 -12z" />
    <glyph glyph-name="daggerdbl" unicode="&#x2021;" horiz-adv-x="519" 
d="M275 674h132l-47 -185l170 12l-22 -116l-166 12l-30 -162l170 12l-22 -116l-166 12l-26 -193h-132l48 193l-170 -12l22 116l165 -12l31 162l-170 -12l22 116l166 -12z" />
    <glyph glyph-name="periodcentered" unicode="&#xb7;" horiz-adv-x="260" 
d="M120 166c-48 0 -80 35 -80 83c0 55 40 102 97 102c49 0 83 -35 83 -86c0 -58 -41 -99 -100 -99z" />
    <glyph glyph-name="paragraph" unicode="&#xb6;" horiz-adv-x="538" 
d="M241 -51l-93 -1l60 311c-4 2 -9 3 -13 4c-66 20 -124 75 -124 164c0 159 131 247 329 247c62 0 116 -3 144 -10l-137 -715h-94l122 636h-72z" />
    <glyph glyph-name="bullet" unicode="&#x2022;" horiz-adv-x="336" 
d="M169 133c-71 0 -129 56 -129 130c-1 74 58 131 130 131s130 -57 130 -131c0 -73 -57 -130 -131 -130z" />
    <glyph glyph-name="quotesinglbase" unicode="&#x201a;" horiz-adv-x="255" 
d="M46 -106l-100 -9c44 89 87 189 113 280l150 10c-46 -102 -105 -203 -163 -281z" />
    <glyph glyph-name="quotedblbase" unicode="&#x201e;" horiz-adv-x="448" 
d="M38 -106l-100 -9c45 89 87 189 113 280l150 10c-46 -102 -104 -203 -163 -281zM250 -106l-100 -9c44 89 87 189 113 280l150 10c-46 -102 -105 -203 -163 -281z" />
    <glyph glyph-name="quotedblright" unicode="&#x201d;" horiz-adv-x="448" 
d="M167 683l143 9c-45 -98 -100 -196 -157 -271l-95 -8c43 85 83 182 109 270zM363 683l143 9c-45 -98 -101 -196 -157 -271l-95 -8c43 85 83 182 109 270z" />
    <glyph glyph-name="guillemotright" unicode="&#xbb;" horiz-adv-x="460" 
d="M149 256l-96 187h100l97 -191l-135 -190h-110zM342 256l-96 187h100l97 -191l-135 -190h-110z" />
    <glyph glyph-name="ellipsis" unicode="&#x2026;" horiz-adv-x="1000" 
d="M124 -10c-48 0 -80 35 -80 83c0 55 40 102 97 102c49 0 83 -35 83 -86c0 -58 -41 -99 -100 -99zM458 -10c-48 0 -80 35 -80 83c0 55 40 102 97 102c49 0 83 -35 83 -86c0 -58 -41 -99 -100 -99zM792 -10c-48 0 -80 35 -80 83c0 55 40 102 97 102c49 0 83 -35 83 -86
c0 -58 -41 -99 -100 -99z" />
    <glyph glyph-name="perthousand" unicode="&#x2030;" horiz-adv-x="1260" 
d="M276 661c90 0 143 -63 143 -149c0 -143 -91 -252 -209 -252c-85 0 -147 57 -147 154c0 130 85 247 213 247zM261 578c-57 0 -88 -106 -88 -167c0 -39 15 -68 48 -68c60 0 88 113 88 171c0 34 -13 64 -48 64zM248 -11h-85l482 671h85zM691 392c90 0 143 -63 143 -149
c0 -143 -91 -252 -209 -252c-86 0 -148 57 -148 154c0 130 85 247 214 247zM675 309c-57 0 -88 -106 -88 -167c0 -38 15 -68 49 -68c60 0 88 113 88 171c0 34 -13 64 -49 64zM1082 392c90 0 143 -63 143 -149c0 -143 -91 -252 -209 -252c-85 0 -147 57 -147 154
c0 130 85 247 213 247zM1067 309c-57 0 -88 -106 -88 -167c0 -38 15 -68 48 -68c60 0 88 113 88 171c0 34 -13 64 -48 64z" />
    <glyph glyph-name="questiondown" unicode="&#xbf;" horiz-adv-x="437" 
d="M171 265h140c-1 -9 -2 -18 -3 -26c-8 -54 -36 -107 -90 -167c-40 -42 -81 -76 -81 -111c0 -26 14 -47 59 -48c44 0 81 10 109 28l19 -101c-37 -23 -94 -43 -169 -43c-97 0 -166 55 -166 137c0 76 48 128 108 189c40 39 60 73 69 117zM276 494c47 0 79 -35 79 -82
c0 -53 -40 -100 -97 -100c-48 0 -82 35 -82 84c0 57 41 98 100 98z" />
    <glyph glyph-name="grave" unicode="`" 
d="M119 700h139l75 -152h-103z" />
    <glyph glyph-name="acute" unicode="&#xb4;" 
d="M273 700h142l-130 -152h-106z" />
    <glyph glyph-name="circumflex" unicode="&#x2c6;" 
d="M229 700h99l75 -152h-93l-40 79h-2l-58 -79h-102z" />
    <glyph glyph-name="tilde" unicode="&#x2dc;" 
d="M194 558h-70c11 80 45 126 96 126c28 0 45 -10 62 -20c15 -10 28 -19 39 -19c16 0 23 10 32 44h69c-13 -87 -46 -123 -98 -123c-27 0 -49 9 -64 19c-14 11 -26 18 -38 18c-13 0 -23 -19 -28 -45z" />
    <glyph glyph-name="macron" unicode="&#xaf;" 
d="M154 662h246l-16 -78h-246z" />
    <glyph glyph-name="breve" unicode="&#x2d8;" 
d="M151 690h73c2 -31 12 -56 47 -56c40 0 58 28 65 56h75c-13 -78 -61 -130 -146 -130c-93 0 -123 57 -114 130z" />
    <glyph glyph-name="dotaccent" unicode="&#x2d9;" 
d="M263 553c-36 0 -67 26 -67 66c0 46 34 77 76 77c41 0 67 -28 67 -67c0 -46 -34 -76 -76 -76z" />
    <glyph glyph-name="dieresis" unicode="&#xa8;" 
d="M162 554c-35 0 -66 25 -66 66c0 45 34 75 76 75c39 0 65 -29 65 -66c0 -46 -33 -75 -75 -75zM367 554c-36 0 -66 25 -66 66c0 45 34 75 76 75c39 0 65 -29 65 -66c0 -46 -33 -75 -75 -75z" />
    <glyph glyph-name="ring" unicode="&#x2da;" 
d="M279 735c58 0 107 -32 107 -94c-2 -66 -57 -103 -124 -103c-57 0 -104 34 -106 90c-2 65 51 107 123 107zM272 685c-28 0 -47 -23 -47 -53c0 -23 15 -44 43 -44c30 0 49 23 49 51c0 25 -15 46 -45 46z" />
    <glyph glyph-name="cedilla" unicode="&#xb8;" 
d="M122 4h79l-34 -48c35 -9 61 -33 61 -65c0 -73 -70 -98 -126 -98c-33 0 -62 9 -78 21l25 57c16 -10 36 -16 53 -16c18 0 37 8 37 28c0 18 -18 32 -72 36z" />
    <glyph glyph-name="hungarumlaut" unicode="&#x2dd;" 
d="M188 700h123l-121 -152h-86zM363 700h123l-120 -152h-87z" />
    <glyph glyph-name="ogonek" unicode="&#x2db;" 
d="M126 1h83c-24 -26 -45 -61 -45 -87c0 -24 15 -39 41 -39c19 0 37 5 47 9l9 -71c-29 -22 -69 -32 -105 -32c-61 0 -97 32 -97 86c0 53 41 106 67 134z" />
    <glyph glyph-name="caron" unicode="&#x2c7;" 
d="M309 548h-99l-75 152h93l40 -79h2l60 79h101z" />
    <glyph glyph-name="emdash" unicode="&#x2014;" horiz-adv-x="1000" 
d="M40 301h940l-18 -94h-940z" />
    <glyph glyph-name="AE" unicode="&#xc6;" horiz-adv-x="845" 
d="M106 0h-154l413 674h484l-23 -123h-256l-12 -147h243l-23 -121h-225l-12 -160h254l-23 -123h-378l14 185h-194zM282 304h132l14 165c2 31 5 65 8 98h-4c-17 -33 -36 -70 -53 -99z" />
    <glyph glyph-name="ordfeminine" unicode="&#xaa;" horiz-adv-x="400" 
d="M369 268h-96c0 16 0 34 1 51h-1c-29 -40 -68 -58 -111 -58c-57 0 -101 42 -101 118c0 107 70 212 227 212c49 0 98 -12 123 -22l-35 -201c-6 -38 -7 -77 -7 -100zM281 407l17 103c-11 4 -22 6 -35 6c-58 0 -95 -63 -95 -117c0 -34 15 -57 45 -57s58 30 68 65z" />
    <glyph glyph-name="Lslash" unicode="&#x141;" horiz-adv-x="499" 
d="M433 0h-403l45 235l-85 -51l21 105l84 52l63 333h144l-45 -233l138 85l-19 -107l-139 -84l-39 -209h259z" />
    <glyph glyph-name="Oslash" unicode="&#xd8;" horiz-adv-x="702" 
d="M101 -66l-68 64l72 86c-37 47 -59 109 -59 193c0 121 45 233 122 309c64 63 150 99 242 99c66 0 116 -13 158 -42l73 88l73 -58l-77 -93c31 -42 51 -101 51 -182c1 -120 -45 -235 -118 -310c-63 -62 -152 -99 -243 -99c-61 0 -108 13 -147 38zM207 207l275 333
c-19 17 -44 26 -80 26c-90 0 -162 -77 -192 -169c-20 -60 -24 -128 -6 -190h3zM531 453l-267 -323c19 -15 42 -22 75 -22c85 0 152 69 183 160c19 56 25 119 12 185h-3z" />
    <glyph glyph-name="OE" unicode="&#x152;" horiz-adv-x="909" 
d="M846 123l-22 -123h-356c-16 0 -33 -2 -54 -5c-24 -4 -49 -5 -81 -5c-186 0 -291 122 -291 285c0 223 154 409 411 409c43 0 66 -3 88 -5c28 -3 47 -5 68 -5h327l-23 -123h-258l-26 -144h242l-23 -121h-243l-30 -163h271zM430 118l82 436c-16 6 -38 10 -69 10
c-149 0 -247 -130 -247 -279c0 -104 62 -175 170 -175c23 0 44 3 64 8z" />
    <glyph glyph-name="ordmasculine" unicode="&#xba;" horiz-adv-x="383" 
d="M247 591c89 0 149 -55 149 -139c0 -116 -82 -191 -196 -191c-85 0 -146 58 -146 137c0 115 82 193 193 193zM238 517c-48 0 -76 -68 -76 -121c0 -36 20 -61 50 -61c46 0 76 64 76 123c0 31 -13 59 -50 59z" />
    <glyph glyph-name="ae" unicode="&#xe6;" horiz-adv-x="763" 
d="M676 132l5 -102c-55 -31 -123 -41 -179 -41c-72 0 -135 31 -162 87h-4c-41 -52 -103 -87 -182 -87c-90 0 -150 58 -150 135c0 146 167 202 314 200l2 11c4 23 -13 64 -79 64c-58 0 -104 -21 -136 -43l-23 92c41 27 106 53 177 53c72 0 123 -27 144 -79h3
c38 48 101 79 173 79c115 0 167 -71 167 -135c0 -141 -144 -170 -319 -162c-2 -21 -1 -42 8 -59c18 -28 55 -43 101 -43c60 0 98 12 140 30zM296 186l8 44c-55 2 -156 -13 -156 -83c0 -30 21 -48 54 -48c42 0 83 31 94 87zM607 353c0 21 -18 43 -56 43
c-63 0 -101 -56 -108 -93c85 -5 164 0 164 50z" />
    <glyph glyph-name="dotlessi" unicode="&#x131;" horiz-adv-x="265" 
d="M157 0h-144l93 489h144z" />
    <glyph glyph-name="lslash" unicode="&#x142;" horiz-adv-x="278" 
d="M164 0h-144l44 228l-74 -50l21 108l73 50l72 374h143l-50 -261l81 55l-21 -109l-81 -55z" />
    <glyph glyph-name="oslash" unicode="&#xf8;" horiz-adv-x="560" 
d="M57 -56l-40 41l61 71c-32 35 -49 81 -49 139c0 167 119 306 291 306c44 0 82 -10 112 -28l62 70l44 -39l-59 -69c34 -38 50 -89 50 -136c0 -188 -130 -310 -283 -310c-54 0 -92 11 -123 31zM183 173l168 205c-12 12 -27 18 -50 18c-82 0 -124 -114 -125 -178
c-1 -16 0 -31 4 -44zM375 316l-170 -202c13 -14 30 -20 53 -20c76 0 122 101 124 176c0 15 -1 30 -4 46h-3z" />
    <glyph glyph-name="oe" unicode="&#x153;" horiz-adv-x="826" 
d="M738 132l9 -101c-55 -32 -123 -42 -175 -42c-68 0 -131 25 -166 86h-3c-42 -60 -108 -86 -176 -86c-115 0 -199 80 -199 209c0 174 120 303 270 303c75 0 132 -31 160 -88h2c42 55 108 88 182 88c112 0 165 -71 165 -140c0 -144 -160 -173 -312 -170c-2 -17 3 -36 14 -51
c19 -24 53 -38 96 -38c56 0 95 13 133 30zM254 100c81 0 122 118 122 195c0 51 -18 98 -75 98c-82 0 -124 -110 -124 -193c0 -59 29 -100 77 -100zM673 351c0 23 -16 45 -59 45c-59 0 -94 -56 -105 -100c82 -2 164 6 164 55z" />
    <glyph glyph-name="germandbls" unicode="&#xdf;" horiz-adv-x="580" 
d="M157 0h-144l85 449c31 164 115 272 284 272c106 0 187 -63 187 -161c0 -40 -15 -77 -41 -101c-37 -19 -69 -44 -69 -82c0 -26 11 -47 28 -73c22 -34 44 -81 44 -127c0 -131 -95 -188 -213 -188c-49 0 -89 11 -110 23l34 105c20 -11 49 -17 72 -17c43 0 71 22 71 59
c0 19 -6 39 -28 73c-27 42 -46 76 -46 117c0 65 48 114 100 142c9 12 17 27 17 52c0 34 -22 63 -65 63c-54 0 -100 -45 -120 -151z" />
    <glyph glyph-name="onesuperior" unicode="&#xb9;" horiz-adv-x="274" 
d="M252 406h-117l57 295h-2l-78 -32l-9 80l122 47h101z" />
    <glyph glyph-name="logicalnot" unicode="&#xac;" horiz-adv-x="596" 
d="M34 422h511v-316h-97v223h-414v93z" />
    <glyph glyph-name="mu" unicode="&#xb5;" horiz-adv-x="559" 
d="M245 489l-52 -275c-15 -78 6 -108 54 -108c37 0 69 40 86 76c6 11 11 24 13 37l52 270h144l-62 -329c-8 -45 3 -58 30 -59l-27 -104c-12 -5 -25 -8 -48 -8c-53 0 -82 28 -89 91h-3c-27 -48 -66 -87 -123 -87c-31 0 -57 10 -72 30l-8 -44c-9 -52 -22 -137 -21 -177h-129
c-6 23 1 102 16 180l95 507h144z" />
    <glyph glyph-name="trademark" unicode="&#x2122;" horiz-adv-x="698" 
d="M104 674h239v-67h-79v-206h-83v206h-77v67zM716 401h-80l-5 119c-1 31 0 65 -1 107h-4c-8 -37 -17 -76 -24 -107l-28 -114h-79l-24 116c-5 26 -11 69 -18 105h-4c-1 -37 -1 -75 -3 -106l-6 -120h-78l17 273h128l18 -67c5 -21 9 -43 16 -88h1c7 33 13 60 20 88l20 67h119z
" />
    <glyph glyph-name="Eth" unicode="&#xd0;" horiz-adv-x="693" 
d="M10 287l24 119h76l48 258c59 10 120 15 184 15c105 0 191 -21 247 -69c56 -45 90 -117 90 -214c0 -132 -55 -244 -139 -310c-78 -62 -177 -90 -322 -90c-85 0 -151 7 -185 13l54 278h-77zM384 406l-23 -119h-129l-33 -170c17 -3 38 -4 64 -4c74 0 145 28 189 78
c46 52 71 123 71 200c0 109 -59 173 -175 173c-28 0 -48 -2 -64 -5l-30 -153h130z" />
    <glyph glyph-name="onehalf" unicode="&#xbd;" horiz-adv-x="826" 
d="M241 266h-117l56 295h-1l-78 -32l-9 79l122 48h101zM187 -11h-86l491 672h85zM738 0h-302l11 57l74 58c83 62 141 107 141 151c0 22 -15 40 -50 40c-32 0 -64 -13 -88 -29l-17 73c36 26 88 45 146 45c71 0 132 -35 132 -107c0 -79 -73 -131 -143 -180l-27 -20v-2h139z
" />
    <glyph glyph-name="plusminus" unicode="&#xb1;" horiz-adv-x="596" 
d="M242 579h97v-173h207v-93h-207v-176h-97v176h-207v93h207v173zM35 93h511v-93h-511v93z" />
    <glyph glyph-name="Thorn" unicode="&#xde;" horiz-adv-x="558" 
d="M19 0l128 674h140l-22 -121c15 2 38 4 67 4c63 0 119 -14 159 -47c38 -32 59 -78 59 -130c0 -176 -142 -252 -297 -252c-31 0 -53 2 -68 4l-25 -132h-141zM243 438l-36 -189c14 -3 34 -5 57 -5c78 0 141 46 141 116c0 57 -41 83 -106 83c-23 0 -44 -2 -56 -5z" />
    <glyph glyph-name="onequarter" unicode="&#xbc;" horiz-adv-x="826" 
d="M691 0h-108l17 90h-194l13 64l212 240h135l-43 -230h52l-14 -74h-52zM615 164l14 74c4 26 12 50 18 74h-3c-17 -24 -33 -47 -49 -66l-69 -81l2 -1h87zM247 266h-116l56 295h-1l-78 -32l-9 79l122 48h101zM211 -11h-90l487 672h89z" />
    <glyph glyph-name="divide" unicode="&#xf7;" horiz-adv-x="596" 
d="M298 368c-43 0 -72 30 -72 74c0 45 30 74 73 74c44 0 72 -29 73 -74c0 -44 -29 -74 -74 -74zM554 220h-511v93h511v-93zM298 17c-43 0 -72 30 -72 74c0 45 30 74 73 74c44 0 72 -29 73 -74c0 -44 -29 -74 -74 -74z" />
    <glyph glyph-name="brokenbar" unicode="&#xa6;" horiz-adv-x="240" 
d="M87 174h98v-350h-98v350zM87 674h98v-350h-98v350z" />
    <glyph glyph-name="degree" unicode="&#xb0;" horiz-adv-x="356" 
d="M237 685c89 0 147 -64 147 -142c0 -86 -74 -151 -156 -151c-87 0 -147 62 -147 142c-1 82 70 151 156 151zM234 615c-41 0 -73 -40 -73 -80c0 -43 30 -73 71 -73c42 0 72 36 72 80c0 38 -22 73 -70 73z" />
    <glyph glyph-name="thorn" unicode="&#xfe;" horiz-adv-x="564" 
d="M-27 -198l165 875h144l-47 -248h2c26 38 76 71 139 71c104 0 158 -82 158 -185c-1 -180 -119 -326 -283 -326c-36 0 -73 9 -92 20h-3l-39 -207h-144zM196 220l-19 -100c16 -12 40 -22 67 -22c79 0 138 105 138 204c0 40 -17 81 -63 81c-53 0 -103 -58 -123 -163z" />
    <glyph glyph-name="threequarters" unicode="&#xbe;" horiz-adv-x="826" 
d="M241 -11h-89l486 672h90zM111 554l-10 71c32 21 81 36 138 36c72 0 133 -36 133 -90c0 -50 -43 -81 -97 -95l-1 -2c40 -8 80 -37 80 -85c0 -83 -87 -128 -186 -128c-56 0 -109 13 -138 33l35 76c20 -15 59 -30 95 -30c42 0 73 21 73 50c0 31 -35 48 -84 48h-18l14 68h16
c42 0 89 14 89 45c0 17 -13 31 -47 31c-33 0 -71 -14 -92 -28zM702 0h-108l17 90h-194l12 64l213 240h135l-43 -230h52l-15 -74h-52zM625 164l14 74c5 26 13 50 19 74h-3c-17 -24 -33 -47 -49 -66l-69 -81l2 -1h86z" />
    <glyph glyph-name="twosuperior" unicode="&#xb2;" horiz-adv-x="341" 
d="M349 406h-304l11 57l75 58c84 61 141 107 141 151c0 22 -15 40 -50 40c-32 0 -65 -13 -89 -29l-17 73c36 26 88 45 145 45c73 0 134 -35 134 -107c0 -79 -74 -131 -143 -181l-27 -19v-2h140z" />
    <glyph glyph-name="registered" unicode="&#xae;" horiz-adv-x="409" 
d="M238 489v-57h-49v157c11 2 38 6 70 6c37 0 52 -5 64 -13c10 -6 17 -18 17 -34s-15 -30 -36 -36v-2c17 -5 27 -18 32 -40c5 -23 8 -33 11 -38h-54c-5 6 -8 19 -12 34c-3 16 -11 23 -27 23h-16zM240 560v-38h14c19 0 30 7 30 19c0 13 -11 20 -28 20c-6 0 -12 -1 -16 -1z
M261 685c99 0 176 -77 176 -172c0 -96 -77 -173 -177 -173c-98 0 -178 77 -178 173c0 95 80 172 179 172zM259 642c-71 0 -124 -58 -124 -130c0 -71 53 -129 125 -129c72 -1 125 58 125 130c0 71 -53 129 -126 129z" />
    <glyph glyph-name="minus" unicode="&#x2212;" horiz-adv-x="596" 
d="M46 314h511v-93h-511v93z" />
    <glyph glyph-name="eth" unicode="&#xf0;" horiz-adv-x="558" 
d="M252 98c77 0 118 88 121 171c2 33 1 48 -7 66c-10 18 -30 34 -67 34c-75 0 -124 -96 -124 -178c0 -51 26 -93 77 -93zM150 478l-20 59l122 52c-24 18 -55 36 -84 49l66 79c55 -20 101 -47 143 -79l141 58l21 -59l-111 -45c59 -59 99 -153 99 -263
c0 -198 -116 -340 -288 -340c-135 0 -213 88 -213 205c0 151 113 274 259 279c28 1 56 -4 80 -23l1 2c-13 37 -33 68 -60 92z" />
    <glyph glyph-name="multiply" unicode="&#xd7;" horiz-adv-x="596" 
d="M35 460l65 66l192 -199l191 199l66 -66l-194 -197l194 -196l-66 -67l-192 199l-191 -199l-64 67l192 196z" />
    <glyph glyph-name="threesuperior" unicode="&#xb3;" horiz-adv-x="335" 
d="M130 694l-10 71c32 21 81 36 138 36c72 0 133 -36 133 -90c0 -50 -43 -81 -98 -95v-2c39 -8 80 -37 80 -85c0 -84 -87 -128 -186 -128c-56 0 -109 13 -138 33l35 75c20 -14 59 -29 95 -29c42 0 73 21 73 50c0 31 -35 48 -84 48h-18l14 68h16c42 0 89 14 89 45
c0 17 -13 31 -47 31c-33 0 -71 -14 -92 -28z" />
    <glyph glyph-name="copyright" unicode="&#xa9;" horiz-adv-x="673" 
d="M359 648c169 0 304 -138 304 -308c0 -172 -135 -310 -305 -310s-306 138 -306 310c0 170 136 308 307 308zM357 592c-134 0 -240 -112 -240 -254c0 -141 106 -252 241 -252c133 -1 240 111 240 253c0 141 -107 253 -241 253zM493 492l-15 -54c-13 8 -51 23 -96 23
c-77 0 -123 -46 -123 -124c0 -72 48 -125 122 -125c41 0 79 10 102 25l15 -52c-35 -23 -83 -32 -125 -32c-117 0 -185 79 -185 181c0 115 94 186 194 186c49 0 98 -14 111 -28z" />
    <glyph glyph-name="Aacute" unicode="&#xc1;" horiz-adv-x="618" 
d="M399 175h-194l-79 -175h-154l328 674h185l79 -674h-152zM247 285h146l-14 145c-2 37 -6 91 -9 132h-2c-17 -41 -36 -93 -54 -132zM417 836h160l-132 -126h-122z" />
    <glyph glyph-name="Acircumflex" unicode="&#xc2;" horiz-adv-x="618" 
d="M398 175h-194l-79 -175h-154l329 674h185l78 -674h-151zM247 285h145l-13 145c-3 37 -6 91 -9 132h-2c-18 -41 -36 -93 -54 -132zM363 836h109l80 -126h-101l-40 61h-2l-59 -61h-111z" />
    <glyph glyph-name="Adieresis" unicode="&#xc4;" horiz-adv-x="618" 
d="M399 175h-194l-79 -175h-154l328 674h186l78 -674h-151zM247 285h146l-13 145c-3 37 -6 91 -10 132h-2c-17 -41 -36 -93 -54 -132zM292 711c-33 0 -64 25 -64 64c0 43 33 73 73 73c38 0 64 -29 64 -64c0 -44 -34 -73 -73 -73zM499 711c-33 0 -64 25 -64 64
c0 43 33 73 73 73c38 0 64 -29 64 -64c0 -44 -34 -73 -73 -73z" />
    <glyph glyph-name="Agrave" unicode="&#xc0;" horiz-adv-x="618" 
d="M399 175h-194l-79 -175h-154l328 674h185l79 -674h-152zM247 285h146l-14 145c-2 37 -6 91 -9 132h-2c-17 -41 -36 -93 -54 -132zM224 837h158l77 -125h-119z" />
    <glyph glyph-name="Aring" unicode="&#xc5;" horiz-adv-x="618" 
d="M399 175h-194l-79 -175h-154l328 674h185l78 -674h-151zM247 285h146l-14 145c-2 37 -6 91 -9 132h-2c-17 -41 -36 -93 -54 -132zM416 889c60 0 108 -31 108 -91c-2 -64 -55 -101 -124 -101c-58 0 -105 34 -107 87c-2 63 51 105 123 105zM410 840c-28 0 -46 -22 -46 -51
c0 -24 15 -43 41 -43c29 0 48 22 48 48s-15 46 -43 46z" />
    <glyph glyph-name="Atilde" unicode="&#xc3;" horiz-adv-x="618" 
d="M399 175h-194l-79 -175h-154l328 674h185l78 -674h-150zM247 285h146l-14 145c-2 37 -6 91 -9 132h-2c-17 -41 -36 -93 -54 -132zM321 713h-71c13 85 52 126 99 126c29 0 46 -9 63 -20c15 -10 28 -19 41 -19c16 0 25 11 34 43h69c-14 -88 -48 -123 -100 -123
c-29 0 -48 9 -64 19s-26 18 -40 18c-13 0 -24 -14 -31 -44z" />
    <glyph glyph-name="Ccedilla" unicode="&#xc7;" horiz-adv-x="584" 
d="M513 138l12 -116c-34 -15 -95 -31 -154 -32l-24 -34c34 -8 60 -32 60 -67c0 -68 -70 -92 -126 -92c-33 0 -61 8 -78 21l24 53c16 -10 36 -15 54 -15s37 8 37 27c0 18 -18 32 -72 36l50 74c-159 18 -247 129 -247 283c0 151 68 269 170 337c71 48 153 71 248 71
c73 0 128 -17 147 -28l-39 -117c-20 9 -64 22 -122 22s-113 -18 -154 -52c-57 -46 -94 -123 -94 -217c0 -107 61 -179 180 -179c47 0 94 10 128 25z" />
    <glyph glyph-name="Eacute" unicode="&#xc9;" horiz-adv-x="517" 
d="M481 407l-24 -121h-239l-31 -163h269l-24 -123h-413l128 674h399l-24 -123h-254l-28 -144h241zM371 836h160l-132 -126h-122z" />
    <glyph glyph-name="Ecircumflex" unicode="&#xca;" horiz-adv-x="517" 
d="M481 407l-24 -121h-239l-31 -163h269l-23 -123h-414l128 674h399l-24 -123h-254l-28 -144h241zM319 836h109l80 -126h-101l-40 61h-2l-59 -61h-111z" />
    <glyph glyph-name="Edieresis" unicode="&#xcb;" horiz-adv-x="517" 
d="M480 407l-23 -121h-239l-32 -163h269l-23 -123h-413l128 674h398l-24 -123h-253l-28 -144h240zM255 711c-33 0 -64 25 -64 64c0 43 33 73 73 73c38 0 64 -29 64 -64c0 -44 -34 -73 -73 -73zM462 711c-33 0 -64 25 -64 64c0 43 33 73 73 73c38 0 64 -29 64 -64
c0 -44 -34 -73 -73 -73z" />
    <glyph glyph-name="Egrave" unicode="&#xc8;" horiz-adv-x="517" 
d="M481 407l-24 -121h-239l-31 -163h269l-23 -123h-414l128 674h399l-24 -123h-254l-28 -144h241zM195 837h157l78 -125h-120z" />
    <glyph glyph-name="Iacute" unicode="&#xcd;" horiz-adv-x="274" 
d="M144 674h143l-127 -674h-144zM244 836h160l-132 -126h-122z" />
    <glyph glyph-name="Icircumflex" unicode="&#xce;" horiz-adv-x="274" 
d="M144 674h144l-128 -674h-144zM185 836h109l80 -126h-101l-41 61h-2l-58 -61h-111z" />
    <glyph glyph-name="Idieresis" unicode="&#xcf;" horiz-adv-x="274" 
d="M143 674h145l-128 -674h-144zM121 711c-33 0 -64 25 -64 64c0 43 33 73 73 73c38 0 64 -29 64 -64c0 -44 -34 -73 -73 -73zM328 711c-33 0 -64 25 -64 64c0 43 33 73 73 73c38 0 64 -29 64 -64c0 -44 -34 -73 -73 -73z" />
    <glyph glyph-name="Igrave" unicode="&#xcc;" horiz-adv-x="274" 
d="M144 674h144l-128 -674h-144zM61 837h158l77 -125h-120z" />
    <glyph glyph-name="Ntilde" unicode="&#xd1;" horiz-adv-x="666" 
d="M153 0h-134l128 674h169l89 -257c28 -86 46 -156 62 -230h2c3 69 13 143 31 242l46 245h135l-128 -674h-149l-94 269c-30 91 -48 153 -66 235h-3c-7 -66 -23 -162 -43 -268zM354 715h-71c13 85 52 126 99 126c28 0 46 -9 63 -20c15 -10 28 -19 41 -19c16 0 25 11 34 43
h69c-14 -88 -48 -123 -100 -123c-29 0 -48 9 -64 19s-26 18 -40 18c-13 0 -24 -14 -31 -44z" />
    <glyph glyph-name="Oacute" unicode="&#xd3;" horiz-adv-x="705" 
d="M321 -11c-175 0 -273 124 -273 281c0 122 45 243 124 319c63 60 149 96 246 96c178 0 272 -120 272 -281c0 -123 -43 -243 -120 -318c-63 -61 -148 -97 -249 -97zM342 109c43 0 82 18 113 49c53 53 82 164 82 242c0 84 -30 165 -136 165c-45 0 -85 -19 -116 -51
c-54 -53 -84 -158 -84 -239c0 -95 43 -166 141 -166zM453 839h160l-132 -126h-122z" />
    <glyph glyph-name="Ocircumflex" unicode="&#xd4;" horiz-adv-x="705" 
d="M321 -11c-175 0 -273 124 -273 281c0 122 45 243 124 319c63 60 149 96 246 96c178 0 272 -120 272 -281c0 -123 -43 -243 -120 -318c-63 -61 -148 -97 -249 -97zM342 109c43 0 82 18 113 49c53 53 82 164 82 242c0 84 -30 165 -136 165c-45 0 -85 -19 -116 -51
c-54 -53 -84 -158 -84 -239c0 -95 43 -166 141 -166zM394 836h109l80 -126h-101l-40 61h-2l-58 -61h-111z" />
    <glyph glyph-name="Odieresis" unicode="&#xd6;" horiz-adv-x="705" 
d="M321 -11c-175 0 -273 124 -273 281c0 122 45 243 124 319c63 60 149 96 246 96c178 0 272 -120 272 -281c0 -123 -43 -243 -120 -318c-63 -61 -148 -97 -249 -97zM342 109c43 0 82 18 113 49c53 53 82 164 82 242c0 84 -30 165 -136 165c-45 0 -84 -19 -116 -51
c-53 -53 -84 -158 -84 -239c0 -95 43 -166 141 -166zM335 711c-33 0 -64 25 -64 64c0 43 33 73 73 73c38 0 64 -29 64 -64c0 -44 -34 -73 -73 -73zM542 711c-33 0 -64 25 -64 64c0 43 33 73 73 73c38 0 64 -29 64 -64c0 -44 -34 -73 -73 -73z" />
    <glyph glyph-name="Ograve" unicode="&#xd2;" horiz-adv-x="705" 
d="M321 -11c-175 0 -273 124 -273 281c0 122 45 243 124 319c63 60 149 96 246 96c178 0 272 -120 272 -281c0 -123 -43 -243 -120 -318c-63 -61 -148 -97 -249 -97zM342 109c43 0 82 18 113 49c53 53 82 164 82 242c0 84 -30 165 -136 165c-45 0 -85 -19 -116 -51
c-54 -53 -84 -158 -84 -239c0 -95 43 -166 141 -166zM265 837h157l78 -125h-120z" />
    <glyph glyph-name="Otilde" unicode="&#xd5;" horiz-adv-x="705" 
d="M321 -11c-175 0 -273 124 -273 281c0 122 45 243 124 319c63 60 150 96 246 96c178 0 272 -120 272 -281c0 -123 -43 -243 -120 -318c-63 -61 -148 -97 -249 -97zM343 109c42 0 81 18 112 49c53 53 82 164 82 242c0 84 -30 165 -136 165c-45 0 -84 -19 -116 -51
c-53 -53 -84 -158 -84 -239c0 -95 43 -166 142 -166zM360 715h-71c13 85 52 126 99 126c28 0 46 -9 63 -20c15 -10 28 -19 41 -19c16 0 25 11 34 43h69c-14 -88 -48 -123 -100 -123c-29 0 -48 9 -64 19s-26 18 -40 18c-13 0 -25 -14 -31 -44z" />
    <glyph glyph-name="Scaron" unicode="&#x160;" horiz-adv-x="510" 
d="M0 37l48 119c40 -24 97 -43 159 -43c56 0 107 26 107 78c0 39 -29 63 -91 96c-71 38 -139 91 -139 178c0 137 118 219 265 219c82 0 130 -18 159 -33l-45 -120c-22 12 -70 30 -125 29c-68 0 -103 -33 -103 -70c0 -39 41 -64 98 -96c82 -42 134 -97 134 -178
c0 -150 -124 -227 -274 -227c-94 1 -161 25 -193 48zM393 710h-110l-79 126h101l39 -64h3l58 64h111z" />
    <glyph glyph-name="Uacute" unicode="&#xda;" horiz-adv-x="655" 
d="M144 674h144l-73 -388c-5 -23 -8 -50 -8 -79c0 -55 34 -97 98 -97c76 0 125 50 149 175l74 389h144l-73 -383c-39 -204 -128 -302 -312 -302c-139 -1 -224 72 -224 215c0 29 4 62 10 94zM433 836h160l-132 -126h-122z" />
    <glyph glyph-name="Ucircumflex" unicode="&#xdb;" horiz-adv-x="655" 
d="M144 674h144l-73 -388c-5 -23 -8 -50 -8 -79c0 -55 34 -97 98 -97c76 0 125 50 149 175l74 389h144l-73 -383c-39 -204 -128 -302 -312 -302c-139 -1 -224 72 -224 215c0 29 4 62 10 94zM383 836h109l80 -126h-101l-40 61h-2l-59 -61h-111z" />
    <glyph glyph-name="Udieresis" unicode="&#xdc;" horiz-adv-x="655" 
d="M144 674h144l-73 -388c-5 -23 -8 -50 -8 -79c0 -55 34 -97 98 -97c75 0 125 50 149 175l74 389h143l-72 -383c-39 -204 -129 -302 -312 -302c-139 -1 -224 72 -224 215c0 29 4 62 10 94zM316 711c-33 0 -64 25 -64 64c0 43 33 73 73 73c39 0 64 -29 64 -64
c0 -44 -33 -73 -73 -73zM523 711c-33 0 -64 25 -64 64c0 43 33 73 73 73c38 0 64 -29 64 -64c0 -44 -34 -73 -73 -73z" />
    <glyph glyph-name="Ugrave" unicode="&#xd9;" horiz-adv-x="655" 
d="M144 674h144l-73 -388c-5 -23 -8 -50 -8 -79c0 -55 34 -97 98 -97c76 0 125 50 149 175l74 389h144l-73 -383c-39 -204 -128 -302 -312 -302c-139 -1 -224 72 -224 215c0 29 4 62 10 94zM254 837h158l77 -125h-120z" />
    <glyph glyph-name="Yacute" unicode="&#xdd;" horiz-adv-x="570" 
d="M295 0h-144l52 275l-132 399h154l43 -171c13 -56 20 -88 26 -122h2c20 36 41 74 69 123l101 170h172l-291 -396zM378 836h160l-132 -126h-122z" />
    <glyph glyph-name="Ydieresis" unicode="&#x178;" horiz-adv-x="570" 
d="M294 0h-144l52 275l-131 399h154l43 -171c12 -56 19 -88 26 -122h2c19 36 40 74 69 123l101 170h172l-291 -396zM256 711c-33 0 -64 25 -64 64c0 43 33 73 73 73c38 0 64 -29 64 -64c0 -44 -34 -73 -73 -73zM463 711c-33 0 -64 25 -64 64c0 43 33 73 73 73
c38 0 64 -29 64 -64c0 -44 -34 -73 -73 -73z" />
    <glyph glyph-name="Zcaron" unicode="&#x17d;" horiz-adv-x="553" 
d="M-25 0l15 83l391 464v3h-274l25 124h467l-17 -89l-384 -458v-3h302l-24 -124h-501zM418 710h-109l-80 126h102l39 -64h2l59 64h111z" />
    <glyph glyph-name="aacute" unicode="&#xe1;" horiz-adv-x="554" 
d="M466 0h-132c1 29 4 62 6 97h-2c-45 -81 -108 -108 -165 -108c-88 0 -148 68 -148 170c0 165 110 341 350 341c59 0 121 -11 162 -24l-51 -256c-12 -63 -22 -159 -20 -220zM353 274l22 113c-11 2 -24 4 -39 4c-93 0 -161 -114 -161 -205c0 -48 19 -81 59 -81
c43 0 96 49 119 169zM391 700h142l-130 -152h-106z" />
    <glyph glyph-name="acircumflex" unicode="&#xe2;" horiz-adv-x="554" 
d="M466 0h-132c1 29 4 62 6 97h-2c-45 -81 -108 -108 -165 -108c-88 0 -148 68 -148 170c0 165 110 341 350 341c59 0 121 -11 162 -24l-51 -256c-12 -63 -22 -159 -20 -220zM353 274l22 113c-11 2 -24 4 -39 4c-93 0 -161 -114 -161 -205c0 -48 19 -81 59 -81
c43 0 96 49 119 169zM330 700h99l75 -152h-93l-40 79h-2l-59 -79h-101z" />
    <glyph glyph-name="adieresis" unicode="&#xe4;" horiz-adv-x="554" 
d="M466 0h-132c1 29 4 62 6 97h-2c-45 -81 -108 -108 -165 -108c-88 0 -148 68 -148 170c0 165 110 341 350 341c59 0 121 -11 162 -24l-51 -256c-12 -63 -22 -159 -20 -220zM353 274l22 113c-11 2 -24 4 -39 4c-93 0 -161 -114 -161 -205c0 -48 19 -81 59 -81
c43 0 96 49 119 169zM243 554c-35 0 -66 25 -66 66c0 45 34 75 76 75c39 0 65 -29 65 -66c0 -46 -33 -75 -75 -75zM448 554c-36 0 -66 25 -66 66c0 45 34 75 76 75c39 0 65 -29 65 -66c0 -46 -33 -75 -75 -75z" />
    <glyph glyph-name="agrave" unicode="&#xe0;" horiz-adv-x="554" 
d="M466 0h-132c1 29 4 62 6 97h-2c-45 -81 -108 -108 -165 -108c-88 0 -148 68 -148 170c0 165 110 341 350 341c59 0 121 -11 162 -24l-51 -256c-12 -63 -22 -159 -20 -220zM353 274l22 113c-11 2 -24 4 -39 4c-93 0 -161 -114 -161 -205c0 -48 19 -81 59 -81
c43 0 96 49 119 169zM201 700h140l74 -152h-103z" />
    <glyph glyph-name="aring" unicode="&#xe5;" horiz-adv-x="554" 
d="M466 0h-132c1 29 4 62 6 97h-2c-45 -81 -108 -108 -165 -108c-88 0 -148 68 -148 170c0 165 110 341 350 341c59 0 121 -11 162 -24l-51 -256c-12 -63 -22 -159 -20 -220zM353 274l22 113c-11 2 -25 4 -39 4c-93 0 -161 -114 -161 -205c0 -48 19 -81 59 -81
c43 0 96 49 119 169zM361 735c58 0 107 -32 107 -94c-2 -66 -57 -103 -124 -103c-57 0 -104 34 -106 90c-2 65 51 107 123 107zM354 685c-28 0 -47 -23 -47 -53c0 -23 15 -44 43 -44c30 0 49 23 49 51c0 25 -15 46 -45 46z" />
    <glyph glyph-name="atilde" unicode="&#xe3;" horiz-adv-x="554" 
d="M466 0h-132c1 29 4 62 6 97h-2c-45 -81 -108 -108 -165 -108c-88 0 -148 68 -148 170c0 165 110 341 350 341c59 0 121 -11 162 -24l-51 -256c-12 -63 -22 -159 -20 -220zM353 274l22 113c-11 2 -24 4 -39 4c-93 0 -161 -114 -161 -205c0 -48 19 -81 59 -81
c43 0 96 49 119 169zM275 558h-70c11 80 45 126 96 126c28 0 45 -10 62 -20c15 -10 28 -19 39 -19c16 0 23 10 32 44h69c-13 -87 -46 -123 -98 -123c-27 0 -48 9 -64 19c-13 11 -25 18 -38 18s-23 -19 -28 -45z" />
    <glyph glyph-name="ccedilla" unicode="&#xe7;" horiz-adv-x="434" 
d="M371 125l1 -109c-27 -13 -66 -23 -96 -25l-25 -35c35 -8 61 -34 61 -69c0 -69 -70 -94 -121 -94c-33 0 -67 9 -83 21l25 57c17 -10 38 -16 55 -16c18 0 35 8 35 28c0 18 -18 32 -72 36l49 73c-113 12 -173 93 -173 198c0 174 133 310 319 310c42 0 78 -8 100 -16
l-36 -111c-17 7 -37 12 -66 12c-102 0 -166 -87 -166 -179c0 -67 42 -101 96 -101c42 0 72 10 97 20z" />
    <glyph glyph-name="eacute" unicode="&#xe9;" horiz-adv-x="501" 
d="M412 132l10 -104c-57 -29 -128 -39 -183 -39c-139 0 -211 79 -211 207c0 149 108 304 285 304c99 0 170 -56 170 -147c0 -124 -121 -169 -318 -164c1 -14 6 -36 16 -50c19 -25 52 -38 94 -38c53 0 98 12 137 31zM348 354c0 24 -20 41 -53 41c-67 0 -106 -56 -116 -101
c113 -1 169 14 169 60zM352 700h142l-130 -152h-107z" />
    <glyph glyph-name="ecircumflex" unicode="&#xea;" horiz-adv-x="501" 
d="M412 132l10 -104c-57 -29 -128 -39 -183 -39c-139 0 -211 79 -211 207c0 149 108 304 285 304c99 0 170 -56 170 -147c0 -124 -121 -169 -318 -164c1 -14 6 -36 16 -50c19 -25 52 -38 94 -38c53 0 98 12 137 31zM348 354c0 24 -20 41 -53 41c-67 0 -106 -56 -116 -101
c113 -1 169 14 169 60zM289 700h99l75 -152h-93l-40 79h-2l-58 -79h-102z" />
    <glyph glyph-name="edieresis" unicode="&#xeb;" horiz-adv-x="501" 
d="M412 132l10 -104c-57 -29 -128 -39 -183 -39c-139 0 -211 79 -211 207c0 149 108 304 285 304c99 0 170 -56 170 -147c0 -124 -121 -169 -318 -164c1 -14 6 -36 16 -50c19 -25 52 -38 94 -38c53 0 98 12 137 31zM348 354c0 24 -20 41 -53 41c-67 0 -106 -56 -116 -101
c113 -1 169 14 169 60zM223 554c-35 0 -66 25 -66 66c0 45 34 75 76 75c39 0 65 -29 65 -66c0 -46 -33 -75 -75 -75zM429 554c-36 0 -66 25 -66 66c0 45 34 75 76 75c39 0 65 -29 65 -66c0 -46 -33 -75 -75 -75z" />
    <glyph glyph-name="egrave" unicode="&#xe8;" horiz-adv-x="501" 
d="M412 132l10 -104c-57 -29 -128 -39 -183 -39c-139 0 -211 79 -211 207c0 149 108 304 285 304c99 0 170 -56 170 -147c0 -124 -121 -169 -318 -164c1 -14 6 -36 16 -50c19 -25 52 -38 94 -38c53 0 98 12 137 31zM348 354c0 24 -20 41 -53 41c-67 0 -106 -56 -116 -101
c113 -1 169 14 169 60zM167 700h140l75 -152h-103z" />
    <glyph glyph-name="iacute" unicode="&#xed;" horiz-adv-x="265" 
d="M157 0h-144l93 489h144zM221 700h142l-130 -152h-106z" />
    <glyph glyph-name="icircumflex" unicode="&#xee;" horiz-adv-x="265" 
d="M157 0h-144l93 489h144zM162 700h99l75 -152h-93l-40 79h-2l-58 -79h-102z" />
    <glyph glyph-name="idieresis" unicode="&#xef;" horiz-adv-x="265" 
d="M156 0h-143l92 489h145zM95 554c-35 0 -66 25 -66 66c0 45 34 75 76 75c39 0 65 -29 65 -66c0 -46 -33 -75 -75 -75zM301 554c-36 0 -66 25 -66 66c0 45 34 75 76 75c39 0 65 -29 65 -66c0 -46 -33 -75 -75 -75z" />
    <glyph glyph-name="igrave" unicode="&#xec;" horiz-adv-x="265" 
d="M157 0h-144l93 489h144zM33 700h139l75 -152h-103z" />
    <glyph glyph-name="ntilde" unicode="&#xf1;" horiz-adv-x="563" 
d="M156 0h-144l62 330c13 62 20 115 27 159h127l-9 -81h2c46 63 106 92 171 92c80 0 126 -49 126 -134c0 -22 -4 -58 -8 -82l-54 -284h-145l52 271c3 17 5 36 5 54c0 35 -12 59 -49 59c-47 0 -102 -59 -122 -167zM269 558h-70c11 80 45 126 96 126c28 0 45 -10 62 -20
c15 -10 28 -19 39 -19c16 0 23 10 32 44h69c-13 -87 -46 -123 -98 -123c-27 0 -49 9 -64 19c-14 11 -26 18 -38 18c-13 0 -23 -19 -28 -45z" />
    <glyph glyph-name="oacute" unicode="&#xf3;" horiz-adv-x="559" 
d="M237 -11c-124 0 -207 81 -207 203c0 169 118 309 292 309c131 0 207 -90 207 -202c0 -179 -123 -310 -292 -310zM258 99c77 0 122 116 122 199c0 45 -20 93 -77 93c-83 0 -124 -121 -124 -197c0 -57 28 -95 79 -95zM359 700h142l-130 -152h-105z" />
    <glyph glyph-name="ocircumflex" unicode="&#xf4;" horiz-adv-x="559" 
d="M237 -11c-124 0 -207 81 -207 203c0 169 118 309 292 309c131 0 207 -90 207 -202c0 -179 -123 -310 -292 -310zM258 99c77 0 122 116 122 199c0 45 -20 93 -77 93c-83 0 -124 -121 -124 -197c0 -57 28 -95 79 -95zM306 700h98l75 -152h-93l-40 79h-1l-59 -79h-101z" />
    <glyph glyph-name="odieresis" unicode="&#xf6;" horiz-adv-x="559" 
d="M237 -11c-124 0 -207 81 -207 203c0 169 118 309 292 309c131 0 207 -90 207 -202c0 -179 -123 -310 -292 -310zM258 99c77 0 122 116 122 199c0 45 -20 93 -77 93c-83 0 -124 -121 -124 -197c0 -57 28 -95 79 -95zM236 554c-35 0 -66 25 -66 66c0 45 34 75 76 75
c39 0 65 -29 65 -66c0 -46 -33 -75 -75 -75zM441 554c-36 0 -66 25 -66 66c0 45 34 75 76 75c39 0 65 -29 65 -66c0 -46 -33 -75 -75 -75z" />
    <glyph glyph-name="ograve" unicode="&#xf2;" horiz-adv-x="559" 
d="M237 -11c-124 0 -207 81 -207 203c0 169 118 309 292 309c131 0 207 -90 207 -202c0 -179 -123 -310 -292 -310zM258 99c77 0 122 116 122 199c0 45 -20 93 -77 93c-83 0 -124 -121 -124 -197c0 -57 28 -95 79 -95zM177 700h139l75 -152h-103z" />
    <glyph glyph-name="otilde" unicode="&#xf5;" horiz-adv-x="559" 
d="M237 -11c-124 0 -207 81 -207 203c0 169 118 309 292 309c131 0 207 -90 207 -202c0 -179 -123 -310 -292 -310zM258 99c77 0 122 116 122 199c0 45 -20 93 -77 93c-83 0 -124 -121 -124 -197c0 -57 28 -95 79 -95zM257 558h-70c11 80 45 126 96 126c28 0 44 -10 61 -20
c15 -10 28 -19 39 -19c16 0 23 10 32 44h69c-13 -87 -46 -123 -98 -123c-26 0 -48 9 -63 20c-14 10 -26 17 -38 17c-13 0 -23 -19 -28 -45z" />
    <glyph glyph-name="scaron" unicode="&#x161;" horiz-adv-x="416" 
d="M-4 28l35 101c28 -14 80 -34 127 -34c41 0 62 20 62 44s-16 41 -61 63c-56 28 -103 69 -103 130c0 102 89 169 215 169c57 0 102 -12 126 -25l-35 -102c-20 9 -55 21 -97 21c-39 0 -64 -16 -64 -43c0 -20 20 -37 59 -56c54 -27 110 -66 110 -134
c0 -112 -95 -173 -225 -172c-62 1 -120 17 -149 38zM313 548h-99l-75 152h93l40 -79h2l59 79h102z" />
    <glyph glyph-name="uacute" unicode="&#xfa;" horiz-adv-x="560" 
d="M400 489h143l-62 -330c-12 -62 -20 -115 -26 -159h-127l9 79l-2 1c-50 -64 -109 -91 -168 -91c-79 0 -126 44 -126 137c0 26 3 56 10 90l52 273h144l-50 -262c-4 -23 -7 -47 -7 -65c0 -31 13 -56 49 -56c49 0 99 59 118 156zM361 700h142l-130 -152h-106z" />
    <glyph glyph-name="ucircumflex" unicode="&#xfb;" horiz-adv-x="560" 
d="M400 489h143l-62 -330c-12 -62 -20 -115 -26 -159h-127l9 79l-2 1c-50 -64 -109 -91 -168 -91c-79 0 -126 44 -126 137c0 26 3 56 10 90l52 273h144l-50 -262c-4 -23 -7 -47 -7 -65c0 -31 13 -56 49 -56c49 0 99 59 118 156zM312 700h98l75 -152h-93l-39 79h-2l-59 -79
h-101z" />
    <glyph glyph-name="udieresis" unicode="&#xfc;" horiz-adv-x="560" 
d="M400 489h143l-62 -330c-12 -62 -20 -115 -26 -159h-127l9 79l-2 1c-50 -64 -109 -91 -168 -91c-79 0 -126 44 -126 137c0 26 3 56 10 90l52 273h144l-50 -262c-4 -23 -7 -47 -7 -65c0 -31 13 -56 49 -56c49 0 99 59 118 156zM237 554c-35 0 -66 25 -66 66
c0 45 34 75 76 75c39 0 65 -29 65 -66c0 -46 -33 -75 -75 -75zM442 554c-36 0 -66 25 -66 66c0 45 34 75 76 75c39 0 65 -29 65 -66c0 -46 -33 -75 -75 -75z" />
    <glyph glyph-name="ugrave" unicode="&#xf9;" horiz-adv-x="560" 
d="M400 489h143l-62 -330c-12 -62 -20 -115 -26 -159h-127l9 79l-2 1c-50 -64 -109 -91 -168 -91c-79 0 -126 44 -126 137c0 26 3 56 10 90l52 273h144l-50 -262c-4 -23 -7 -47 -7 -65c0 -31 13 -56 49 -56c49 0 99 59 118 156zM179 700h140l74 -152h-103z" />
    <glyph glyph-name="yacute" unicode="&#xfd;" horiz-adv-x="497" 
d="M44 489h151l30 -213c7 -51 12 -86 16 -117h2c11 30 22 61 43 114l89 216h152l-175 -352c-65 -130 -123 -218 -188 -279c-57 -54 -125 -79 -157 -84l-32 124c23 7 55 19 83 38c33 23 61 52 80 85c4 8 4 14 2 24zM330 700h142l-130 -152h-106z" />
    <glyph glyph-name="ydieresis" unicode="&#xff;" horiz-adv-x="497" 
d="M44 489h151l30 -213c7 -51 12 -86 16 -117h2c11 30 22 61 43 114l89 216h151l-174 -352c-65 -130 -123 -218 -188 -279c-57 -54 -125 -79 -157 -84l-32 124c23 7 55 19 83 38c33 23 61 52 80 85c4 8 4 14 2 24zM198 554c-35 0 -66 25 -66 66c0 45 34 75 76 75
c39 0 65 -29 65 -66c0 -46 -33 -75 -75 -75zM403 554c-36 0 -66 25 -66 66c0 45 34 75 76 75c39 0 65 -29 65 -66c0 -46 -33 -75 -75 -75z" />
    <glyph glyph-name="zcaron" unicode="&#x17e;" horiz-adv-x="450" 
d="M-26 0l16 87l159 170c41 43 72 73 119 113l1 2h-209l23 117h382l-17 -91l-155 -166c-44 -46 -75 -77 -119 -113l-1 -2h230l-23 -117h-406zM329 548h-99l-75 152h93l40 -79h2l60 79h101z" />
    <glyph glyph-name="Dcroat" unicode="&#x110;" horiz-adv-x="693" 
d="M10 287l24 119h76l48 258c59 10 120 15 184 15c105 0 191 -21 247 -69c56 -45 90 -117 90 -214c0 -132 -55 -244 -139 -310c-78 -62 -177 -90 -322 -90c-85 0 -151 7 -185 13l54 278h-77zM384 406l-23 -119h-129l-33 -170c17 -3 38 -4 64 -4c74 0 145 28 189 78
c46 52 71 123 71 200c0 109 -59 173 -175 173c-28 0 -48 -2 -64 -5l-30 -153h130z" />
    <glyph glyph-name="Eng" unicode="&#x14a;" horiz-adv-x="666" 
d="M289 -212l-14 115c64 7 115 36 130 89l-95 277c-30 92 -48 153 -66 235h-3c-7 -66 -23 -161 -43 -268l-45 -236h-134l128 674h169l89 -257c27 -86 45 -156 61 -230h3c3 69 12 143 31 242l46 245h135l-119 -629c-37 -193 -143 -252 -273 -257z" />
    <glyph glyph-name="Hbar" unicode="&#x126;" horiz-adv-x="666" 
d="M497 472h-244l-16 -85h244zM47 561h79l22 113h144l-22 -113h244l22 113h144l-21 -113h72l-18 -89h-71l-89 -472h-145l49 259h-244l-49 -259h-144l89 472h-80z" />
    <glyph glyph-name="Tbar" unicode="&#x166;" horiz-adv-x="527" 
d="M463 290h-123l-55 -290h-143l54 290h-117l17 89h117l32 169h-178l25 126h501l-24 -126h-180l-32 -169h123z" />
    <glyph glyph-name="uni021C" unicode="&#x21c;" horiz-adv-x="514" 
d="M4 -125l-10 114c178 14 317 86 317 193c0 41 -22 89 -105 89c-31 0 -60 -7 -89 -15l-15 97c98 21 214 71 214 152c0 41 -39 64 -84 64c-46 0 -76 -15 -110 -30l-23 95c48 29 121 52 193 51c118 0 180 -67 180 -142c0 -81 -55 -136 -141 -178v-2c81 -16 138 -83 138 -163
c0 -194 -211 -308 -465 -325z" />
    <glyph glyph-name="dcroat" unicode="&#x111;" horiz-adv-x="560" 
d="M355 243l26 131c-12 10 -34 17 -57 17c-87 0 -148 -100 -148 -194c0 -59 26 -92 67 -92c42 0 92 44 112 138zM241 624h186l17 86h143l-16 -86h77l-16 -79h-77l-67 -355c-12 -62 -21 -132 -23 -190h-132l7 79h-2c-43 -65 -103 -90 -161 -90c-83 0 -151 66 -151 185
c0 170 123 327 308 327c20 0 46 -4 67 -12l11 56h-187z" />
    <glyph glyph-name="eng" unicode="&#x14b;" horiz-adv-x="563" 
d="M221 -190l-13 118c61 6 96 34 112 115l43 228c3 17 5 36 5 54c0 35 -12 59 -49 59c-47 0 -102 -59 -122 -167l-41 -217h-144l62 330c12 62 20 115 27 159h127l-9 -81h2c46 63 106 92 170 92c80 0 127 -49 127 -135c0 -21 -4 -57 -8 -81l-44 -231
c-36 -187 -126 -239 -245 -243z" />
    <glyph glyph-name="hbar" unicode="&#x127;" horiz-adv-x="563" 
d="M42 622h89l17 88h144l-17 -88h165l-15 -79h-165l-23 -117h2c41 45 92 74 156 74c76 0 123 -48 123 -132c0 -23 -4 -60 -9 -88l-53 -280h-144l51 268c4 19 6 40 6 60c0 33 -13 56 -49 56c-51 0 -102 -62 -120 -160l-43 -224h-144l103 543h-89z" />
    <glyph glyph-name="kgreenlandic" unicode="&#x138;" horiz-adv-x="530" 
d="M156 0h-143l93 489h143l-39 -204h2c15 19 30 38 44 55l125 149h178l-208 -202l136 -287h-161l-86 209l-54 -52z" />
    <glyph glyph-name="napostrophe" unicode="&#x149;" horiz-adv-x="563" 
d="M156 0h-144l62 330c13 62 20 115 27 159h127l-9 -81h2c46 63 106 92 171 92c80 0 126 -49 126 -134c0 -22 -4 -58 -8 -82l-54 -284h-145l52 271c3 17 5 36 5 54c0 35 -12 59 -49 59c-47 0 -102 -59 -122 -167zM73 542l-16 66c23 7 48 34 48 67c0 20 -8 38 -19 49l100 17
c12 -10 26 -35 26 -64c0 -92 -85 -132 -139 -135z" />
    <glyph glyph-name="tbar" unicode="&#x167;" horiz-adv-x="348" 
d="M38 310h51l13 70h-62l20 110h63l18 92l148 40l-25 -132h105l-22 -110h-104l-14 -70h91l-15 -78h-92l-7 -38c-3 -15 -4 -30 -4 -42c0 -24 10 -41 42 -41c12 0 27 0 39 2l-16 -113c-19 -7 -55 -11 -85 -11c-87 0 -128 44 -128 106c0 27 4 53 11 91l8 46h-51z" />
    <glyph glyph-name="uni021D" unicode="&#x21d;" horiz-adv-x="439" 
d="M-47 -208l-8 114c61 3 296 28 296 158c0 36 -29 67 -96 67c-21 0 -55 -6 -84 -14l-13 98c98 21 195 54 195 123c-1 28 -24 46 -70 46s-72 -13 -106 -28l-25 91c48 28 116 53 189 53c102 0 162 -61 162 -121c0 -74 -38 -117 -122 -153v-2c76 -16 125 -75 125 -140
c0 -190 -241 -287 -443 -292z" />
    <glyph glyph-name="IJ" unicode="&#x132;" horiz-adv-x="673" 
d="M144 674h144l-128 -674h-144zM468 247l81 427h144l-85 -445c-32 -171 -106 -240 -259 -240c-42 0 -89 7 -110 16l27 123c22 -7 48 -12 81 -12c63 0 102 31 121 131z" />
    <glyph glyph-name="ij" unicode="&#x133;" horiz-adv-x="540" 
d="M157 0h-144l93 489h144zM197 550h-2c-40 0 -69 28 -69 70c0 49 39 82 83 82c42 0 72 -28 72 -71c0 -51 -39 -81 -84 -81zM385 489h144l-89 -472c-15 -85 -36 -138 -69 -174c-31 -36 -82 -52 -133 -52c-22 0 -47 2 -68 8l15 108c10 -1 20 -2 32 -2c33 0 61 17 77 105z
M470 550c-40 0 -69 28 -69 70c0 49 39 82 83 82c42 0 72 -28 72 -71c0 -51 -39 -81 -86 -81z" />
    <glyph glyph-name="zero.slash" unicode="&#xf638;" horiz-adv-x="541" 
d="M180 230l200 277c-7 21 -24 40 -53 40c-89 0 -139 -168 -148 -290c0 -9 0 -18 1 -27zM391 413l-199 -273c6 -20 23 -37 49 -37c94 0 139 172 150 287v23zM571 640l-63 -78c16 -36 23 -80 23 -124c0 -203 -99 -449 -302 -449c-54 0 -95 17 -125 45l-46 -59l-48 45l55 67
c-18 38 -26 86 -26 137c0 204 105 437 305 437c56 0 96 -17 126 -46l49 66z" />
    <glyph glyph-name="Euro" unicode="&#x20ac;" horiz-adv-x="541" 
d="M487 132l14 -110c-33 -17 -92 -33 -158 -33c-158 0 -253 96 -260 245h-74l15 71h63c2 16 5 32 8 47h-62l14 71h69c50 137 184 238 336 238c69 0 117 -14 147 -30l-43 -111c-20 10 -57 21 -110 21c-79 0 -150 -53 -178 -118h232l-16 -71h-243c-3 -15 -6 -30 -8 -47h242
l-15 -71h-228c10 -75 56 -125 137 -125c46 0 95 12 118 23z" />
    <glyph glyph-name="Aringacute" unicode="&#x1fa;" horiz-adv-x="618" 
d="M405 693c-63 0 -101 35 -101 85c0 52 47 94 115 94c62 0 99 -34 99 -85c0 -52 -43 -94 -113 -94zM409 744c29 0 45 18 45 40c0 21 -16 39 -42 39c-28 0 -43 -20 -43 -42s16 -37 40 -37zM468 979h160l-145 -90h-123zM399 175h-194l-79 -175h-154l328 674h185l78 -674h-151
zM247 285h146l-14 145c-2 37 -6 91 -9 132h-2c-17 -41 -36 -93 -54 -132z" />
    <glyph glyph-name="estimated" unicode="&#x212e;" horiz-adv-x="817" 
d="M782 316h-605c-3 0 -5 -1 -5 -4v-183c0 -8 4 -15 9 -21c57 -61 139 -99 229 -99c96 0 182 43 240 111h55c-68 -79 -176 -131 -296 -131c-206 0 -374 150 -374 336s168 336 374 336s373 -150 373 -336v-9zM646 340v184c0 9 -4 16 -10 22c-58 58 -138 95 -226 95
c-90 0 -170 -38 -228 -98c-6 -6 -10 -14 -10 -23v-180c0 -3 2 -5 5 -5h464c3 0 5 2 5 5z" />
    <glyph glyph-name="zero.oldstyle" unicode="&#xf730;" horiz-adv-x="552" 
d="M234 -11c-131 0 -205 93 -205 205c0 155 110 307 284 307c131 0 206 -97 206 -203c0 -161 -107 -309 -285 -309zM252 102c82 0 122 110 122 191c0 50 -24 94 -77 94c-82 0 -123 -111 -123 -189c0 -56 23 -96 78 -96z" />
    <glyph glyph-name="one.oldstyle" unicode="&#xf731;" horiz-adv-x="399" 
d="M354 490l-92 -490h-139l67 356h-2l-134 -58l-4 113l186 79h118z" />
    <glyph glyph-name="two.oldstyle" unicode="&#xf732;" horiz-adv-x="484" 
d="M432 118l-22 -118h-427l15 82l86 51c114 71 193 132 193 186c0 44 -27 65 -75 65c-40 0 -87 -22 -114 -38l-30 90c48 36 118 67 204 67c92 0 168 -55 168 -152c0 -85 -63 -148 -161 -210l-45 -28v-4c33 6 67 9 95 9h113z" />
    <glyph glyph-name="three.oldstyle" unicode="&#xf733;" horiz-adv-x="461" 
d="M-31 -102l33 109c22 -8 69 -16 108 -16c74 0 136 30 136 85c0 49 -57 71 -114 71c-18 0 -36 0 -51 -1l21 104c9 1 18 1 26 2c45 3 143 25 144 83c0 32 -25 50 -70 50c-43 0 -87 -16 -118 -33l-22 95c48 32 115 54 184 54c109 0 172 -55 172 -134
c-2 -86 -76 -133 -140 -152v-2c64 -14 119 -58 119 -135c0 -132 -137 -203 -283 -203c-59 0 -111 9 -145 23z" />
    <glyph glyph-name="four.oldstyle" unicode="&#xf734;" horiz-adv-x="544" 
d="M402 35l-30 -159h-133l30 159h-279l19 95l304 362h176l-66 -349h77l-22 -108h-76zM290 143l23 125c7 37 17 83 26 119h-4c-18 -32 -45 -70 -67 -99l-116 -140l1 -5h137z" />
    <glyph glyph-name="five.oldstyle" unicode="&#xf735;" horiz-adv-x="454" 
d="M-22 -101l31 107c25 -9 66 -16 107 -16c79 0 137 36 137 95c0 18 -7 38 -20 51c-36 34 -126 41 -194 39l105 315h308l-37 -121h-190l-34 -97c67 -3 128 -22 166 -60c29 -29 46 -66 46 -111c0 -142 -118 -226 -281 -226c-61 0 -115 11 -144 24z" />
    <glyph glyph-name="six.oldstyle" unicode="&#xf736;" horiz-adv-x="539" 
d="M249 101c57 0 103 59 103 125c0 53 -36 83 -77 83c-40 0 -63 -20 -79 -42c-13 -17 -22 -43 -22 -75c0 -57 31 -91 75 -91zM495 616l8 -107c-96 -7 -191 -37 -244 -91c-20 -19 -32 -39 -42 -59l2 -1c28 24 71 47 129 47c84 0 151 -63 151 -165c0 -138 -111 -251 -260 -251
c-120 0 -206 77 -206 215c0 77 32 188 116 273c76 75 193 136 346 139z" />
    <glyph glyph-name="seven.oldstyle" unicode="&#xf737;" horiz-adv-x="478" 
d="M482 490l-17 -92c-45 -99 -220 -365 -349 -523l-134 30c107 129 241 316 322 459l1 2h-263l22 124h418z" />
    <glyph glyph-name="eight.oldstyle" unicode="&#xf738;" horiz-adv-x="560" 
d="M326 617h2c118 0 199 -63 199 -154c0 -69 -51 -109 -114 -138v-3c51 -28 95 -75 95 -135c0 -125 -131 -198 -258 -198c-137 1 -221 69 -221 166c0 79 62 130 139 163v3c-43 25 -72 66 -72 116c0 110 111 180 230 180zM317 515c-50 0 -85 -29 -85 -67c0 -39 40 -64 85 -80
c38 14 72 43 72 83c0 36 -27 64 -72 64zM265 94c49 0 91 36 91 83c0 41 -38 70 -86 91c-48 -18 -90 -51 -90 -97c0 -48 38 -77 85 -77z" />
    <glyph glyph-name="nine.oldstyle" unicode="&#xf739;" horiz-adv-x="541" 
d="M257 187c29 0 57 15 77 37c16 15 28 48 28 78c0 54 -29 90 -77 90c-52 0 -99 -55 -99 -124c0 -50 29 -81 71 -81zM46 -120l-6 109c23 1 53 3 86 8c102 17 172 77 198 137l-3 2c-23 -24 -68 -46 -118 -46c-105 0 -164 73 -164 165c0 139 116 250 261 250
c127 0 204 -98 204 -219c0 -207 -151 -376 -385 -403c-31 -3 -56 -4 -73 -3z" />
    <glyph glyph-name="percent.oldstyle" unicode="&#xf642;" horiz-adv-x="873" 
d="M247 619c90 0 143 -63 143 -149c0 -143 -91 -252 -209 -252c-85 0 -147 57 -147 154c0 130 85 247 213 247zM232 536c-57 0 -88 -106 -88 -167c0 -38 15 -68 48 -68c60 0 88 113 88 171c0 34 -13 64 -48 64zM251 -11h-85l452 629h84zM694 392c90 0 143 -63 143 -149
c0 -143 -91 -252 -209 -252c-85 0 -147 57 -147 154c0 130 85 247 213 247zM679 309c-57 0 -88 -106 -88 -167c0 -38 15 -68 48 -68c60 0 88 113 88 171c0 34 -13 64 -48 64z" />
    <glyph glyph-name="zero.fitted" unicode="&#xf639;" horiz-adv-x="541" 
d="M228 -11c-136 0 -189 103 -189 234c0 205 105 438 305 438c139 0 187 -107 187 -223c0 -203 -98 -449 -303 -449zM245 103c99 0 144 248 144 334c0 44 -7 110 -62 110c-96 0 -146 -234 -146 -329c0 -49 7 -115 64 -115z" />
    <glyph glyph-name="one.fitted" unicode="&#xf6dc;" 
d="M116 0l97 515h-2l-127 -56l-5 112l180 79h118l-123 -650h-138z" />
    <glyph glyph-name="two.fitted" unicode="&#xf63a;" horiz-adv-x="497" 
d="M413 0h-445l18 93l140 108c130 106 213 182 213 260c0 46 -32 79 -89 79c-58 0 -104 -17 -138 -38l-29 103c52 32 127 56 202 56c131 0 202 -77 202 -177c0 -133 -106 -225 -220 -313l-65 -46v-2h233z" />
    <glyph glyph-name="three.fitted" unicode="&#xf63b;" horiz-adv-x="481" 
d="M-24 33l44 113c26 -14 78 -36 142 -36c81 0 129 40 129 92c0 59 -48 87 -133 87h-25l21 110h23c67 0 144 27 144 86c0 32 -24 56 -80 56c-55 0 -104 -15 -134 -32l-20 108c48 26 117 44 183 44c109 0 203 -50 203 -152c0 -81 -64 -141 -144 -161l-1 -2
c67 -14 113 -68 113 -143c0 -136 -139 -214 -281 -214c-83 0 -155 20 -184 44z" />
    <glyph glyph-name="four.fitted" unicode="&#xf63c;" horiz-adv-x="541" 
d="M392 0h-135l30 157h-277l18 97l310 396h177l-72 -382h76l-20 -111h-77zM172 268h136l30 141c9 41 21 86 31 127h-4c-29 -44 -54 -85 -85 -128l-107 -138z" />
    <glyph glyph-name="five.fitted" unicode="&#xf63d;" horiz-adv-x="499" 
d="M511 650l-25 -123h-229l-31 -101c11 1 17 2 28 2c37 0 94 -11 134 -40c46 -31 72 -83 72 -144c0 -163 -137 -255 -301 -255c-78 0 -143 18 -168 38l37 115c26 -16 78 -32 133 -32c71 0 149 38 149 108c0 58 -36 100 -161 100c-31 0 -54 -2 -80 -4l93 336h349z" />
    <glyph glyph-name="six.fitted" unicode="&#xf63e;" horiz-adv-x="542" 
d="M516 659l-22 -117c-16 1 -32 0 -54 -2c-118 -11 -196 -76 -229 -153l2 -1c35 32 81 50 133 50c96 0 166 -74 166 -182c0 -139 -107 -265 -260 -265c-145 0 -216 100 -216 228c0 148 71 276 161 347c72 58 168 90 265 95c25 2 40 1 54 0zM258 100c68 0 105 78 105 139
c0 57 -32 90 -80 90c-39 0 -73 -25 -93 -60c-6 -10 -10 -23 -11 -33c-2 -13 -2 -24 -2 -35c0 -56 29 -101 81 -101z" />
    <glyph glyph-name="seven.fitted" unicode="&#xf63f;" horiz-adv-x="472" 
d="M91 650h441l-18 -96c-119 -184 -238 -369 -357 -554h-160c118 175 236 350 353 525v2h-283z" />
    <glyph glyph-name="eight.fitted" unicode="&#xf640;" horiz-adv-x="540" 
d="M334 661c105 0 192 -55 192 -158c0 -70 -47 -122 -117 -155v-2c58 -33 89 -89 89 -144c0 -142 -136 -213 -263 -213c-138 1 -218 71 -218 167c0 92 64 154 140 184l1 3c-44 33 -65 76 -65 122c0 121 114 196 241 196zM252 94c48 0 95 35 95 94c0 52 -36 82 -85 99
c-49 -13 -94 -53 -94 -112c0 -45 30 -81 84 -81zM316 556c-47 0 -85 -39 -85 -83c0 -41 33 -67 76 -82c41 14 80 49 80 96c0 39 -25 69 -71 69z" />
    <glyph glyph-name="nine.fitted" unicode="&#xf641;" horiz-adv-x="543" 
d="M48 -9l17 118c17 -2 34 -1 61 0c45 4 90 17 128 41c48 29 84 71 106 119l-2 2c-32 -32 -80 -47 -124 -47c-103 0 -173 71 -173 176c0 141 117 261 264 261c144 0 211 -98 211 -227c-1 -154 -79 -286 -166 -356c-67 -53 -159 -83 -247 -87c-38 -2 -57 -1 -75 0zM312 550
c-57 0 -104 -67 -104 -132c0 -53 31 -87 76 -87c39 0 71 20 87 43c6 7 11 17 14 31c4 13 6 35 6 52c0 52 -25 93 -79 93z" />
    <glyph glyph-name="zero.slashfitted" unicode="&#xe008;" horiz-adv-x="541" 
d="M180 230l200 277c-7 21 -24 40 -53 40c-89 0 -139 -168 -148 -290c0 -9 0 -18 1 -27zM391 413l-199 -273c6 -20 23 -37 49 -37c94 0 139 172 150 287v23zM571 640l-63 -78c16 -36 23 -80 23 -124c0 -203 -99 -449 -302 -449c-54 0 -95 17 -125 45l-46 -59l-48 45l55 67
c-18 38 -26 86 -26 137c0 204 105 437 305 437c56 0 96 -17 126 -46l49 66z" />
    <glyph glyph-name="zero.taboldstyle" unicode="&#xf643;" horiz-adv-x="552" 
d="M234 -11c-131 0 -205 93 -205 205c0 155 110 307 284 307c131 0 206 -97 206 -203c0 -161 -107 -309 -285 -309zM252 102c82 0 122 110 122 191c0 50 -24 94 -77 94c-82 0 -123 -111 -123 -189c0 -56 23 -96 78 -96z" />
    <glyph glyph-name="one.taboldstyle" unicode="&#xf644;" horiz-adv-x="552" 
d="M448 491l-92 -491h-139l68 361h-2l-188 -62l2 114l233 78h118z" />
    <glyph glyph-name="two.taboldstyle" unicode="&#xf645;" horiz-adv-x="552" 
d="M471 118l-22 -118h-427l15 82l86 51c114 71 193 132 193 186c0 44 -27 65 -75 65c-40 0 -87 -22 -114 -38l-30 90c48 36 118 67 204 67c92 0 168 -55 168 -152c0 -85 -63 -148 -161 -210l-45 -28v-4c33 6 67 9 95 9h113z" />
    <glyph glyph-name="three.taboldstyle" unicode="&#xf646;" horiz-adv-x="552" 
d="M24 -102l33 109c22 -8 69 -16 108 -16c74 0 136 30 136 85c0 49 -57 71 -113 71c-18 0 -36 0 -51 -1l21 104c9 1 18 1 26 2c45 3 143 25 144 83c0 32 -25 50 -70 50c-43 0 -87 -16 -118 -33l-22 95c48 32 115 54 184 54c109 0 172 -55 172 -134
c-2 -86 -76 -133 -141 -152v-2c64 -14 119 -58 119 -135c0 -132 -137 -203 -283 -203c-59 0 -111 9 -145 23z" />
    <glyph glyph-name="four.taboldstyle" unicode="&#xf647;" horiz-adv-x="552" 
d="M408 35l-30 -159h-133l30 159h-279l19 95l304 362h176l-66 -349h77l-22 -108h-76zM296 143l24 125c6 37 16 83 25 119h-3c-19 -32 -45 -70 -68 -99l-116 -140l1 -5h137z" />
    <glyph glyph-name="five.taboldstyle" unicode="&#xf648;" horiz-adv-x="552" 
d="M28 -101l31 107c25 -9 66 -16 107 -16c79 0 137 36 137 95c0 18 -7 38 -20 51c-36 34 -126 41 -194 39l105 315h308l-37 -121h-190l-34 -97c67 -3 128 -22 166 -60c29 -29 46 -66 46 -111c0 -142 -118 -226 -281 -226c-61 0 -115 11 -144 24z" />
    <glyph glyph-name="six.taboldstyle" unicode="&#xf649;" horiz-adv-x="552" 
d="M257 101c57 0 103 59 103 125c0 53 -36 83 -77 83c-40 0 -63 -20 -79 -42c-13 -17 -22 -43 -22 -75c0 -57 31 -91 75 -91zM503 616l8 -107c-96 -7 -191 -37 -244 -91c-20 -19 -32 -39 -42 -59l2 -1c28 24 71 47 129 47c84 0 151 -63 151 -165c0 -138 -111 -251 -260 -251
c-120 0 -206 77 -206 215c0 77 32 188 116 273c76 75 193 136 346 139z" />
    <glyph glyph-name="seven.taboldstyle" unicode="&#xf64a;" horiz-adv-x="552" 
d="M523 490l-17 -92c-45 -99 -220 -365 -349 -523l-134 30c107 129 241 316 322 459l1 2h-263l22 124h418z" />
    <glyph glyph-name="eight.taboldstyle" unicode="&#xf64b;" horiz-adv-x="552" 
d="M325 617c119 0 200 -63 200 -154c0 -69 -51 -109 -114 -138v-3c51 -28 95 -75 95 -135c0 -125 -131 -198 -258 -198c-138 1 -222 69 -222 166c0 79 62 130 139 163v3c-43 25 -72 66 -72 116c0 110 111 180 232 180zM314 515c-50 0 -85 -29 -85 -67c0 -39 41 -64 85 -80
c39 14 73 43 73 83c0 36 -27 64 -73 64zM262 94c50 0 92 36 92 83c0 41 -38 70 -87 91c-48 -18 -90 -51 -90 -97c0 -48 38 -77 85 -77z" />
    <glyph glyph-name="nine.taboldstyle" unicode="&#xf64c;" horiz-adv-x="552" 
d="M263 187c29 0 57 15 77 37c16 15 28 48 28 78c0 54 -29 90 -77 90c-52 0 -99 -55 -99 -124c0 -50 29 -81 71 -81zM52 -120l-6 109c23 1 53 3 86 8c102 17 172 77 198 137l-3 2c-23 -24 -68 -46 -118 -46c-105 0 -164 73 -164 165c0 139 116 250 261 250
c127 0 204 -98 204 -219c0 -207 -151 -376 -385 -403c-31 -3 -56 -4 -73 -3z" />
    <glyph glyph-name="dollar.taboldstyle" unicode="&#xf653;" horiz-adv-x="552" 
d="M259 -87h-84l16 84c-59 3 -115 23 -147 46l49 100c27 -19 83 -40 131 -40c37 0 83 12 83 46c0 17 -11 32 -74 56c-87 30 -122 66 -122 119c0 96 89 149 177 163l17 93h85l-16 -88c51 -4 96 -19 122 -34l-46 -97c-23 15 -67 32 -113 32c-36 0 -76 -12 -76 -42
c0 -20 14 -29 77 -53c87 -30 125 -70 125 -123c0 -101 -97 -159 -187 -173z" />
    <glyph glyph-name="cent.taboldstyle" unicode="&#xf654;" horiz-adv-x="552" 
d="M410 159l-1 -97c-27 -11 -75 -23 -111 -24l-14 -73h-83l15 76c-89 13 -152 72 -152 161c0 127 94 235 230 257l15 73h82l-13 -69c29 -1 74 -13 96 -22l-39 -98c-16 8 -55 20 -85 20c-89 0 -147 -61 -147 -139c0 -56 42 -84 102 -84c38 0 80 10 105 19z" />
    <glyph glyph-name="Euro.taboldstyle" unicode="&#xf64e;" horiz-adv-x="552" 
d="M464 122l6 -106c-31 -15 -90 -27 -150 -27c-124 0 -206 72 -218 189h-66l16 69h52c2 15 4 31 7 44h-49l17 69h53c44 114 156 189 291 189c63 0 103 -14 126 -25l-40 -102c-19 8 -49 17 -87 17c-67 0 -121 -32 -148 -79h198l-16 -69h-208c-3 -16 -5 -29 -6 -44h204
l-15 -69h-184c13 -52 58 -76 111 -76c36 0 80 9 106 20z" />
    <glyph glyph-name="florin.taboldstyle" unicode="&#xf64f;" horiz-adv-x="552" 
d="M537 599l-37 -105c-13 7 -29 10 -47 10c-44 0 -73 -33 -88 -92l-12 -47h100l-14 -105h-112l-43 -178c-29 -117 -81 -213 -211 -213c-43 1 -73 10 -89 21l31 102c13 -6 30 -10 49 -10c36 0 63 24 93 144l31 134h-77l14 105h89l8 32c16 68 69 220 236 220
c32 0 62 -7 79 -18z" />
    <glyph glyph-name="sterling.taboldstyle" unicode="&#xf651;" horiz-adv-x="552" 
d="M508 545l-39 -110c-17 10 -47 17 -77 17c-63 0 -99 -43 -104 -107c-2 -10 -3 -20 -2 -29h138l-14 -83h-125c-5 -47 -25 -87 -63 -113v-2h254l-19 -118h-437l13 80c70 27 118 77 121 153h-87l14 83h70c-1 10 1 20 2 32c13 120 102 221 247 221c47 0 88 -12 108 -24z" />
    <glyph glyph-name="yen.taboldstyle" unicode="&#xf652;" horiz-adv-x="552" 
d="M291 0h-136l20 105h-143l14 71h143l9 52h-143l14 71h112l-95 240h148l31 -126c8 -38 14 -65 21 -99h1c19 32 39 64 60 100l78 125h148l-191 -240h110l-13 -71h-145l-9 -52h144l-13 -71h-145z" />
    <glyph glyph-name="numbersign.taboldstyle" unicode="&#xf650;" horiz-adv-x="552" 
d="M226 252h87l36 115h-87zM146 0h-89l51 162h-82l15 90h96l38 115h-85l14 90h98l51 160h87l-51 -160h88l51 160h88l-51 -160h81l-15 -90h-94l-36 -115h83l-15 -90h-98l-50 -162h-89l51 162h-87z" />
    <glyph glyph-name="zero.superior" unicode="&#x2070;" horiz-adv-x="366" 
d="M219 401c-87 0 -136 60 -136 147c0 132 79 253 206 253c88 0 134 -62 134 -138c0 -143 -80 -262 -204 -262zM231 484c54 0 80 114 80 170c0 34 -8 64 -35 64c-54 0 -81 -123 -81 -170c0 -33 7 -64 36 -64z" />
    <glyph glyph-name="one.superior" horiz-adv-x="274" 
d="M252 406h-117l57 295h-2l-78 -32l-9 80l122 47h101z" />
    <glyph glyph-name="two.superior" horiz-adv-x="341" 
d="M349 406h-304l11 57l75 58c84 61 141 107 141 151c0 22 -15 40 -50 40c-32 0 -65 -13 -89 -29l-17 73c36 26 88 45 145 45c73 0 134 -35 134 -107c0 -79 -74 -131 -143 -181l-27 -19v-2h140z" />
    <glyph glyph-name="three.superior" horiz-adv-x="335" 
d="M130 694l-10 71c32 21 81 36 138 36c72 0 133 -36 133 -90c0 -50 -43 -81 -98 -95v-2c39 -8 80 -37 80 -85c0 -84 -87 -128 -186 -128c-56 0 -109 13 -138 33l35 75c20 -14 59 -29 95 -29c42 0 73 21 73 50c0 31 -35 48 -84 48h-18l14 68h16c42 0 89 14 89 45
c0 17 -13 31 -47 31c-33 0 -71 -14 -92 -28z" />
    <glyph glyph-name="four.superior" unicode="&#x2074;" horiz-adv-x="365" 
d="M336 406h-107l17 91h-187l13 64l204 238h134l-43 -227h51l-15 -75h-50zM260 572l14 70c5 25 12 53 19 76h-3c-17 -25 -34 -51 -49 -69l-61 -75v-2h80z" />
    <glyph glyph-name="five.superior" unicode="&#x2075;" horiz-adv-x="337" 
d="M396 796l-17 -87h-151l-13 -46c10 1 18 1 25 1c22 0 50 -5 72 -16c44 -17 64 -51 64 -91c0 -101 -92 -156 -208 -156c-53 0 -92 10 -112 21l25 80c16 -7 49 -17 88 -17c49 0 86 21 86 58c0 29 -28 48 -97 48c-22 0 -39 -1 -55 -3l58 208h235z" />
    <glyph glyph-name="six.superior" unicode="&#x2076;" horiz-adv-x="358" 
d="M402 799l-15 -82c-12 2 -28 3 -44 1c-69 -6 -110 -39 -126 -75l1 -1c20 17 51 28 77 28c74 0 112 -50 112 -112c0 -88 -75 -157 -173 -157c-92 0 -152 62 -152 142c0 90 50 166 112 207c43 27 97 45 156 48c18 2 39 2 52 1zM239 478c32 0 57 31 57 74c0 27 -17 46 -46 46
c-19 0 -36 -11 -46 -25c-4 -5 -6 -9 -9 -14c-3 -10 -4 -21 -4 -30c0 -28 18 -51 48 -51z" />
    <glyph glyph-name="seven.superior" unicode="&#x2077;" horiz-adv-x="316" 
d="M117 796h291l-13 -67c-43 -65 -166 -245 -218 -323h-120c62 87 171 238 216 302v1h-173z" />
    <glyph glyph-name="eight.superior" unicode="&#x2078;" horiz-adv-x="363" 
d="M286 801c66 0 131 -29 131 -96c0 -42 -38 -73 -78 -89l-1 -1c42 -20 65 -52 65 -86c0 -90 -96 -128 -179 -128c-89 0 -146 42 -146 100c0 53 44 90 93 108v1c-30 16 -50 41 -50 71c0 76 78 120 165 120zM238 475c27 0 50 19 50 47c0 26 -18 42 -47 52
c-26 -7 -50 -24 -50 -57c0 -23 18 -42 47 -42zM270 729c-24 0 -41 -18 -41 -39c0 -18 13 -34 45 -46c22 6 40 23 40 47c0 21 -14 38 -44 38z" />
    <glyph glyph-name="nine.superior" unicode="&#x2079;" horiz-adv-x="357" 
d="M88 401l12 84c11 -1 34 -3 53 -2c24 1 47 7 70 18c30 14 53 37 63 60l-1 1c-18 -16 -50 -24 -76 -24c-63 0 -117 38 -117 111c0 87 82 154 177 154c93 0 146 -61 146 -144c0 -89 -47 -162 -103 -205c-46 -36 -112 -53 -170 -55c-16 0 -38 1 -54 2zM259 724
c-31 0 -56 -32 -56 -69c0 -28 19 -46 46 -46c21 0 36 8 46 20c4 4 7 11 10 20c1 6 2 15 2 24c0 28 -16 51 -48 51z" />
    <glyph glyph-name="period.superior" unicode="&#xf6e8;" horiz-adv-x="171" 
d="M128 400c-32 0 -55 23 -55 56c0 38 27 69 68 69c33 0 57 -23 57 -57c0 -40 -28 -68 -70 -68z" />
    <glyph glyph-name="comma.superior" unicode="&#xf6e2;" horiz-adv-x="171" 
d="M98 342l-74 -6c29 61 55 123 71 183l110 6c-30 -67 -66 -129 -107 -183z" />
    <glyph glyph-name="dollar.superior" unicode="&#xf6e4;" horiz-adv-x="341" 
d="M225 353h-67l10 55c-43 2 -89 22 -109 38l34 78c26 -20 63 -36 112 -36c33 0 56 11 56 31c0 18 -14 30 -54 46c-46 20 -100 49 -100 107c0 66 54 112 134 120l10 51h67l-9 -50c39 -2 71 -14 89 -26l-33 -75c-17 10 -50 25 -96 25c-32 0 -48 -14 -48 -28
c0 -17 19 -28 66 -48c50 -21 90 -53 90 -108c0 -78 -68 -117 -141 -125z" />
    <glyph glyph-name="cent.superior" unicode="&#xf6e0;" horiz-adv-x="310" 
d="M251 399h-67l11 58c-33 6 -59 20 -75 42c-18 21 -27 49 -27 83c0 95 72 159 159 175l9 54h68l-9 -52c15 0 38 -4 53 -11l-30 -76c-12 5 -26 9 -51 9c-52 0 -87 -35 -87 -85c0 -42 30 -61 65 -61c21 0 38 5 54 12l7 -76c-23 -11 -46 -15 -69 -16z" />
    <glyph glyph-name="hyphen.superior" unicode="&#xf6e6;" horiz-adv-x="206" 
d="M92 627h170l-13 -69h-170z" />
    <glyph glyph-name="parenleft.superior" unicode="&#x207d;" horiz-adv-x="204" 
d="M221 833h74c-63 -83 -111 -199 -111 -319c0 -59 5 -109 23 -163h-72c-19 44 -33 103 -33 157c0 134 46 246 119 325z" />
    <glyph glyph-name="parenright.superior" unicode="&#x207e;" horiz-adv-x="204" 
d="M117 351h-74c62 84 111 199 111 319c0 59 -5 108 -23 163h72c19 -43 33 -103 33 -157c0 -131 -45 -244 -119 -325z" />
    <glyph glyph-name="zero.inferior" unicode="&#x2080;" horiz-adv-x="366" 
d="M113 -149c-87 0 -136 61 -136 147c0 132 79 253 206 253c88 0 134 -62 134 -138c0 -143 -80 -262 -204 -262zM125 -66c54 0 80 114 80 170c0 34 -8 64 -35 64c-54 0 -81 -123 -81 -170c0 -33 7 -64 36 -64z" />
    <glyph glyph-name="one.inferior" unicode="&#x2081;" horiz-adv-x="274" 
d="M146 -144h-117l57 295h-2l-78 -32l-9 79l122 48h101z" />
    <glyph glyph-name="two.inferior" unicode="&#x2082;" horiz-adv-x="341" 
d="M243 -144h-304l11 57l75 58c84 61 141 107 141 151c0 22 -15 40 -50 40c-32 0 -65 -13 -89 -29l-17 73c36 26 88 45 145 45c73 0 134 -35 134 -107c0 -79 -74 -131 -143 -181l-27 -19v-2h140z" />
    <glyph glyph-name="three.inferior" unicode="&#x2083;" horiz-adv-x="335" 
d="M24 144l-10 71c32 21 81 36 138 36c72 0 133 -36 133 -90c0 -50 -43 -81 -98 -95v-2c39 -8 80 -37 80 -85c0 -83 -87 -128 -186 -128c-56 0 -109 13 -138 33l35 76c20 -15 59 -30 95 -30c42 0 73 21 73 50c0 31 -35 48 -84 48h-18l14 68h16c42 0 89 14 89 45
c0 17 -13 31 -47 31c-33 0 -71 -14 -92 -28z" />
    <glyph glyph-name="four.inferior" unicode="&#x2084;" horiz-adv-x="365" 
d="M230 -144h-107l17 91h-187l13 64l204 238h134l-43 -227h51l-15 -75h-50zM154 22l14 70c5 25 12 53 19 76h-3c-17 -25 -34 -51 -49 -69l-61 -75v-2h80z" />
    <glyph glyph-name="five.inferior" unicode="&#x2085;" horiz-adv-x="337" 
d="M290 246l-17 -87h-151l-13 -46c10 1 18 1 25 1c22 0 50 -5 72 -16c44 -17 64 -51 64 -91c0 -101 -92 -156 -208 -156c-53 0 -92 10 -112 21l25 80c16 -7 49 -17 88 -17c49 0 86 21 86 58c0 29 -28 48 -97 48c-22 0 -39 -1 -55 -3l58 208h235z" />
    <glyph glyph-name="six.inferior" unicode="&#x2086;" horiz-adv-x="358" 
d="M296 249l-15 -82c-12 2 -28 3 -44 1c-69 -6 -110 -39 -126 -75l1 -1c20 17 51 28 77 28c74 0 112 -50 112 -112c0 -88 -75 -157 -173 -157c-92 0 -152 62 -152 142c0 90 50 166 112 207c43 27 97 45 156 48c18 2 39 2 52 1zM133 -72c32 0 57 31 57 74c0 27 -17 46 -46 46
c-19 0 -36 -11 -46 -25c-4 -5 -6 -9 -9 -14c-3 -10 -4 -21 -4 -30c0 -28 18 -51 48 -51z" />
    <glyph glyph-name="seven.inferior" unicode="&#x2087;" horiz-adv-x="316" 
d="M11 246h291l-13 -67c-43 -65 -166 -245 -218 -323h-120c62 87 171 238 216 302v1h-173z" />
    <glyph glyph-name="eight.inferior" unicode="&#x2088;" horiz-adv-x="363" 
d="M180 251c66 0 131 -29 131 -96c0 -42 -38 -73 -78 -89l-1 -1c42 -20 65 -52 65 -86c0 -90 -96 -128 -179 -128c-89 0 -146 42 -146 100c0 53 44 90 93 108v1c-30 16 -50 41 -50 71c0 76 78 120 165 120zM132 -75c27 0 50 19 50 47c0 26 -18 42 -47 52
c-26 -7 -50 -24 -50 -57c0 -23 18 -42 47 -42zM164 179c-24 0 -41 -18 -41 -39c0 -18 13 -34 45 -46c22 6 40 23 40 47c0 21 -14 38 -44 38z" />
    <glyph glyph-name="nine.inferior" unicode="&#x2089;" horiz-adv-x="357" 
d="M-18 -149l12 84c11 -2 34 -3 53 -3c24 2 47 7 70 19c30 13 53 37 63 60l-1 1c-18 -16 -50 -24 -76 -24c-63 0 -117 38 -117 111c0 87 82 154 177 154c93 0 146 -61 146 -144c0 -89 -47 -162 -103 -206c-46 -36 -112 -52 -170 -54c-16 -1 -38 1 -54 2zM153 174
c-31 0 -56 -32 -56 -69c0 -28 19 -46 46 -46c21 0 36 8 46 20c4 4 7 11 10 20c1 6 2 15 2 24c0 28 -16 51 -48 51z" />
    <glyph glyph-name="period.inferior" unicode="&#xf6e7;" horiz-adv-x="171" 
d="M22 -150c-32 0 -55 23 -55 56c0 38 27 69 68 69c33 0 57 -23 57 -57c0 -40 -28 -68 -70 -68z" />
    <glyph glyph-name="comma.inferior" unicode="&#xf6e1;" horiz-adv-x="171" 
d="M-8 -208l-74 -6c29 61 55 123 71 183l110 6c-30 -67 -66 -129 -107 -183z" />
    <glyph glyph-name="dollar.inferior" unicode="&#xf6e3;" horiz-adv-x="341" 
d="M119 -197h-67l10 54c-43 3 -89 23 -109 39l34 78c26 -20 63 -36 112 -36c33 0 56 11 56 31c0 18 -14 30 -54 46c-46 20 -100 49 -100 107c0 66 54 112 134 120l10 51h67l-9 -50c39 -2 71 -14 89 -26l-33 -75c-17 10 -50 25 -96 25c-32 0 -48 -14 -48 -29
c0 -16 19 -27 66 -47c50 -21 90 -53 90 -108c0 -79 -68 -117 -141 -125z" />
    <glyph glyph-name="cent.inferior" unicode="&#xf6df;" horiz-adv-x="310" 
d="M145 -151h-67l11 57c-33 6 -59 20 -75 42c-18 21 -27 49 -27 84c0 95 72 159 159 175l9 54h68l-9 -51c15 -1 38 -4 53 -11l-30 -77c-12 5 -26 9 -51 9c-52 0 -87 -36 -87 -85c0 -43 30 -62 65 -62c21 0 38 5 54 12l7 -76c-23 -11 -46 -15 -69 -16z" />
    <glyph glyph-name="hyphen.inferior" unicode="&#xf6e5;" horiz-adv-x="206" 
d="M-14 77h170l-13 -69h-170z" />
    <glyph glyph-name="parenleft.inferior" unicode="&#x208d;" horiz-adv-x="204" 
d="M115 283h74c-63 -83 -111 -199 -111 -319c0 -59 5 -109 23 -163h-72c-19 43 -33 103 -33 157c0 134 46 246 119 325z" />
    <glyph glyph-name="parenright.inferior" unicode="&#x208e;" horiz-adv-x="204" 
d="M11 -199h-74c62 84 111 198 111 319c0 59 -5 108 -23 163h72c19 -43 33 -103 33 -157c0 -131 -45 -244 -119 -325z" />
    <glyph glyph-name="zero.numerator" unicode="&#xf661;" horiz-adv-x="366" 
d="M191 261c-87 0 -136 61 -136 147c0 132 79 253 206 253c88 0 134 -62 134 -138c0 -143 -80 -262 -204 -262zM203 344c54 0 80 114 80 170c0 34 -8 64 -35 64c-54 0 -81 -123 -81 -170c0 -33 7 -64 36 -64z" />
    <glyph glyph-name="one.numerator" unicode="&#xf662;" horiz-adv-x="274" 
d="M224 266h-117l57 295h-2l-78 -32l-9 79l122 48h101z" />
    <glyph glyph-name="two.numerator" unicode="&#xf663;" horiz-adv-x="341" 
d="M321 266h-304l11 57l75 58c84 61 141 107 141 151c0 22 -15 40 -50 40c-32 0 -65 -13 -89 -29l-17 73c36 26 88 45 145 45c73 0 134 -35 134 -107c0 -79 -74 -131 -143 -181l-27 -19v-2h140z" />
    <glyph glyph-name="three.numerator" unicode="&#xf664;" horiz-adv-x="335" 
d="M102 554l-10 71c32 21 81 36 138 36c72 0 133 -36 133 -90c0 -50 -43 -81 -98 -95v-2c39 -8 80 -37 80 -85c0 -83 -87 -128 -186 -128c-56 0 -109 13 -138 33l35 76c20 -15 59 -30 95 -30c42 0 73 21 73 50c0 31 -35 48 -84 48h-18l14 68h16c42 0 89 14 89 45
c0 17 -13 31 -47 31c-33 0 -71 -14 -92 -28z" />
    <glyph glyph-name="four.numerator" unicode="&#xf665;" horiz-adv-x="365" 
d="M308 266h-107l17 91h-187l13 64l204 238h134l-43 -227h51l-15 -75h-50zM232 432l14 70c5 25 12 53 19 76h-3c-17 -25 -34 -51 -49 -69l-61 -75v-2h80z" />
    <glyph glyph-name="five.numerator" unicode="&#xf666;" horiz-adv-x="337" 
d="M368 656l-17 -87h-151l-13 -46c10 1 18 1 25 1c22 0 50 -5 72 -16c44 -17 64 -51 64 -91c0 -101 -92 -156 -208 -156c-53 0 -92 10 -112 21l25 80c16 -7 49 -17 88 -17c49 0 86 21 86 58c0 29 -28 48 -97 48c-22 0 -39 -1 -55 -3l58 208h235z" />
    <glyph glyph-name="six.numerator" unicode="&#xf667;" horiz-adv-x="358" 
d="M374 659l-15 -82c-12 2 -28 3 -44 1c-69 -6 -110 -39 -126 -75l1 -1c20 17 51 28 77 28c74 0 112 -50 112 -112c0 -88 -75 -157 -173 -157c-92 0 -152 62 -152 142c0 90 50 166 112 207c43 27 97 45 156 48c18 2 39 2 52 1zM211 338c32 0 57 31 57 74c0 27 -17 46 -46 46
c-19 0 -36 -11 -46 -25c-4 -5 -6 -9 -9 -14c-3 -10 -4 -21 -4 -30c0 -28 18 -51 48 -51z" />
    <glyph glyph-name="seven.numerator" unicode="&#xf668;" horiz-adv-x="316" 
d="M89 656h291l-13 -67c-43 -65 -166 -245 -218 -323h-120c62 87 171 238 216 302v1h-173z" />
    <glyph glyph-name="eight.numerator" unicode="&#xf669;" horiz-adv-x="363" 
d="M258 661c66 0 131 -29 131 -96c0 -43 -38 -73 -78 -89l-1 -1c42 -20 65 -52 65 -86c0 -90 -96 -128 -179 -128c-89 0 -146 42 -146 100c0 53 44 90 93 108v1c-30 16 -50 41 -50 71c0 76 78 120 165 120zM210 335c27 0 50 19 50 47c0 26 -18 42 -47 52
c-26 -7 -50 -24 -50 -57c0 -23 18 -42 47 -42zM242 589c-24 0 -41 -18 -41 -39c0 -18 13 -34 45 -46c22 6 40 23 40 47c0 21 -14 38 -44 38z" />
    <glyph glyph-name="nine.numerator" unicode="&#xf66a;" horiz-adv-x="357" 
d="M60 261l12 84c11 -2 34 -3 53 -3c24 2 47 7 70 19c30 13 53 37 63 59l-1 2c-18 -16 -50 -24 -76 -24c-63 0 -117 38 -117 111c0 87 82 154 177 154c93 0 146 -61 146 -144c0 -90 -47 -162 -103 -206c-46 -36 -112 -52 -170 -54c-16 -1 -38 1 -54 2zM231 584
c-31 0 -56 -32 -56 -69c0 -28 19 -46 46 -46c21 0 36 8 46 20c4 3 7 10 10 20c1 6 2 15 2 24c0 28 -16 51 -48 51z" />
    <glyph glyph-name="period.numerator" unicode="&#xf66c;" horiz-adv-x="171" 
d="M100 260c-32 0 -55 23 -55 56c0 38 27 69 68 69c33 0 57 -23 57 -57c0 -40 -28 -68 -70 -68z" />
    <glyph glyph-name="comma.numerator" unicode="&#xf66b;" horiz-adv-x="171" 
d="M70 202l-74 -6c29 61 55 123 71 183l110 6c-30 -67 -66 -129 -107 -183z" />
    <glyph glyph-name="dollar.numerator" unicode="&#xf62f;" horiz-adv-x="341" 
d="M197 213h-67l10 54c-43 3 -89 23 -109 39l34 78c26 -20 63 -36 112 -36c33 0 56 11 56 31c0 18 -14 30 -54 46c-46 20 -100 49 -100 106c0 67 54 113 134 121l10 51h67l-9 -50c39 -2 71 -14 89 -26l-33 -75c-17 10 -50 25 -96 25c-32 0 -48 -14 -48 -28
c0 -17 19 -28 66 -48c50 -21 90 -53 90 -108c0 -79 -68 -117 -141 -125z" />
    <glyph glyph-name="cent.numerator" unicode="&#xf62e;" horiz-adv-x="310" 
d="M223 259h-67l11 58c-33 6 -59 20 -75 42c-18 21 -27 49 -27 83c0 95 72 159 159 175l9 54h68l-9 -51c15 -1 38 -4 53 -11l-30 -77c-12 5 -26 9 -51 9c-52 0 -87 -35 -87 -84c0 -43 30 -62 65 -62c21 0 38 5 54 12l7 -76c-23 -11 -46 -15 -69 -16z" />
    <glyph glyph-name="hyphen.numerator" unicode="&#xf630;" horiz-adv-x="206" 
d="M64 487h170l-13 -69h-170z" />
    <glyph glyph-name="parenleft.numerator" unicode="&#xf631;" horiz-adv-x="204" 
d="M193 693h74c-63 -83 -111 -199 -111 -319c0 -59 5 -109 23 -163h-72c-19 43 -33 103 -33 157c0 134 46 246 119 325z" />
    <glyph glyph-name="parenright.numerator" unicode="&#xf632;" horiz-adv-x="204" 
d="M89 211h-74c62 84 111 199 111 319c0 59 -5 108 -23 163h72c19 -43 33 -103 33 -157c0 -131 -45 -244 -119 -325z" />
    <glyph glyph-name="zero.denominator" unicode="&#xf655;" horiz-adv-x="366" 
d="M138 -5c-87 0 -136 61 -136 147c0 132 79 253 206 253c88 0 134 -62 134 -138c0 -143 -80 -262 -204 -262zM150 78c54 0 80 114 80 170c0 34 -8 64 -35 64c-54 0 -81 -123 -81 -170c0 -33 7 -64 36 -64z" />
    <glyph glyph-name="one.denominator" unicode="&#xf656;" horiz-adv-x="274" 
d="M172 0h-117l57 295h-2l-78 -32l-9 80l122 47h101z" />
    <glyph glyph-name="two.denominator" unicode="&#xf657;" horiz-adv-x="341" 
d="M268 0h-304l11 57l75 58c84 61 141 107 141 151c0 22 -15 40 -50 40c-32 0 -65 -13 -89 -29l-17 73c36 26 88 45 145 45c73 0 134 -35 134 -107c0 -79 -74 -131 -143 -180l-27 -20v-2h140z" />
    <glyph glyph-name="three.denominator" unicode="&#xf658;" horiz-adv-x="335" 
d="M50 288l-10 71c32 21 81 36 138 36c72 0 133 -36 133 -90c0 -50 -43 -81 -98 -95v-2c39 -8 80 -37 80 -85c0 -83 -87 -128 -186 -128c-56 0 -109 13 -138 33l35 76c20 -15 59 -30 95 -30c42 0 73 21 73 50c0 31 -35 48 -84 48h-18l14 68h16c42 0 89 14 89 45
c0 17 -13 31 -47 31c-33 0 -71 -14 -92 -28z" />
    <glyph glyph-name="four.denominator" unicode="&#xf659;" horiz-adv-x="365" 
d="M256 0h-107l17 91h-187l13 64l204 238h135l-44 -227h51l-15 -75h-50zM180 166l14 70c5 25 12 53 19 76h-3c-17 -26 -34 -51 -49 -69l-61 -76v-1h80z" />
    <glyph glyph-name="five.denominator" unicode="&#xf65a;" horiz-adv-x="337" 
d="M315 390l-17 -87h-151l-13 -46c10 1 18 1 25 1c22 0 50 -5 72 -16c44 -17 64 -51 64 -91c0 -101 -92 -156 -208 -156c-53 0 -92 10 -112 21l25 80c16 -7 49 -17 88 -17c49 0 86 21 86 58c0 29 -28 48 -97 48c-22 0 -39 -1 -55 -3l58 208h235z" />
    <glyph glyph-name="six.denominator" unicode="&#xf65b;" horiz-adv-x="358" 
d="M322 393l-15 -82c-12 2 -28 3 -44 1c-69 -6 -111 -39 -127 -75l1 -1c20 17 52 28 78 28c74 0 112 -50 112 -112c0 -88 -75 -157 -174 -157c-92 0 -152 62 -152 142c0 90 50 166 113 207c42 27 97 45 156 48c18 2 39 2 52 1zM159 72c32 0 57 31 57 74c0 27 -17 46 -47 46
c-18 0 -36 -11 -46 -25c-4 -5 -6 -9 -9 -14c-3 -10 -4 -21 -4 -30c0 -28 18 -51 49 -51z" />
    <glyph glyph-name="seven.denominator" unicode="&#xf65c;" horiz-adv-x="316" 
d="M37 390h291l-13 -67c-43 -65 -166 -245 -218 -323h-120c62 87 171 238 216 302v1h-173z" />
    <glyph glyph-name="eight.denominator" unicode="&#xf65d;" horiz-adv-x="363" 
d="M205 395c66 0 131 -29 131 -96c0 -42 -38 -73 -78 -89l-1 -1c42 -20 65 -52 65 -86c0 -90 -96 -128 -179 -128c-89 0 -146 42 -146 100c0 53 44 90 93 108v1c-30 16 -50 41 -50 71c0 76 78 120 165 120zM157 69c27 0 50 19 50 47c0 26 -18 42 -47 52
c-26 -7 -50 -24 -50 -57c0 -23 18 -42 47 -42zM189 323c-24 0 -41 -18 -41 -39c0 -18 13 -34 45 -46c22 6 40 23 40 47c0 21 -14 38 -44 38z" />
    <glyph glyph-name="nine.denominator" unicode="&#xf65e;" horiz-adv-x="357" 
d="M7 -5l12 84c11 -2 34 -3 53 -3c24 2 47 7 70 19c30 13 53 37 63 60l-1 1c-18 -16 -50 -24 -76 -24c-63 0 -117 38 -117 111c0 87 82 154 177 154c93 0 146 -61 146 -144c0 -89 -47 -162 -103 -206c-46 -36 -112 -52 -170 -54c-16 -1 -38 1 -54 2zM178 318
c-31 0 -56 -32 -56 -69c0 -28 19 -46 46 -46c21 0 36 8 46 20c4 4 7 11 10 20c1 6 2 15 2 24c0 28 -16 51 -48 51z" />
    <glyph glyph-name="period.denominator" unicode="&#xf660;" horiz-adv-x="171" 
d="M47 -6c-32 0 -55 23 -55 56c0 38 27 69 68 69c33 0 57 -23 57 -57c0 -40 -28 -68 -70 -68z" />
    <glyph glyph-name="comma.denominator" unicode="&#xf65f;" horiz-adv-x="171" 
d="M17 -64l-74 -6c29 61 55 123 71 183l110 6c-30 -67 -66 -129 -107 -183z" />
    <glyph glyph-name="dollar.denominator" unicode="&#xf62a;" horiz-adv-x="341" 
d="M144 -53h-67l10 54c-43 3 -89 23 -109 39l34 78c26 -20 63 -36 112 -36c33 0 56 11 56 31c0 18 -14 30 -54 46c-46 20 -100 49 -100 107c0 66 54 112 134 120l10 51h67l-9 -50c39 -2 71 -14 89 -26l-33 -75c-17 10 -50 25 -96 25c-32 0 -48 -14 -48 -28
c0 -17 19 -28 66 -48c50 -21 90 -53 90 -108c0 -79 -68 -117 -141 -125z" />
    <glyph glyph-name="cent.denominator" unicode="&#xf629;" horiz-adv-x="310" 
d="M171 -7h-67l11 58c-33 6 -59 20 -75 42c-18 21 -27 49 -27 83c0 95 72 159 159 175l9 54h68l-9 -52c15 0 38 -4 53 -11l-30 -76c-12 5 -26 9 -51 9c-52 0 -87 -35 -87 -85c0 -42 30 -61 65 -61c21 0 38 5 54 12l7 -76c-23 -11 -46 -15 -69 -16z" />
    <glyph glyph-name="hyphen.denominator" unicode="&#xf62b;" horiz-adv-x="206" 
d="M11 221h170l-13 -69h-170z" />
    <glyph glyph-name="parenleft.denominator" unicode="&#xf62c;" horiz-adv-x="204" 
d="M140 427h74c-63 -83 -111 -199 -111 -319c0 -59 5 -109 23 -163h-72c-19 44 -33 103 -33 157c0 134 46 246 119 325z" />
    <glyph glyph-name="parenright.denominator" unicode="&#xf62d;" horiz-adv-x="204" 
d="M37 -55h-74c62 84 111 199 111 319c0 59 -5 108 -23 163h72c19 -43 33 -103 33 -157c0 -131 -45 -244 -119 -325z" />
    <glyph glyph-name="at.cap" unicode="&#xf633;" horiz-adv-x="749" 
d="M449 343l14 95c-8 2 -19 4 -31 4c-66 0 -118 -65 -118 -142c0 -38 17 -62 50 -62c37 0 76 47 85 105zM534 82l17 -57c-59 -28 -112 -36 -182 -36c-168 0 -312 119 -312 315c0 204 148 381 373 381c177 0 303 -121 303 -289c0 -147 -82 -239 -190 -239
c-47 0 -81 25 -86 77h-2c-32 -50 -76 -77 -130 -77c-64 0 -112 49 -112 131c0 123 91 233 235 233c44 0 94 -11 119 -24l-30 -186c-10 -59 -3 -86 25 -87c43 -2 97 53 97 169c0 131 -84 231 -239 231c-154 0 -287 -119 -287 -311c0 -168 105 -262 257 -262
c49 0 104 11 144 31z" />
    <glyph glyph-name="emdash.cap" unicode="&#xf6bc;" horiz-adv-x="1000" 
d="M54 376h940l-18 -94h-940z" />
    <glyph glyph-name="endash.cap" unicode="&#xf6bb;" horiz-adv-x="500" 
d="M54 376h440l-18 -94h-440z" />
    <glyph glyph-name="exclamdown.cap" unicode="&#xf6b4;" horiz-adv-x="269" 
d="M164 0h-155l109 452h111zM208 685c48 0 80 -35 80 -82c0 -53 -40 -100 -97 -100c-48 0 -82 35 -82 84c0 57 41 98 99 98z" />
    <glyph glyph-name="guillemotleft.cap" unicode="&#xf6b6;" horiz-adv-x="461" 
d="M281 518l-144 -193l96 -188h-100l-97 190l135 191h110zM474 518l-144 -193l96 -188h-100l-97 190l135 191h110z" />
    <glyph glyph-name="guillemotright.cap" unicode="&#xf6b7;" horiz-adv-x="460" 
d="M163 331l-96 187h100l97 -191l-135 -190h-110zM356 331l-96 187h100l97 -191l-135 -190h-110z" />
    <glyph glyph-name="guilsinglleft.cap" unicode="&#xf6b8;" horiz-adv-x="268" 
d="M281 518l-144 -193l96 -188h-100l-97 190l135 191h110z" />
    <glyph glyph-name="guilsinglright.cap" unicode="&#xf6b9;" horiz-adv-x="267" 
d="M163 331l-96 187h100l97 -191l-135 -190h-110z" />
    <glyph glyph-name="hyphen.cap" unicode="&#xf6ba;" horiz-adv-x="322" 
d="M58 388h259l-20 -101h-259z" />
    <glyph glyph-name="questiondown.cap" unicode="&#xf6b5;" horiz-adv-x="437" 
d="M207 456h140c-1 -9 -2 -18 -3 -26c-8 -54 -36 -107 -90 -167c-40 -42 -81 -76 -81 -111c0 -26 14 -47 59 -48c44 0 81 10 109 28l19 -101c-37 -23 -94 -43 -169 -43c-97 0 -166 55 -166 137c0 76 48 128 108 189c40 39 60 73 69 118zM312 685c47 0 79 -35 79 -82
c0 -53 -40 -100 -97 -100c-48 0 -82 35 -82 84c0 57 41 98 100 98z" />
    <glyph glyph-name="braceleft.cap" unicode="&#xf6b2;" horiz-adv-x="314" 
d="M42 287l14 77c68 3 82 38 88 68c9 49 10 106 19 157c18 94 80 135 172 135h37l-16 -84h-18c-43 0 -64 -27 -73 -72c-8 -36 -8 -74 -16 -125c-11 -76 -45 -105 -103 -117v-2c40 -9 66 -35 66 -74c0 -29 -10 -65 -21 -101c-10 -35 -21 -69 -21 -93c0 -29 16 -46 48 -46h18
l-15 -84h-30c-79 0 -131 28 -131 106c0 35 13 75 23 111c11 37 23 71 23 95c0 29 -20 48 -64 49z" />
    <glyph glyph-name="braceright.cap" unicode="&#xf6b3;" horiz-adv-x="314" 
d="M307 363l-14 -77c-68 -3 -82 -38 -88 -68c-9 -49 -10 -106 -19 -157c-18 -94 -80 -135 -172 -135h-37l16 84h18c43 0 64 27 73 72c8 36 8 74 16 125c11 76 45 105 103 117v2c-40 9 -66 35 -66 74c0 29 12 65 22 100c10 36 21 70 21 93c0 30 -16 47 -48 47h-18l15 84h30
c79 0 131 -28 131 -106c0 -36 -11 -74 -23 -111c-12 -36 -24 -70 -24 -95c0 -29 20 -48 64 -49z" />
    <glyph glyph-name="bracketleft.cap" unicode="&#xf6b0;" horiz-adv-x="314" 
d="M212 -74h-201l152 798h201l-16 -83h-93l-121 -632h93z" />
    <glyph glyph-name="bracketright.cap" unicode="&#xf6b1;" horiz-adv-x="314" 
d="M137 724h201l-152 -798h-201l16 83h93l120 632h-93z" />
    <glyph glyph-name="parenleft.cap" unicode="&#xf6ae;" horiz-adv-x="314" 
d="M272 728h107c-103 -128 -191 -318 -191 -533c0 -96 8 -176 41 -273h-102c-35 78 -55 171 -55 268c0 232 88 418 200 538z" />
    <glyph glyph-name="parenright.cap" unicode="&#xf6af;" horiz-adv-x="314" 
d="M82 -78h-108c102 128 191 319 191 534c0 97 -8 175 -41 272h103c35 -78 54 -171 54 -267c0 -232 -88 -418 -199 -539z" />
    <glyph glyph-name="periodcentered.cap" unicode="&#xf6bd;" horiz-adv-x="260" 
d="M134 241c-48 0 -80 35 -80 83c0 55 40 102 97 102c49 0 83 -35 83 -86c0 -58 -41 -99 -100 -99z" />
    <glyph glyph-name="lessequal" unicode="&#x2264;" horiz-adv-x="596" 
d="M538 117l-479 177v91l479 176v-101l-351 -120v-2l351 -119v-102zM538 0h-478v87h478v-87z" />
    <glyph glyph-name="greaterequal" unicode="&#x2265;" horiz-adv-x="596" 
d="M538 294l-479 -177v102l350 119v2l-350 120v101l479 -176v-91zM537 0h-478v87h478v-87z" />
    <glyph glyph-name="approxequal" unicode="&#x2248;" horiz-adv-x="596" 
d="M520 435l56 -59c-34 -55 -93 -98 -162 -98c-53 0 -91 22 -123 37c-30 13 -62 34 -109 34c-49 0 -87 -34 -112 -64l-51 63c35 49 92 94 164 94c55 0 90 -22 122 -36c30 -13 62 -34 108 -34c50 0 87 40 107 63zM524 223l54 -57c-35 -58 -95 -100 -164 -100
c-52 0 -90 22 -122 36c-30 13 -62 34 -111 34c-45 0 -85 -34 -110 -63l-50 63c34 51 95 93 162 93c55 0 91 -22 123 -36c30 -13 62 -34 108 -34c50 0 88 34 110 64z" />
    <glyph glyph-name="notequal" unicode="&#x2260;" horiz-adv-x="596" 
d="M556 115h-309l-62 -101h-98l65 101h-112v93h172l75 119h-247v93h307l62 101h97l-64 -101h114v-93h-174l-76 -119h250v-93z" />
    <glyph glyph-name="infinity" unicode="&#x221e;" horiz-adv-x="752" 
d="M554 97c-73 0 -130 55 -179 102c-52 -48 -101 -102 -187 -102c-96 0 -161 72 -161 166c0 90 67 168 169 168c74 0 131 -55 180 -103c52 49 101 103 187 103c96 0 161 -72 161 -168c0 -88 -67 -166 -170 -166zM554 189c40 0 72 33 72 74c0 44 -31 76 -70 76
c-46 0 -84 -40 -119 -75c31 -29 69 -75 117 -75zM196 189c45 0 83 39 118 73c-31 30 -69 77 -116 77c-41 0 -73 -34 -73 -76c0 -43 31 -74 71 -74z" />
    <glyph glyph-name="lozenge" unicode="&#x25ca;" horiz-adv-x="593" 
d="M558 324l-258 -362h-112l-124 362l258 362h112zM435 321l-70 226c-3 9 -7 21 -8 30h-2c-5 -9 -13 -21 -20 -30l-149 -220l70 -226c3 -9 7 -22 9 -30h2c5 8 13 21 19 30z" />
    <glyph glyph-name="integral" unicode="&#x222b;" horiz-adv-x="337" 
d="M414 798l-25 -88c-9 3 -21 5 -34 5c-72 0 -85 -100 -97 -176c-23 -151 -29 -275 -54 -444c-19 -120 -62 -260 -205 -260c-28 0 -48 5 -65 13l26 93c9 -4 23 -7 37 -7c69 0 85 102 93 157c28 172 33 298 57 457c21 135 70 260 208 260c24 0 45 -4 59 -10z" />
    <glyph glyph-name="partialdiff" unicode="&#x2202;" horiz-adv-x="566" 
d="M146 578l-26 98c28 20 97 56 189 56c150 0 246 -107 246 -291c0 -199 -100 -452 -329 -452c-129 0 -197 89 -197 201c0 149 110 266 253 266c71 0 112 -39 127 -66h1c3 17 5 43 5 65c-1 99 -52 159 -134 159c-60 0 -112 -22 -135 -36zM248 100c65 0 112 84 130 176
c-8 28 -39 69 -86 69c-70 0 -118 -77 -118 -154c0 -58 30 -91 74 -91z" />
    <glyph glyph-name="product" unicode="&#x220f;" horiz-adv-x="652" 
d="M674 528h-74l-120 -618h-137l120 618h-171l-121 -618h-136l120 618h-74l24 122h593z" />
    <glyph glyph-name="radical" unicode="&#x221a;" horiz-adv-x="568" 
d="M688 840l-365 -927h-98l-83 419l-77 -31l-18 67l182 73l51 -305c5 -29 8 -58 9 -82h2c7 22 18 53 31 85l268 701h98z" />
    <glyph glyph-name="summation" unicode="&#x2211;" horiz-adv-x="561" 
d="M469 -90h-494l15 86l254 283l-146 272l17 99h457l-22 -125h-282l-1 -3l132 -240l-216 -243l-1 -4h309z" />
    <glyph glyph-name="Delta" unicode="&#x2206;" horiz-adv-x="615" 
d="M547 0h-548l15 76l291 576h182l75 -575zM175 122h239l-27 246c-5 44 -13 132 -15 168h-4c-14 -37 -45 -111 -67 -158z" />
    <glyph glyph-name="Omega" unicode="&#x2126;" horiz-adv-x="721" 
d="M137 110l1 5c-42 41 -85 117 -85 208c0 206 164 362 367 362c184 0 285 -126 285 -264c0 -149 -93 -256 -165 -306v-5h121l-19 -110h-288l15 88c84 54 182 159 182 318c0 94 -51 162 -144 162c-112 0 -203 -114 -203 -277c0 -89 34 -163 85 -203l-15 -88h-288l20 110h131
z" />
    <glyph glyph-name="pi" unicode="&#x3c0;" horiz-adv-x="573" 
d="M570 378h-61l-41 -220c-13 -71 -20 -127 -18 -158h-138c-8 18 -2 81 11 149l42 229h-101c-7 -28 -13 -58 -20 -89c-30 -119 -72 -241 -108 -289h-138c39 65 79 179 106 286c9 33 15 65 20 92c-32 0 -65 -1 -91 -8l-2 83c24 24 72 37 176 37h388z" />
    <glyph glyph-name="aringacute" unicode="&#x1fb;" horiz-adv-x="554" 
d="M466 0h-132c1 29 4 62 6 97h-3c-45 -81 -107 -108 -164 -108c-88 0 -148 68 -148 170c0 165 110 341 350 341c59 0 121 -11 162 -24l-51 -256c-12 -63 -22 -159 -20 -220zM353 274l22 113c-11 2 -25 4 -39 4c-93 0 -161 -114 -161 -205c0 -48 19 -81 59 -81
c43 0 96 49 119 169zM447 861h143l-156 -115h-107zM383 722c58 0 107 -32 107 -94c-2 -66 -57 -103 -124 -103c-57 0 -104 34 -106 90c-2 65 51 107 123 107zM376 672c-28 0 -47 -23 -47 -52c0 -24 15 -45 43 -45c30 0 49 24 49 51c0 26 -15 46 -45 46z" />
    <glyph glyph-name="Abreve" unicode="&#x102;" horiz-adv-x="618" 
d="M399 175h-194l-79 -175h-154l328 674h185l79 -674h-152zM247 285h146l-14 145c-2 37 -6 91 -9 132h-2c-17 -41 -36 -93 -54 -132zM277 845h80c0 -25 14 -49 53 -49c41 0 60 22 66 49h82c-12 -68 -58 -122 -156 -122s-133 54 -125 122z" />
    <glyph glyph-name="Amacron" unicode="&#x100;" horiz-adv-x="618" 
d="M399 175h-194l-79 -175h-154l328 674h185l79 -674h-152zM247 285h146l-14 145c-2 37 -6 91 -9 132h-2c-17 -41 -36 -93 -54 -132zM289 813h254l-15 -79h-254z" />
    <glyph glyph-name="Aogonek" unicode="&#x104;" horiz-adv-x="618" 
d="M485 674l78 -674h-71c-19 -26 -36 -60 -36 -85c0 -24 15 -40 42 -40c18 0 36 5 47 9l9 -70c-28 -23 -69 -33 -105 -33c-62 0 -98 32 -98 89c0 51 39 105 61 132l-13 173h-194l-79 -175h-154l328 674h185zM247 285h146l-14 145c-2 37 -6 91 -9 132h-2
c-17 -41 -36 -93 -54 -132z" />
    <glyph glyph-name="i.dot" horiz-adv-x="265" 
d="M157 0h-144l93 489h144zM197 550h-2c-40 0 -69 28 -69 70c0 49 39 82 83 82c43 0 73 -28 73 -71c0 -51 -39 -81 -85 -81z" />
    <glyph glyph-name="Cacute" unicode="&#x106;" horiz-adv-x="583" 
d="M512 135l12 -116c-36 -16 -96 -29 -177 -29c-179 0 -298 109 -298 286c0 151 68 269 170 337c70 48 152 71 247 71c73 0 128 -17 148 -28l-40 -117c-19 9 -64 22 -122 22s-113 -18 -154 -52c-56 -47 -93 -123 -93 -217c0 -107 61 -179 179 -179c48 0 95 8 128 22z
M444 840h160l-132 -126h-122z" />
    <glyph glyph-name="Ccaron" unicode="&#x10c;" horiz-adv-x="583" 
d="M512 135l12 -116c-36 -16 -96 -29 -177 -29c-179 0 -298 109 -298 286c0 151 68 269 170 337c70 48 152 71 247 71c73 0 128 -17 148 -28l-40 -117c-19 9 -64 22 -122 22s-113 -18 -154 -52c-56 -47 -93 -123 -93 -217c0 -107 61 -179 179 -179c48 0 95 8 128 22z
M474 714h-109l-80 126h102l39 -64h2l59 64h111z" />
    <glyph glyph-name="Ccircumflex" unicode="&#x108;" horiz-adv-x="583" 
d="M512 135l12 -116c-36 -16 -96 -29 -177 -29c-179 0 -298 109 -298 286c0 151 68 269 170 337c70 48 152 71 247 71c73 0 128 -17 148 -28l-40 -117c-19 9 -64 22 -122 22s-113 -18 -154 -52c-56 -47 -93 -123 -93 -217c0 -107 61 -179 179 -179c48 0 95 8 128 22z
M388 839h109l80 -126h-101l-40 61h-2l-58 -61h-111z" />
    <glyph glyph-name="Cdotaccent" unicode="&#x10a;" horiz-adv-x="583" 
d="M513 135l12 -116c-36 -16 -97 -29 -178 -29c-179 0 -298 109 -298 286c0 151 68 269 170 337c70 48 153 71 248 71c73 0 128 -17 148 -28l-40 -117c-20 9 -64 22 -122 22s-114 -18 -155 -52c-56 -47 -93 -123 -93 -217c0 -107 61 -179 180 -179c47 0 94 8 128 22z
M439 715c-35 0 -66 26 -66 64c0 44 34 74 75 74c39 0 65 -29 65 -65c0 -44 -34 -73 -74 -73z" />
    <glyph glyph-name="Dcaron" unicode="&#x10e;" horiz-adv-x="681" 
d="M20 8l125 656c58 10 121 15 187 15c105 0 188 -24 245 -73c55 -45 89 -111 89 -211c0 -131 -55 -243 -138 -310c-78 -63 -177 -90 -323 -90c-81 0 -151 7 -185 13zM271 559l-85 -444c17 -2 38 -3 63 -3c78 0 147 27 191 78c46 52 70 123 70 204c0 107 -59 170 -178 170
c-25 0 -46 -2 -61 -5zM432 710h-109l-80 126h102l39 -64h2l59 64h111z" />
    <glyph glyph-name="Ebreve" unicode="&#x114;" horiz-adv-x="517" 
d="M480 407l-23 -121h-240l-31 -163h269l-23 -123h-413l128 674h398l-24 -123h-253l-28 -144h240zM227 839h80c-1 -26 13 -50 53 -49c41 0 59 22 65 49h82c-12 -69 -58 -123 -155 -122c-98 0 -133 54 -125 122z" />
    <glyph glyph-name="Ecaron" unicode="&#x11a;" horiz-adv-x="517" 
d="M481 407l-24 -121h-239l-31 -163h269l-24 -123h-413l128 674h399l-24 -123h-254l-28 -144h241zM406 710h-109l-80 126h102l39 -64h2l59 64h111z" />
    <glyph glyph-name="Edotaccent" unicode="&#x116;" horiz-adv-x="517" 
d="M480 407l-23 -121h-240l-31 -163h270l-24 -123h-413l127 674h400l-24 -123h-254l-28 -144h240zM357 712c-35 0 -66 26 -66 64c0 44 34 74 75 74c39 0 65 -29 65 -65c0 -44 -34 -73 -74 -73z" />
    <glyph glyph-name="Emacron" unicode="&#x112;" horiz-adv-x="517" 
d="M481 407l-24 -121h-239l-31 -163h269l-23 -123h-414l128 674h399l-24 -123h-254l-28 -144h241zM242 813h254l-16 -79h-254z" />
    <glyph glyph-name="Eogonek" unicode="&#x118;" horiz-adv-x="517" 
d="M19 0l128 674h399l-24 -123h-254l-28 -144h241l-24 -121h-239l-31 -163h269l-24 -123h-19c-45 -31 -75 -68 -75 -97c0 -19 12 -29 28 -29c17 0 36 6 46 10l18 -71c-30 -22 -70 -32 -107 -32c-60 0 -93 34 -93 82c0 52 41 104 87 137h-298z" />
    <glyph glyph-name="Gbreve" unicode="&#x11e;" horiz-adv-x="673" 
d="M643 384l-68 -353c-51 -17 -133 -38 -218 -38c-92 0 -169 24 -224 74c-54 47 -85 122 -85 208c0 126 51 235 137 308c76 63 181 98 298 98c87 0 152 -17 178 -30l-43 -121c-30 14 -83 27 -143 27c-67 0 -126 -19 -171 -54c-59 -46 -98 -126 -98 -218
c0 -113 67 -170 173 -170c34 0 57 5 74 12l27 142h-105l23 115h245zM320 841h80c-1 -25 13 -49 53 -49c41 0 60 22 66 49h81c-11 -68 -57 -122 -155 -122s-133 54 -125 122z" />
    <glyph glyph-name="Gcircumflex" unicode="&#x11c;" horiz-adv-x="673" 
d="M643 384l-68 -353c-51 -17 -133 -38 -218 -38c-92 0 -169 24 -224 74c-54 47 -85 122 -85 208c0 126 51 235 137 308c76 63 181 98 298 98c87 0 152 -17 178 -30l-43 -121c-30 14 -83 27 -143 27c-67 0 -126 -19 -171 -54c-59 -46 -98 -126 -98 -218
c0 -113 67 -170 173 -170c34 0 57 5 74 12l27 142h-105l23 115h245zM421 836h109l80 -126h-101l-40 61h-2l-59 -61h-111z" />
    <glyph glyph-name="Gcommaaccent" unicode="&#x122;" horiz-adv-x="673" 
d="M643 384l-68 -353c-51 -17 -133 -38 -218 -38c-92 0 -169 24 -224 74c-54 47 -85 122 -85 208c0 126 51 235 137 308c76 63 181 98 298 98c87 0 152 -17 178 -30l-43 -121c-30 14 -83 27 -143 27c-67 0 -126 -19 -171 -54c-59 -46 -98 -126 -98 -218
c0 -113 67 -170 173 -170c34 0 57 5 74 12l27 142h-105l23 115h245zM229 -240l-14 66c35 6 77 27 77 68c0 20 -9 37 -20 47l107 18c12 -10 26 -34 26 -63c0 -93 -95 -133 -176 -136z" />
    <glyph glyph-name="Gdotaccent" unicode="&#x120;" horiz-adv-x="673" 
d="M643 384l-67 -353c-52 -17 -133 -38 -219 -38c-92 0 -169 24 -224 74c-54 47 -85 122 -85 208c0 126 51 235 137 308c77 63 181 98 298 98c88 0 153 -17 179 -30l-43 -121c-30 14 -83 27 -143 27c-67 0 -127 -19 -172 -54c-59 -46 -98 -126 -98 -218
c0 -113 67 -170 174 -170c33 0 57 5 73 12l27 142h-105l23 115h245zM464 712c-35 0 -66 26 -66 64c0 44 34 74 75 74c39 0 65 -29 65 -65c0 -44 -34 -73 -74 -73z" />
    <glyph glyph-name="G_tildecomb" unicode="&#xe000;" horiz-adv-x="673" 
d="M642 384l-66 -353c-52 -17 -133 -38 -219 -38c-92 0 -169 24 -224 74c-54 47 -85 122 -85 208c0 126 51 235 137 308c76 63 181 98 298 98c88 0 152 -17 178 -30l-43 -121c-30 14 -82 27 -142 27c-67 0 -127 -19 -172 -54c-59 -46 -98 -126 -98 -218
c0 -113 67 -170 173 -170c34 0 57 5 74 12l27 142h-105l23 115h244zM360 716h-71c13 84 52 125 99 125c28 0 46 -9 63 -20c15 -10 28 -19 41 -19c16 0 25 11 34 43h69c-14 -88 -48 -123 -100 -123c-29 0 -48 9 -64 19s-26 18 -40 18c-13 0 -24 -14 -31 -43z" />
    <glyph glyph-name="Hcircumflex" unicode="&#x124;" horiz-adv-x="666" 
d="M147 674h144l-50 -263h244l50 263h145l-128 -674h-144l53 283h-245l-53 -283h-144zM388 836h109l80 -126h-101l-40 61h-2l-59 -61h-111z" />
    <glyph glyph-name="Ibreve" unicode="&#x12c;" horiz-adv-x="274" 
d="M144 674h144l-128 -674h-144zM105 842h80c0 -25 14 -49 53 -49c41 0 60 22 66 49h82c-12 -68 -58 -122 -156 -122s-133 54 -125 122z" />
    <glyph glyph-name="Idotaccent" unicode="&#x130;" horiz-adv-x="274" 
d="M143 674h144l-128 -674h-144zM235 712c-35 0 -66 26 -66 64c0 44 34 74 75 74c39 0 65 -29 65 -65c0 -44 -34 -73 -74 -73z" />
    <glyph glyph-name="Imacron" unicode="&#x12a;" horiz-adv-x="274" 
d="M144 674h143l-127 -674h-144zM117 813h254l-16 -79h-253z" />
    <glyph glyph-name="Iogonek" unicode="&#x12e;" horiz-adv-x="274" 
d="M288 674l-128 -674h-63c-19 -25 -36 -60 -36 -85c0 -24 15 -40 42 -40c18 0 36 5 47 9l9 -70c-28 -23 -69 -33 -105 -33c-62 0 -98 32 -98 89c0 51 39 105 61 132l127 672h144z" />
    <glyph glyph-name="Itilde" unicode="&#x128;" horiz-adv-x="274" 
d="M143 674h144l-128 -674h-144zM152 713h-71c13 85 52 126 99 126c28 0 46 -9 63 -20c15 -10 28 -19 41 -19c16 0 25 11 34 43h69c-14 -88 -48 -123 -100 -123c-29 0 -48 9 -64 19s-26 18 -40 18c-13 0 -24 -14 -31 -44z" />
    <glyph glyph-name="Jcircumflex" unicode="&#x134;" horiz-adv-x="399" 
d="M194 247l81 427h144l-85 -445c-33 -171 -106 -240 -259 -240c-42 0 -89 7 -111 16l28 123c21 -7 48 -12 80 -12c63 0 103 31 122 131zM319 836h109l80 -126h-101l-41 61h-2l-58 -61h-111z" />
    <glyph glyph-name="Kcommaaccent" unicode="&#x136;" horiz-adv-x="590" 
d="M19 0l127 674h142l-57 -301h3c21 29 41 53 61 77l187 224h180l-273 -291l156 -383h-157l-113 293l-71 -68l-43 -225h-142zM150 -240l-15 66c35 6 77 27 77 68c0 20 -9 37 -20 48l107 17c12 -10 26 -34 26 -63c0 -93 -95 -133 -175 -136z" />
    <glyph glyph-name="Lacute" unicode="&#x139;" horiz-adv-x="487" 
d="M19 0l128 674h144l-104 -548h259l-23 -126h-404zM271 836h160l-132 -126h-123z" />
    <glyph glyph-name="Lcaron" unicode="&#x13d;" horiz-adv-x="487" 
d="M19 0l128 674h144l-104 -548h259l-23 -126h-404zM331 480l-15 66c35 6 77 27 77 68c0 19 -9 36 -20 47l107 18c12 -11 26 -35 26 -63c0 -93 -95 -133 -175 -136z" />
    <glyph glyph-name="Lcommaaccent" unicode="&#x13b;" horiz-adv-x="487" 
d="M18 0l128 674h144l-104 -548h259l-23 -126h-404zM105 -240l-15 66c35 6 77 27 77 68c0 20 -9 37 -20 48l107 17c12 -10 26 -34 26 -63c0 -93 -95 -133 -175 -136z" />
    <glyph glyph-name="Ldot" unicode="&#x13f;" horiz-adv-x="490" 
d="M19 0l128 674h144l-104 -548h259l-24 -126h-403zM387 308c-35 0 -66 25 -66 64c0 43 34 74 75 74c39 0 65 -30 65 -65c0 -44 -34 -73 -74 -73z" />
    <glyph glyph-name="M_uni0302" unicode="&#xe001;" horiz-adv-x="821" 
d="M722 0h-140l41 278c11 73 26 166 45 263h-3c-37 -87 -79 -180 -116 -254l-138 -276h-112l-24 273c-6 74 -11 167 -15 257h-2c-19 -89 -39 -190 -56 -263l-67 -278h-132l169 674h193l21 -256c4 -63 11 -140 12 -215h4c26 75 62 154 91 215l125 256h195zM465 836h109
l80 -126h-101l-41 61h-2l-58 -61h-111z" />
    <glyph glyph-name="Nacute" unicode="&#x143;" horiz-adv-x="666" 
d="M153 0h-134l128 674h169l89 -257c27 -86 45 -156 61 -230h3c3 69 13 143 31 242l46 245h135l-128 -674h-149l-94 269c-30 91 -48 153 -66 235h-3c-7 -66 -23 -162 -43 -268zM435 836h160l-132 -126h-122z" />
    <glyph glyph-name="Ncaron" unicode="&#x147;" horiz-adv-x="666" 
d="M153 0h-134l128 674h169l89 -257c27 -86 45 -156 61 -230h3c3 69 13 143 31 242l46 245h135l-128 -674h-149l-94 269c-30 91 -48 153 -66 235h-3c-7 -66 -23 -162 -43 -268zM478 710h-109l-80 126h101l40 -64h2l59 64h111z" />
    <glyph glyph-name="N_uni0302" unicode="&#xe002;" horiz-adv-x="666" 
d="M153 0h-134l128 674h169l89 -257c27 -86 45 -156 61 -230h3c3 69 13 143 31 242l46 245h135l-128 -674h-149l-94 269c-30 91 -48 153 -66 235h-3c-7 -66 -23 -162 -43 -268zM388 836h109l80 -126h-101l-41 61h-2l-58 -61h-111z" />
    <glyph glyph-name="Ncommaaccent" unicode="&#x145;" horiz-adv-x="666" 
d="M153 0h-134l127 674h169l89 -257c28 -86 46 -156 62 -230h2c3 69 13 143 31 242l47 245h134l-127 -674h-149l-94 269c-30 91 -49 153 -66 235h-4c-7 -66 -23 -162 -43 -268zM191 -240l-15 66c35 6 77 27 77 68c0 20 -9 37 -20 48l107 17c12 -10 26 -34 26 -63
c0 -93 -95 -133 -175 -136z" />
    <glyph glyph-name="Obreve" unicode="&#x14e;" horiz-adv-x="705" 
d="M321 -11c-175 0 -273 124 -273 281c0 122 45 243 124 319c63 60 149 96 246 96c178 0 272 -120 272 -281c0 -123 -43 -243 -120 -318c-63 -61 -148 -97 -249 -97zM342 109c43 0 82 18 113 49c53 53 82 164 82 242c0 84 -30 165 -136 165c-45 0 -85 -19 -116 -51
c-54 -53 -84 -158 -84 -239c0 -95 43 -166 141 -166zM312 843h80c0 -25 14 -49 53 -49c41 0 60 22 66 49h82c-12 -68 -58 -122 -156 -122s-133 54 -125 122z" />
    <glyph glyph-name="Ohungarumlaut" unicode="&#x150;" horiz-adv-x="705" 
d="M321 -11c-175 0 -273 124 -273 281c0 122 45 243 124 319c63 60 149 96 246 96c178 0 272 -120 272 -281c0 -123 -43 -243 -120 -318c-63 -61 -148 -97 -249 -97zM342 109c43 0 82 18 113 49c53 53 82 164 82 242c0 84 -30 165 -136 165c-45 0 -85 -19 -116 -51
c-54 -53 -84 -158 -84 -239c0 -95 43 -166 141 -166zM365 837h141l-121 -119h-106zM548 837h140l-121 -119h-105z" />
    <glyph glyph-name="Omacron" unicode="&#x14c;" horiz-adv-x="705" 
d="M321 -11c-175 0 -273 124 -273 281c0 122 45 243 124 319c63 60 149 96 246 96c178 0 272 -120 272 -281c0 -123 -43 -243 -120 -318c-63 -61 -148 -97 -249 -97zM342 109c43 0 82 18 113 49c53 53 82 164 82 242c0 84 -30 165 -136 165c-45 0 -85 -19 -116 -51
c-54 -53 -84 -158 -84 -239c0 -95 43 -166 141 -166zM324 813h254l-16 -79h-253z" />
    <glyph glyph-name="Oslashacute" unicode="&#x1fe;" horiz-adv-x="702" 
d="M101 -66l-68 64l72 86c-37 47 -59 109 -59 193c0 121 45 233 122 309c64 63 150 99 242 99c66 0 116 -13 158 -42l73 88l73 -58l-77 -93c31 -42 51 -101 51 -182c1 -120 -45 -235 -118 -310c-63 -62 -152 -99 -243 -99c-61 0 -108 13 -147 38zM207 207l275 333
c-19 17 -44 26 -80 26c-90 0 -162 -77 -192 -169c-20 -60 -24 -128 -6 -190h3zM531 453l-267 -323c19 -15 42 -22 75 -22c85 0 152 69 183 160c19 56 25 119 12 185h-3zM451 840h160l-132 -126h-122z" />
    <glyph glyph-name="Racute" unicode="&#x154;" horiz-adv-x="583" 
d="M20 0l126 662c45 11 113 17 180 17c64 0 130 -9 177 -39c44 -26 75 -69 75 -131c0 -100 -66 -163 -153 -191v-3c40 -18 58 -62 64 -123c9 -76 14 -164 26 -192h-148c-6 18 -13 76 -19 159c-7 82 -35 107 -92 107h-44l-50 -266h-142zM269 561l-35 -187h59
c78 0 135 47 135 113c0 55 -45 79 -103 79c-27 0 -44 -2 -56 -5zM370 836h160l-132 -126h-122z" />
    <glyph glyph-name="Rcaron" unicode="&#x158;" horiz-adv-x="583" 
d="M20 0l126 662c45 11 113 17 180 17c64 0 130 -9 177 -39c44 -26 75 -69 75 -131c0 -100 -66 -163 -153 -191v-3c40 -18 58 -62 64 -123c9 -76 14 -164 26 -192h-148c-6 18 -13 76 -19 159c-7 82 -35 107 -92 107h-44l-50 -266h-142zM269 561l-35 -187h59
c78 0 135 47 135 113c0 55 -45 79 -103 79c-27 0 -44 -2 -56 -5zM404 710h-109l-80 126h102l39 -64h2l59 64h111z" />
    <glyph glyph-name="Rcommaaccent" unicode="&#x156;" horiz-adv-x="583" 
d="M19 0l126 662c45 11 114 17 181 17c64 0 130 -9 177 -39c44 -26 75 -69 75 -131c0 -100 -66 -163 -153 -191v-3c40 -18 58 -62 64 -123c9 -76 14 -164 26 -192h-149c-5 18 -12 76 -19 159c-6 82 -34 107 -91 107h-44l-50 -266h-143zM268 561l-35 -187h59
c79 0 136 47 136 113c0 55 -46 79 -103 79c-27 0 -44 -2 -57 -5zM147 -240l-15 66c35 6 77 27 77 68c0 20 -9 37 -20 48l107 17c12 -10 26 -34 26 -63c0 -93 -95 -133 -175 -136z" />
    <glyph glyph-name="Sacute" unicode="&#x15a;" horiz-adv-x="510" 
d="M0 37l48 119c40 -24 97 -43 159 -43c56 0 107 26 107 78c0 39 -29 63 -91 96c-71 38 -139 91 -139 178c0 137 118 219 265 219c82 0 130 -18 159 -33l-45 -120c-22 12 -70 30 -125 29c-68 0 -103 -33 -103 -70c0 -39 41 -64 98 -96c82 -42 134 -97 134 -178
c0 -150 -124 -227 -274 -227c-94 1 -161 25 -193 48zM354 836h160l-132 -126h-122z" />
    <glyph glyph-name="Scedilla" unicode="&#x15e;" horiz-adv-x="510" 
d="M508 651l-45 -120c-22 12 -70 30 -125 29c-68 0 -103 -33 -103 -70c0 -39 41 -63 98 -95c82 -43 134 -97 134 -178c0 -124 -85 -200 -202 -221l-27 -39c35 -8 61 -33 61 -68c0 -70 -70 -95 -126 -95c-33 0 -62 9 -78 21l25 57c16 -10 36 -16 53 -16c18 0 37 8 37 28
c0 18 -18 32 -72 36l46 70h-7c-48 0 -134 16 -177 48l48 118c40 -23 97 -42 159 -42c56 0 107 26 107 78c0 39 -29 63 -91 96c-71 38 -139 90 -139 177c0 137 118 219 265 219c82 0 130 -18 159 -33z" />
    <glyph glyph-name="Scircumflex" unicode="&#x15c;" horiz-adv-x="510" 
d="M0 37l48 119c40 -24 97 -43 159 -43c56 0 107 26 107 78c0 39 -29 63 -91 96c-71 38 -139 91 -139 178c0 137 118 219 265 219c82 0 130 -18 159 -33l-45 -120c-22 12 -70 30 -125 29c-68 0 -103 -33 -103 -70c0 -39 41 -64 98 -96c82 -42 134 -97 134 -178
c0 -150 -124 -227 -274 -227c-94 1 -161 25 -193 48zM310 836h109l80 -126h-101l-40 61h-2l-59 -61h-111z" />
    <glyph glyph-name="Scommaaccent" unicode="&#x218;" horiz-adv-x="510" 
d="M0 37l48 119c40 -24 97 -43 159 -43c56 0 107 26 107 78c0 39 -29 63 -91 96c-71 38 -139 91 -139 178c0 137 118 219 265 219c82 0 130 -18 159 -33l-45 -120c-22 12 -70 30 -125 29c-68 0 -103 -33 -103 -70c0 -39 41 -64 98 -96c82 -42 134 -97 134 -178
c0 -150 -124 -227 -274 -227c-94 1 -161 25 -193 48zM110 -240l-15 66c35 6 77 27 77 68c0 19 -9 36 -20 47l107 18c12 -11 26 -35 26 -63c0 -93 -95 -133 -175 -136z" />
    <glyph glyph-name="Tcaron" unicode="&#x164;" horiz-adv-x="527" 
d="M141 0l104 548h-178l25 126h501l-24 -126h-180l-104 -548h-144zM403 710h-109l-80 126h101l40 -64h2l59 64h111z" />
    <glyph glyph-name="Tcommaaccent" unicode="&#x162;" horiz-adv-x="527" 
d="M142 0l103 548h-178l25 126h502l-25 -126h-180l-103 -548h-144zM110 -240l-15 66c35 6 77 27 77 68c0 20 -9 37 -20 48l107 17c12 -10 26 -34 26 -63c0 -93 -95 -133 -175 -136z" />
    <glyph glyph-name="Ubreve" unicode="&#x16c;" horiz-adv-x="655" 
d="M144 674h144l-73 -388c-5 -23 -8 -50 -8 -79c0 -55 34 -97 98 -97c76 0 125 50 149 175l74 389h144l-73 -383c-39 -204 -128 -302 -312 -302c-139 -1 -224 72 -224 215c0 29 4 62 10 94zM295 836h80c0 -25 14 -49 53 -49c41 0 60 22 66 49h82c-12 -68 -58 -122 -156 -122
s-133 54 -125 122z" />
    <glyph glyph-name="Uhungarumlaut" unicode="&#x170;" horiz-adv-x="655" 
d="M144 674h144l-73 -388c-5 -23 -8 -50 -8 -79c0 -55 34 -97 98 -97c76 0 125 50 149 175l74 389h144l-73 -383c-39 -204 -128 -302 -312 -302c-139 -1 -224 72 -224 215c0 29 4 62 10 94zM341 837h141l-121 -119h-106zM524 837h140l-121 -119h-105z" />
    <glyph glyph-name="Umacron" unicode="&#x16a;" horiz-adv-x="655" 
d="M144 674h144l-73 -388c-5 -23 -8 -50 -8 -79c0 -55 34 -97 98 -97c76 0 125 50 149 175l74 389h144l-73 -383c-39 -204 -128 -302 -312 -302c-139 -1 -224 72 -224 215c0 29 4 62 10 94zM308 813h254l-16 -79h-254z" />
    <glyph glyph-name="Uogonek" unicode="&#x172;" horiz-adv-x="655" 
d="M384 -114l17 -72c-29 -20 -67 -28 -106 -28c-58 0 -93 31 -93 84c0 41 29 86 70 121h-18c-117 9 -191 81 -191 213c0 29 4 62 10 95l71 375h144l-73 -387c-5 -24 -8 -51 -8 -80c0 -55 34 -97 97 -97c76 0 125 50 149 175l74 389h144l-72 -383
c-29 -149 -84 -242 -186 -280c-18 -7 -32 -15 -48 -26c-35 -24 -55 -58 -55 -79c0 -17 12 -27 28 -27c17 0 36 5 46 7z" />
    <glyph glyph-name="Uring" unicode="&#x16e;" horiz-adv-x="655" 
d="M144 674h144l-73 -388c-5 -23 -8 -50 -8 -79c0 -55 34 -97 98 -97c76 0 125 50 149 175l74 389h144l-73 -383c-39 -204 -128 -302 -312 -302c-139 -1 -224 72 -224 215c0 29 4 62 10 94zM428 887c60 0 108 -31 108 -91c-2 -64 -55 -101 -124 -101c-58 0 -105 34 -107 87
c-2 63 51 105 123 105zM422 838c-28 0 -46 -22 -46 -51c0 -24 15 -43 41 -43c29 0 48 22 48 48s-15 46 -43 46z" />
    <glyph glyph-name="Utilde" unicode="&#x168;" horiz-adv-x="655" 
d="M144 674h144l-73 -388c-5 -23 -8 -50 -8 -79c0 -55 34 -97 98 -97c75 0 125 50 149 175l74 389h144l-73 -383c-39 -204 -128 -302 -312 -302c-139 -1 -224 72 -224 215c0 29 4 62 10 94zM352 715h-71c13 85 52 126 99 126c28 0 46 -9 63 -20c15 -10 28 -19 41 -19
c16 0 25 11 34 43h69c-14 -88 -48 -123 -100 -123c-29 0 -48 9 -64 19s-26 18 -40 18c-13 0 -24 -14 -31 -44z" />
    <glyph glyph-name="Wacute" unicode="&#x1e82;" horiz-adv-x="864" 
d="M278 0h-160l-26 674h146v-300c0 -81 -2 -158 -4 -218h2c24 66 48 134 80 216l120 302h158l-2 -301c0 -81 -3 -148 -6 -214h2c23 70 48 143 74 215l117 300h151l-297 -674h-156l-5 277c-1 79 1 147 6 223h-2c-25 -72 -48 -144 -82 -227zM540 836h160l-132 -126h-122z" />
    <glyph glyph-name="Wcircumflex" unicode="&#x174;" horiz-adv-x="864" 
d="M278 0h-160l-26 674h146v-300c0 -81 -2 -158 -4 -218h2c24 66 48 134 80 216l120 302h158l-2 -301c0 -81 -3 -148 -6 -214h2c23 70 48 143 74 215l117 300h151l-297 -674h-156l-5 277c-1 79 1 147 6 223h-2c-25 -72 -48 -144 -82 -227zM487 836h109l80 -126h-101l-40 61
h-2l-58 -61h-112z" />
    <glyph glyph-name="Wdieresis" unicode="&#x1e84;" horiz-adv-x="864" 
d="M278 0h-160l-26 674h146v-300c0 -81 -2 -158 -4 -218h2c24 66 48 134 80 216l120 302h158l-2 -301c0 -81 -3 -148 -6 -214h2c23 70 48 143 74 215l117 300h151l-297 -674h-156l-5 277c-1 79 1 147 6 223h-2c-25 -72 -48 -144 -82 -227zM426 711h-2c-33 0 -64 25 -64 64
c0 43 33 73 73 73c38 0 64 -29 64 -64c0 -44 -34 -73 -71 -73zM632 711c-33 0 -64 25 -64 64c0 43 33 73 73 73c38 0 64 -29 64 -64c0 -44 -34 -73 -73 -73z" />
    <glyph glyph-name="Wgrave" unicode="&#x1e80;" horiz-adv-x="864" 
d="M278 0h-160l-26 674h146v-300c0 -81 -2 -158 -4 -218h2c24 66 48 134 80 216l120 302h158l-2 -301c0 -81 -3 -148 -6 -214h2c23 70 48 143 74 215l117 300h151l-297 -674h-156l-5 277c-1 79 1 147 6 223h-2c-25 -72 -48 -144 -82 -227zM346 837h157l77 -125h-119z" />
    <glyph glyph-name="Ycircumflex" unicode="&#x176;" horiz-adv-x="570" 
d="M295 0h-144l52 275l-132 399h154l43 -171c13 -56 20 -88 26 -122h2c20 36 41 74 69 123l101 170h172l-291 -396zM323 836h109l80 -126h-101l-40 61h-2l-59 -61h-111z" />
    <glyph glyph-name="Ygrave" unicode="&#x1ef2;" horiz-adv-x="570" 
d="M295 0h-144l52 275l-132 399h154l43 -171c13 -56 20 -88 26 -122h2c20 36 41 74 69 123l101 170h172l-291 -396zM197 837h158l77 -125h-120z" />
    <glyph glyph-name="uni0232" unicode="&#x232;" horiz-adv-x="570" 
d="M295 0h-144l52 275l-132 399h154l43 -171c13 -56 20 -88 26 -122h2c20 36 41 74 69 123l101 170h172l-291 -396zM266 813h253l-16 -79h-253z" />
    <glyph glyph-name="Zacute" unicode="&#x179;" horiz-adv-x="553" 
d="M-25 0l15 83l391 464v3h-274l25 124h467l-17 -89l-384 -458v-3h302l-24 -124h-501zM382 836h160l-132 -126h-122z" />
    <glyph glyph-name="Zdotaccent" unicode="&#x17b;" horiz-adv-x="553" 
d="M-25 0l15 83l391 464v3h-274l24 124h468l-17 -89l-384 -458v-3h302l-24 -124h-501zM368 712c-35 0 -66 26 -66 64c0 44 34 74 75 74c39 0 65 -29 65 -65c0 -44 -34 -73 -74 -73z" />
    <glyph glyph-name="AEacute" unicode="&#x1fc;" horiz-adv-x="845" 
d="M106 0h-154l413 674h484l-23 -123h-256l-12 -147h243l-23 -121h-225l-12 -160h254l-23 -123h-378l14 185h-194zM282 304h132l14 165c2 31 5 65 8 98h-4c-17 -33 -36 -70 -53 -99zM564 836h160l-132 -126h-122z" />
    <glyph glyph-name="abreve" unicode="&#x103;" horiz-adv-x="554" 
d="M466 0h-132c1 29 4 62 6 97h-2c-45 -81 -108 -108 -165 -108c-88 0 -148 68 -148 170c0 165 110 341 350 341c59 0 121 -11 162 -24l-51 -256c-12 -63 -22 -159 -20 -220zM353 274l22 113c-11 2 -24 4 -39 4c-93 0 -161 -114 -161 -205c0 -48 19 -81 59 -81
c43 0 96 49 119 169zM232 690h73c1 -31 12 -56 47 -56c40 0 58 28 65 56h75c-13 -78 -61 -130 -147 -130c-92 0 -122 57 -113 130z" />
    <glyph glyph-name="amacron" unicode="&#x101;" horiz-adv-x="554" 
d="M466 0h-132c1 29 4 62 6 97h-2c-45 -81 -108 -108 -165 -108c-88 0 -148 68 -148 170c0 165 110 341 350 341c59 0 121 -11 162 -24l-51 -256c-12 -63 -22 -159 -20 -220zM353 274l22 113c-11 2 -24 4 -39 4c-93 0 -161 -114 -161 -205c0 -48 19 -81 59 -81
c43 0 96 49 119 169zM243 662h246l-15 -78h-247z" />
    <glyph glyph-name="aogonek" unicode="&#x105;" horiz-adv-x="554" 
d="M538 476l-49 -256c-12 -63 -22 -159 -20 -220h-41c-25 -25 -48 -63 -48 -91c0 -20 14 -34 38 -34c21 0 40 5 51 9l9 -70c-28 -23 -69 -33 -105 -33c-62 0 -98 32 -98 89c0 51 39 105 62 132c1 28 4 61 6 95h-2c-47 -81 -110 -108 -167 -108c-88 0 -148 68 -148 170
c0 165 110 341 351 341c58 0 121 -11 161 -24zM355 274l20 113c-11 2 -23 4 -38 4c-93 0 -161 -114 -161 -205c0 -48 19 -81 59 -81c43 0 98 49 120 169z" />
    <glyph glyph-name="a.superior" horiz-adv-x="400" 
d="M369 268h-96c0 16 0 34 1 51h-1c-29 -40 -68 -58 -111 -58c-57 0 -101 42 -101 118c0 107 70 212 227 212c49 0 98 -12 123 -22l-35 -201c-6 -38 -7 -77 -7 -100zM281 407l17 103c-11 4 -22 6 -35 6c-58 0 -95 -63 -95 -117c0 -34 15 -57 45 -57s58 30 68 65z" />
    <glyph glyph-name="cacute" unicode="&#x107;" horiz-adv-x="435" 
d="M373 125l1 -109c-31 -15 -81 -26 -139 -26c-121 0 -206 74 -206 200c0 174 133 310 319 310c42 0 78 -8 100 -16l-36 -111c-17 7 -37 12 -66 12c-102 0 -166 -87 -166 -179c0 -67 43 -101 96 -101c42 0 72 10 97 20zM335 700h142l-130 -152h-106z" />
    <glyph glyph-name="ccaron" unicode="&#x10d;" horiz-adv-x="435" 
d="M373 125l1 -109c-31 -15 -81 -26 -139 -26c-121 0 -206 74 -206 200c0 174 133 310 319 310c42 0 78 -8 100 -16l-36 -111c-17 7 -37 12 -66 12c-102 0 -166 -87 -166 -179c0 -67 43 -101 96 -101c42 0 72 10 97 20zM354 548h-99l-75 152h93l40 -79h2l59 79h101z" />
    <glyph glyph-name="ccircumflex" unicode="&#x109;" horiz-adv-x="435" 
d="M373 125l1 -109c-31 -15 -81 -26 -139 -26c-121 0 -206 74 -206 200c0 174 133 310 319 310c42 0 78 -8 100 -16l-36 -111c-17 7 -37 12 -66 12c-102 0 -166 -87 -166 -179c0 -67 43 -101 96 -101c42 0 72 10 97 20zM270 700h98l75 -152h-93l-40 79h-2l-58 -79h-102z" />
    <glyph glyph-name="cdotaccent" unicode="&#x10b;" horiz-adv-x="435" 
d="M372 125l1 -109c-31 -15 -80 -26 -138 -26c-121 0 -206 74 -206 200c0 174 133 310 319 310c41 0 77 -8 99 -16l-35 -111c-18 7 -38 12 -67 12c-102 0 -165 -87 -165 -179c0 -67 42 -101 95 -101c42 0 72 10 97 20zM317 553c-36 0 -67 26 -67 66c0 46 34 77 76 77
c41 0 67 -28 67 -67c0 -46 -34 -76 -76 -76z" />
    <glyph glyph-name="dcaron" unicode="&#x10f;" horiz-adv-x="568" 
d="M444 710h143l-99 -520c-12 -62 -21 -132 -23 -190h-132l7 79h-2c-43 -65 -103 -90 -161 -90c-83 0 -151 66 -151 185c0 170 123 327 308 327c20 0 46 -4 67 -12zM355 243l26 131c-12 10 -34 17 -57 17c-87 0 -148 -100 -148 -194c0 -59 26 -92 67 -92c42 0 93 44 112 138
zM636 503l-53 54c32 25 53 65 53 106c0 18 -4 32 -10 42l97 17c12 -12 22 -37 22 -62c0 -68 -56 -129 -109 -157z" />
    <glyph glyph-name="ebreve" unicode="&#x115;" horiz-adv-x="501" 
d="M412 132l10 -104c-57 -29 -128 -39 -183 -39c-139 0 -211 79 -211 207c0 149 108 304 285 304c99 0 170 -56 170 -147c0 -124 -121 -169 -318 -164c1 -14 6 -36 16 -50c19 -25 52 -38 94 -38c53 0 98 12 137 31zM348 354c0 24 -20 41 -53 41c-67 0 -106 -56 -116 -101
c113 -1 169 14 169 60zM204 690h73c2 -31 12 -56 47 -56c41 0 59 28 66 56h74c-12 -78 -61 -130 -146 -130c-93 0 -123 57 -114 130z" />
    <glyph glyph-name="ecaron" unicode="&#x11b;" horiz-adv-x="501" 
d="M412 132l10 -104c-57 -29 -128 -39 -183 -39c-139 0 -211 79 -211 207c0 149 108 304 285 304c99 0 170 -56 170 -147c0 -124 -121 -169 -318 -164c1 -14 6 -36 16 -50c19 -25 52 -38 94 -38c53 0 98 12 137 31zM348 354c0 24 -20 41 -53 41c-67 0 -106 -56 -116 -101
c113 -1 169 14 169 60zM363 548h-99l-75 152h93l40 -79h2l59 79h101z" />
    <glyph glyph-name="edotaccent" unicode="&#x117;" horiz-adv-x="501" 
d="M412 132l10 -104c-57 -29 -128 -39 -183 -39c-139 0 -211 79 -211 207c0 149 108 304 285 304c99 0 170 -56 170 -147c0 -124 -121 -169 -318 -164c1 -14 6 -36 16 -50c19 -25 52 -38 94 -38c53 0 98 12 137 31zM348 354c0 24 -20 41 -53 41c-67 0 -106 -56 -116 -101
c113 -1 169 14 169 60zM320 553c-36 0 -67 26 -67 66c0 46 34 77 76 77c41 0 67 -28 67 -67c0 -46 -34 -76 -76 -76z" />
    <glyph glyph-name="emacron" unicode="&#x113;" horiz-adv-x="501" 
d="M412 132l10 -104c-57 -29 -128 -39 -183 -39c-139 0 -211 79 -211 207c0 149 108 304 285 304c99 0 170 -56 170 -147c0 -124 -121 -169 -318 -164c1 -14 6 -36 16 -50c19 -25 52 -38 94 -38c53 0 98 12 137 31zM348 354c0 24 -20 41 -53 41c-67 0 -106 -56 -116 -101
c113 -1 169 14 169 60zM206 662h247l-15 -78h-247z" />
    <glyph glyph-name="eogonek" unicode="&#x119;" horiz-adv-x="501" 
d="M348 354c0 24 -20 41 -53 41c-67 0 -106 -56 -115 -101c111 -1 168 14 168 60zM348 -114l17 -71c-32 -22 -71 -32 -110 -32c-57 0 -89 32 -89 82c0 45 31 91 77 124v1h-23c-127 7 -192 84 -192 206c0 149 108 304 285 304c99 0 170 -56 170 -147
c0 -124 -121 -169 -317 -164c0 -14 5 -36 15 -50c19 -25 52 -38 94 -38c53 0 98 12 137 31l10 -104c-12 -6 -25 -11 -58 -25c-58 -34 -90 -69 -90 -99c0 -17 12 -28 28 -28c17 0 36 6 46 10z" />
    <glyph glyph-name="gbreve" unicode="&#x11f;" horiz-adv-x="558" 
d="M11 -178l34 110c27 -16 86 -27 128 -27c72 0 125 32 146 130l8 42h-2c-38 -50 -82 -73 -140 -73c-97 0 -156 79 -157 175c-1 161 115 321 328 321c69 0 129 -13 181 -34l-74 -403c-17 -90 -45 -170 -103 -217c-53 -42 -124 -55 -189 -55c-66 0 -126 12 -160 31zM356 250
l25 131c-11 5 -32 9 -52 9c-87 0 -149 -97 -149 -189c0 -50 22 -86 66 -86c47 0 94 53 110 135zM233 690h73c2 -31 12 -56 47 -56c41 0 59 28 65 56h75c-12 -78 -61 -130 -146 -130c-93 0 -123 57 -114 130z" />
    <glyph glyph-name="gcircumflex" unicode="&#x11d;" horiz-adv-x="558" 
d="M11 -178l34 110c27 -16 86 -27 128 -27c72 0 125 32 146 130l8 42h-2c-38 -50 -82 -73 -140 -73c-97 0 -156 79 -157 175c-1 161 115 321 328 321c69 0 129 -13 181 -34l-74 -403c-17 -90 -45 -170 -103 -217c-53 -42 -124 -55 -189 -55c-66 0 -126 12 -160 31zM356 250
l25 131c-11 5 -32 9 -52 9c-87 0 -149 -97 -149 -189c0 -50 22 -86 66 -86c47 0 94 53 110 135zM311 700h99l75 -152h-93l-40 79h-2l-59 -79h-101z" />
    <glyph glyph-name="gcommaaccent" unicode="&#x123;" horiz-adv-x="558" 
d="M11 -178l34 110c27 -16 86 -27 128 -27c72 0 126 32 146 130l9 42h-3c-38 -50 -82 -73 -140 -73c-97 0 -156 79 -157 175c-1 161 115 321 328 321c69 0 130 -13 181 -34l-74 -403c-16 -90 -44 -170 -103 -217c-53 -42 -124 -55 -189 -55c-66 0 -126 12 -160 31zM356 250
l25 131c-11 5 -32 9 -52 9c-87 0 -149 -97 -149 -189c0 -50 22 -86 66 -86c47 0 94 53 110 135zM460 731l14 -66c-37 -6 -79 -27 -79 -68c0 -20 9 -37 20 -48l-101 -18c-12 11 -26 35 -26 64c0 93 95 133 172 136z" />
    <glyph glyph-name="gdotaccent" unicode="&#x121;" horiz-adv-x="558" 
d="M11 -178l34 110c27 -16 86 -27 128 -27c72 0 126 32 146 130l9 42h-3c-38 -50 -82 -73 -140 -73c-97 0 -156 79 -157 175c-1 161 115 321 328 321c69 0 130 -13 181 -34l-74 -403c-17 -90 -44 -170 -103 -217c-53 -42 -124 -55 -189 -55c-66 0 -126 12 -160 31zM356 250
l25 131c-11 5 -32 9 -52 9c-87 0 -149 -97 -149 -189c0 -50 22 -86 66 -86c47 0 95 53 110 135zM354 553c-36 0 -67 26 -67 66c0 46 34 77 76 77c41 0 67 -28 67 -67c0 -46 -34 -76 -76 -76z" />
    <glyph glyph-name="g_tildecomb" unicode="&#xe005;" horiz-adv-x="558" 
d="M11 -178l34 110c27 -16 86 -27 128 -27c72 0 126 32 146 130l8 42h-2c-38 -50 -82 -73 -140 -73c-97 0 -156 79 -157 175c-1 161 115 321 328 321c69 0 130 -13 181 -34l-74 -403c-16 -90 -44 -170 -103 -217c-53 -42 -124 -55 -189 -55c-66 0 -126 12 -160 31zM356 250
l25 131c-11 5 -32 9 -52 9c-87 0 -148 -97 -149 -189c0 -50 22 -86 66 -86c47 0 95 53 110 135zM276 558h-70c11 80 45 126 96 126c28 0 45 -10 62 -20c15 -10 28 -19 39 -19c16 0 23 10 32 44h69c-13 -87 -46 -123 -98 -123c-27 0 -49 9 -64 19c-14 11 -26 18 -38 18
c-13 0 -23 -19 -28 -45z" />
    <glyph glyph-name="hcircumflex" unicode="&#x125;" horiz-adv-x="563" 
d="M157 0h-144l135 710h144l-55 -284h2c41 45 92 74 156 74c76 0 123 -48 123 -132c0 -23 -4 -60 -9 -88l-53 -280h-144l51 268c4 19 6 40 6 60c0 33 -13 56 -49 56c-51 0 -102 -62 -120 -160zM195 867h109l80 -126h-101l-40 61h-2l-58 -61h-111z" />
    <glyph glyph-name="ibreve" unicode="&#x12d;" horiz-adv-x="265" 
d="M157 0h-144l93 489h144zM87 690h73c1 -31 12 -56 47 -56c40 0 58 28 65 56h75c-13 -78 -62 -130 -147 -130c-92 0 -122 57 -113 130z" />
    <glyph glyph-name="imacron" unicode="&#x12b;" horiz-adv-x="265" 
d="M157 0h-144l93 489h144zM89 662h246l-16 -78h-246z" />
    <glyph glyph-name="iogonek" unicode="&#x12f;" horiz-adv-x="265" 
d="M195 553c-42 0 -73 30 -73 75c0 52 41 87 88 87c45 0 77 -29 77 -75c0 -55 -42 -87 -92 -87zM250 489l-93 -489h-63c-19 -25 -36 -60 -36 -85c0 -24 15 -40 42 -40c18 0 35 5 46 9l9 -70c-28 -23 -68 -33 -104 -33c-62 0 -98 32 -98 89c0 51 39 105 61 132l92 487h144z
" />
    <glyph glyph-name="itilde" unicode="&#x129;" horiz-adv-x="265" 
d="M156 0h-143l92 489h144zM129 558h-70c11 80 45 126 96 126c28 0 45 -10 62 -20c15 -10 28 -19 39 -19c16 0 23 10 32 44h69c-13 -87 -46 -123 -98 -123c-27 0 -49 9 -64 19c-14 11 -26 18 -38 18c-13 0 -23 -19 -28 -45z" />
    <glyph glyph-name="jcircumflex" unicode="&#x135;" horiz-adv-x="275" 
d="M120 489h143l-88 -473c-16 -84 -36 -137 -69 -173c-31 -36 -82 -52 -133 -52c-22 0 -47 2 -69 8l16 108c10 -1 20 -2 32 -2c34 0 61 17 78 105zM166 700h95l75 -152h-92l-39 86h-2l-59 -86h-100z" />
    <glyph glyph-name="kcommaaccent" unicode="&#x137;" horiz-adv-x="530" 
d="M156 0h-143l134 710h143l-80 -425h2c15 19 30 38 44 55l125 149h178l-209 -202l136 -287h-160l-86 209l-54 -52zM120 -240l-15 66c35 6 77 27 77 68c0 20 -9 37 -20 48l107 17c12 -10 26 -34 26 -63c0 -93 -95 -133 -175 -136z" />
    <glyph glyph-name="lacute" unicode="&#x13a;" horiz-adv-x="265" 
d="M157 0h-144l136 710h144zM248 874h160l-132 -126h-122z" />
    <glyph glyph-name="lcaron" unicode="&#x13e;" horiz-adv-x="273" 
d="M157 0h-144l136 710h144zM349 502l-56 51c26 22 53 65 53 110c0 17 -4 32 -10 42l97 17c12 -12 22 -37 22 -62c0 -80 -62 -138 -106 -158z" />
    <glyph glyph-name="lcommaaccent" unicode="&#x13c;" horiz-adv-x="265" 
d="M158 0h-144l135 710h144zM-18 -240l-15 66c35 6 77 27 77 68c0 20 -9 37 -20 48l107 17c12 -10 26 -34 26 -63c0 -93 -95 -133 -175 -136z" />
    <glyph glyph-name="ldot" unicode="&#x140;" horiz-adv-x="356" 
d="M157 0h-144l136 710h144zM326 289c-33 0 -62 25 -62 64c0 44 32 74 71 74c37 0 62 -27 62 -65c0 -45 -32 -73 -71 -73z" />
    <glyph glyph-name="m_uni0302" unicode="&#xe006;" horiz-adv-x="831" 
d="M152 0h-139l61 330c11 62 19 115 25 159h123l-9 -79h2c45 63 105 91 168 91c78 0 112 -50 116 -93c44 63 105 93 169 93c75 0 119 -49 119 -132c0 -20 -4 -59 -8 -84l-53 -285h-140l49 268c4 19 7 40 7 59c0 34 -15 58 -48 58c-48 0 -96 -64 -115 -163l-41 -222h-139
l51 269c3 20 6 39 6 56c0 34 -11 60 -46 60c-49 0 -101 -68 -118 -165zM447 700h99l75 -152h-93l-40 79h-2l-58 -79h-102z" />
    <glyph glyph-name="nacute" unicode="&#x144;" horiz-adv-x="563" 
d="M156 0h-144l62 330c13 62 20 115 27 159h127l-9 -81h2c46 63 106 92 171 92c80 0 126 -49 126 -134c0 -22 -4 -58 -8 -82l-54 -284h-145l52 271c3 17 5 36 5 54c0 35 -12 59 -49 59c-47 0 -102 -59 -122 -167zM368 700h142l-130 -152h-106z" />
    <glyph glyph-name="ncaron" unicode="&#x148;" horiz-adv-x="563" 
d="M156 0h-144l62 330c13 62 20 115 27 159h127l-9 -81h2c46 63 106 92 171 92c80 0 126 -49 126 -134c0 -22 -4 -58 -8 -82l-54 -284h-145l52 271c3 17 5 36 5 54c0 35 -12 59 -49 59c-47 0 -102 -59 -122 -167zM374 548h-99l-75 152h93l40 -79h2l59 79h102z" />
    <glyph glyph-name="n_uni0302" unicode="&#xe007;" horiz-adv-x="563" 
d="M156 0h-144l62 330c13 62 20 115 27 159h127l-9 -81h2c46 63 106 92 171 92c80 0 126 -49 126 -134c0 -22 -4 -58 -8 -82l-54 -284h-145l52 271c3 17 5 36 5 54c0 35 -12 59 -49 59c-47 0 -102 -59 -122 -167zM313 700h99l75 -152h-93l-40 79h-2l-58 -79h-102z" />
    <glyph glyph-name="ncommaaccent" unicode="&#x146;" horiz-adv-x="563" 
d="M156 0h-144l62 330c13 62 20 115 27 159h127l-9 -81h2c46 63 106 92 171 92c80 0 126 -49 126 -134c0 -22 -4 -58 -8 -82l-54 -284h-145l52 271c3 17 5 36 5 54c0 35 -12 59 -49 59c-47 0 -102 -59 -122 -167zM137 -240l-15 66c35 6 77 27 77 68c0 20 -9 37 -20 48
l107 17c12 -10 26 -34 26 -63c0 -93 -95 -133 -175 -136z" />
    <glyph glyph-name="obreve" unicode="&#x14f;" horiz-adv-x="559" 
d="M237 -11c-124 0 -207 81 -207 203c0 169 118 309 292 309c131 0 207 -90 207 -202c0 -179 -123 -310 -292 -310zM258 99c77 0 122 116 122 199c0 45 -20 93 -77 93c-83 0 -124 -121 -124 -197c0 -57 28 -95 79 -95zM233 690h73c1 -31 11 -56 46 -56c41 0 59 28 65 56h75
c-12 -78 -61 -130 -146 -130c-92 0 -122 57 -113 130z" />
    <glyph glyph-name="ohungarumlaut" unicode="&#x151;" horiz-adv-x="559" 
d="M237 -11c-124 0 -207 81 -207 203c0 169 118 309 292 309c131 0 207 -90 207 -202c0 -179 -123 -310 -292 -310zM258 99c77 0 122 116 122 199c0 45 -20 93 -77 93c-83 0 -124 -121 -124 -197c0 -57 28 -95 79 -95zM267 700h122l-120 -152h-86zM442 700h122l-120 -152
h-86z" />
    <glyph glyph-name="omacron" unicode="&#x14d;" horiz-adv-x="559" 
d="M237 -11c-124 0 -207 81 -207 203c0 169 118 309 292 309c131 0 207 -90 207 -202c0 -179 -123 -310 -292 -310zM258 99c77 0 122 116 122 199c0 45 -20 93 -77 93c-83 0 -124 -121 -124 -197c0 -57 28 -95 79 -95zM236 662h246l-15 -78h-246z" />
    <glyph glyph-name="oslashacute" unicode="&#x1ff;" horiz-adv-x="560" 
d="M57 -56l-40 41l61 71c-32 35 -49 81 -49 139c0 167 119 306 291 306c44 0 82 -10 112 -28l62 70l44 -39l-59 -69c34 -38 50 -89 50 -136c0 -188 -130 -310 -283 -310c-54 0 -92 11 -123 31zM183 173l168 205c-12 12 -27 18 -50 18c-82 0 -124 -114 -125 -178
c-1 -16 0 -31 4 -44zM375 316l-170 -202c13 -14 30 -20 53 -20c76 0 122 101 124 176c0 15 -1 30 -4 46h-3zM362 700h142l-130 -152h-106z" />
    <glyph glyph-name="racute" unicode="&#x155;" horiz-adv-x="370" 
d="M157 0h-144l55 291c14 74 20 156 25 198h125c-3 -33 -5 -66 -9 -100h3c35 65 89 111 156 111c9 0 18 0 27 -1l-28 -140c-7 1 -15 1 -23 1c-92 0 -135 -82 -153 -178zM264 700h142l-130 -152h-106z" />
    <glyph glyph-name="rcaron" unicode="&#x159;" horiz-adv-x="370" 
d="M157 0h-144l55 291c14 74 20 156 25 198h125c-3 -33 -5 -66 -9 -100h3c35 65 89 111 156 111c9 0 18 0 27 -1l-28 -140c-7 1 -15 1 -23 1c-92 0 -135 -82 -153 -178zM294 548h-99l-75 152h93l40 -79h2l59 79h102z" />
    <glyph glyph-name="rcommaaccent" unicode="&#x157;" horiz-adv-x="370" 
d="M157 0h-144l55 291c14 74 20 156 25 198h125c-3 -33 -5 -66 -9 -100h3c35 65 89 111 156 111c9 0 18 0 27 -1l-28 -140c-7 1 -15 1 -23 1c-92 0 -135 -82 -153 -178zM-1 -240l-15 66c35 6 77 27 77 68c0 20 -9 37 -20 48l107 17c12 -10 26 -34 26 -63
c0 -93 -95 -133 -175 -136z" />
    <glyph glyph-name="sacute" unicode="&#x15b;" horiz-adv-x="416" 
d="M-4 28l35 101c28 -14 80 -34 127 -34c41 0 62 20 62 44s-16 41 -61 63c-56 28 -103 69 -103 130c0 102 89 169 215 169c57 0 102 -12 126 -25l-35 -102c-20 9 -55 21 -97 21c-39 0 -64 -16 -64 -43c0 -20 20 -37 59 -56c54 -27 110 -66 110 -134
c0 -112 -95 -173 -225 -172c-62 1 -120 17 -149 38zM280 700h142l-130 -152h-106z" />
    <glyph glyph-name="scedilla" unicode="&#x15f;" horiz-adv-x="416" 
d="M397 476l-35 -102c-20 9 -55 21 -97 21c-39 0 -64 -16 -64 -43c0 -20 20 -37 59 -55c54 -27 110 -67 110 -135c0 -90 -61 -148 -151 -166l-28 -39c35 -8 61 -33 61 -65c0 -70 -70 -95 -126 -95c-33 0 -62 9 -78 21l25 54c16 -10 36 -16 53 -16c18 0 37 8 37 28
c0 18 -18 32 -73 36l46 70h-4c-43 0 -108 17 -136 38l35 101c28 -14 80 -34 127 -34c41 0 62 20 62 44s-16 41 -61 63c-56 28 -103 69 -103 130c0 102 89 169 215 169c57 0 102 -12 126 -25z" />
    <glyph glyph-name="scircumflex" unicode="&#x15d;" horiz-adv-x="416" 
d="M-4 28l35 101c28 -14 80 -34 127 -34c41 0 62 20 62 44s-16 41 -61 63c-56 28 -103 69 -103 130c0 102 89 169 215 169c57 0 102 -12 126 -25l-35 -102c-20 9 -55 21 -97 21c-39 0 -64 -16 -64 -43c0 -20 20 -37 59 -56c54 -27 110 -66 110 -134
c0 -112 -95 -173 -225 -172c-62 1 -120 17 -149 38zM237 700h99l75 -152h-93l-40 79h-2l-59 -79h-101z" />
    <glyph glyph-name="scommaaccent" unicode="&#x219;" horiz-adv-x="416" 
d="M-4 28l35 101c28 -14 80 -34 127 -34c41 0 62 20 62 44s-16 41 -61 63c-56 28 -103 69 -103 130c0 102 89 169 215 169c57 0 102 -12 126 -25l-35 -102c-20 9 -55 21 -97 21c-39 0 -64 -16 -64 -43c0 -20 20 -37 59 -56c54 -27 110 -66 110 -134
c0 -112 -95 -173 -225 -172c-62 1 -120 17 -149 38zM61 -239l-15 66c35 6 77 27 77 68c0 19 -9 36 -20 47l107 18c12 -11 26 -35 26 -63c0 -93 -95 -133 -175 -136z" />
    <glyph glyph-name="tcaron" unicode="&#x165;" horiz-adv-x="348" 
d="M141 581l148 41l-25 -132h105l-22 -110h-104l-33 -166c-4 -19 -8 -45 -8 -62c0 -24 10 -41 42 -41c12 0 27 0 39 2l-16 -113c-19 -7 -55 -11 -85 -11c-87 0 -128 44 -128 106c0 26 3 53 11 91l37 194h-62l20 110h63zM371 536l-33 60c23 11 39 37 39 63c0 19 -7 37 -15 50
l96 17c14 -12 28 -40 28 -65c0 -78 -71 -118 -115 -125z" />
    <glyph glyph-name="tcommaaccent" unicode="&#x163;" horiz-adv-x="348" 
d="M141 582l148 40l-25 -132h105l-22 -110h-104l-33 -166c-4 -19 -8 -45 -8 -62c0 -24 10 -41 42 -41c12 0 27 0 39 2l-16 -113c-19 -7 -55 -11 -85 -11c-87 0 -128 44 -128 106c0 26 3 53 11 91l37 194h-62l20 110h63zM32 -240l-16 66c35 6 77 27 77 68c0 19 -9 36 -20 47
l107 18c12 -11 26 -35 26 -63c0 -93 -95 -133 -174 -136z" />
    <glyph glyph-name="ubreve" unicode="&#x16d;" horiz-adv-x="560" 
d="M400 489h143l-62 -330c-12 -62 -20 -115 -26 -159h-127l9 79l-2 1c-50 -64 -109 -91 -168 -91c-79 0 -126 44 -126 137c0 26 3 56 10 90l52 273h144l-50 -262c-4 -23 -7 -47 -7 -65c0 -31 13 -56 49 -56c49 0 99 59 118 156zM226 690h73c1 -31 12 -56 47 -56
c40 0 58 28 65 56h74c-12 -78 -61 -130 -146 -130c-92 0 -122 57 -113 130z" />
    <glyph glyph-name="uhungarumlaut" unicode="&#x171;" horiz-adv-x="560" 
d="M400 489h143l-62 -330c-12 -62 -20 -115 -26 -159h-127l9 79l-2 1c-50 -64 -109 -91 -168 -91c-79 0 -126 44 -126 137c0 26 3 56 10 90l52 273h144l-50 -262c-4 -23 -7 -47 -7 -65c0 -31 13 -56 49 -56c49 0 99 59 118 156zM274 700h122l-120 -152h-86zM449 700h122
l-120 -152h-86z" />
    <glyph glyph-name="umacron" unicode="&#x16b;" horiz-adv-x="560" 
d="M400 489h143l-62 -330c-12 -62 -20 -115 -26 -159h-127l9 79l-2 1c-50 -64 -109 -91 -168 -91c-79 0 -126 44 -126 137c0 26 3 56 10 90l52 273h144l-50 -262c-4 -23 -7 -47 -7 -65c0 -31 13 -56 49 -56c49 0 99 59 118 156zM235 662h246l-16 -78h-246z" />
    <glyph glyph-name="uogonek" unicode="&#x173;" horiz-adv-x="560" 
d="M543 489l-62 -330c-11 -62 -20 -115 -26 -159l-46 1c-19 -25 -36 -60 -36 -85c0 -24 15 -40 42 -40c18 0 36 5 47 9l9 -70c-28 -23 -69 -33 -105 -33c-62 0 -98 32 -98 89c0 51 39 105 61 132l8 76l-2 1c-50 -64 -109 -91 -168 -91c-79 0 -126 44 -126 137
c0 26 3 56 10 90l52 273h144l-50 -262c-4 -23 -7 -47 -7 -65c0 -31 13 -56 49 -56c49 0 99 59 118 156l43 227h143z" />
    <glyph glyph-name="uring" unicode="&#x16f;" horiz-adv-x="560" 
d="M400 489h143l-62 -330c-12 -62 -20 -115 -26 -159h-127l9 79l-2 1c-50 -64 -109 -91 -168 -91c-79 0 -126 44 -126 137c0 26 3 56 10 90l52 273h144l-50 -262c-4 -23 -7 -47 -7 -65c0 -31 13 -56 49 -56c49 0 99 59 118 156zM362 735c58 0 107 -32 107 -94
c-2 -66 -57 -103 -124 -103c-57 0 -104 34 -106 90c-2 65 51 107 123 107zM355 685c-28 0 -47 -23 -47 -53c0 -23 15 -44 43 -44c30 0 49 23 49 51c0 25 -15 46 -45 46z" />
    <glyph glyph-name="utilde" unicode="&#x169;" horiz-adv-x="560" 
d="M400 489h143l-62 -330c-12 -62 -20 -115 -26 -159h-127l9 79l-2 1c-50 -64 -109 -91 -168 -91c-79 0 -126 44 -126 137c0 26 3 56 10 90l52 273h144l-50 -262c-4 -23 -7 -47 -7 -65c0 -31 13 -56 49 -56c49 0 99 59 118 156zM277 558h-70c11 80 45 126 96 126
c29 0 45 -10 62 -20c15 -10 28 -19 39 -19c16 0 23 10 32 44h69c-13 -87 -46 -123 -98 -123c-26 0 -48 9 -63 19c-14 11 -26 18 -38 18c-14 0 -24 -19 -29 -45z" />
    <glyph glyph-name="wacute" unicode="&#x1e83;" horiz-adv-x="733" 
d="M51 489h146l1 -207c0 -56 -2 -102 -5 -156h2c17 52 39 101 60 151l96 212h118l12 -205c2 -58 4 -105 1 -158h3c16 54 33 103 53 160l84 203h145l-238 -489h-135l-14 170c-4 52 -4 99 -4 157h-2c-26 -69 -38 -105 -58 -150l-83 -177h-136zM441 700h142l-130 -152h-106z
" />
    <glyph glyph-name="wcircumflex" unicode="&#x175;" horiz-adv-x="733" 
d="M51 490h146l1 -208c0 -56 -2 -102 -5 -156h2c17 52 39 101 60 151l96 213h118l12 -206c3 -58 4 -105 2 -158h2c16 54 33 103 54 160l83 204h145l-237 -490h-136l-14 170c-3 52 -4 99 -4 157h-2c-26 -69 -38 -105 -58 -150l-83 -177h-136zM398 700h99l75 -152h-93l-40 79
h-2l-59 -79h-102z" />
    <glyph glyph-name="wdieresis" unicode="&#x1e85;" horiz-adv-x="733" 
d="M51 490h146l1 -208c0 -56 -1 -102 -5 -156h3c16 52 38 101 59 151l96 213h118l12 -206c2 -58 4 -105 1 -158h3c16 54 33 103 53 160l84 204h145l-238 -490h-135l-14 170c-3 52 -4 99 -4 157h-2c-26 -69 -38 -105 -58 -150l-83 -177h-136zM326 554c-35 0 -66 25 -66 66
c0 45 34 75 76 75c39 0 65 -29 65 -66c0 -46 -33 -75 -75 -75zM531 554c-36 0 -66 25 -66 66c0 45 34 75 76 75c39 0 65 -29 65 -66c0 -46 -33 -75 -75 -75z" />
    <glyph glyph-name="wgrave" unicode="&#x1e81;" horiz-adv-x="733" 
d="M51 489h146l1 -207c0 -56 -2 -102 -5 -156h2c17 52 39 101 60 151l96 212h118l12 -205c2 -58 4 -105 1 -158h3c16 54 33 103 53 160l84 203h145l-238 -489h-135l-14 170c-4 52 -4 99 -4 157h-2c-26 -69 -38 -105 -58 -150l-83 -177h-136zM274 700h139l75 -152h-103z" />
    <glyph glyph-name="ycircumflex" unicode="&#x177;" horiz-adv-x="497" 
d="M44 489h151l30 -213c7 -51 12 -86 16 -117h2c11 30 22 61 43 114l89 216h152l-175 -352c-65 -130 -123 -218 -188 -279c-57 -54 -125 -79 -157 -84l-32 124c23 7 55 19 83 38c33 23 61 52 80 85c4 8 4 14 2 24zM271 700h99l75 -152h-93l-40 79h-2l-58 -79h-102z" />
    <glyph glyph-name="ygrave" unicode="&#x1ef3;" horiz-adv-x="497" 
d="M44 489h151l30 -213c7 -51 12 -86 16 -117h2c11 30 22 61 43 114l89 216h152l-175 -352c-65 -130 -123 -218 -188 -279c-57 -54 -125 -79 -157 -84l-32 124c23 7 55 19 83 38c33 23 61 52 80 85c4 8 4 14 2 24zM146 700h139l75 -152h-103z" />
    <glyph glyph-name="uni0233" unicode="&#x233;" horiz-adv-x="497" 
d="M44 489h151l30 -213c7 -51 12 -86 16 -117h2c11 30 22 61 43 114l89 216h152l-175 -352c-65 -130 -123 -218 -188 -279c-57 -54 -125 -79 -157 -84l-32 124c23 7 55 19 83 38c33 23 61 52 80 85c4 8 4 14 2 24zM205 662h246l-16 -78h-246z" />
    <glyph glyph-name="zacute" unicode="&#x17a;" horiz-adv-x="450" 
d="M-26 0l16 87l159 170c41 43 72 73 119 113l1 2h-209l23 117h382l-17 -91l-155 -166c-44 -46 -75 -77 -119 -113l-1 -2h230l-23 -117h-406zM306 700h142l-130 -152h-106z" />
    <glyph glyph-name="zdotaccent" unicode="&#x17c;" horiz-adv-x="450" 
d="M-25 0l15 87l159 170c41 43 73 73 120 113l1 2h-209l23 117h381l-16 -91l-156 -166c-43 -46 -75 -77 -118 -113l-1 -2h229l-23 -117h-405zM289 553c-36 0 -67 26 -67 66c0 46 34 77 76 77c41 0 67 -28 67 -67c0 -46 -34 -76 -76 -76z" />
    <glyph glyph-name="aeacute" unicode="&#x1fd;" horiz-adv-x="763" 
d="M676 132l5 -102c-55 -31 -123 -41 -179 -41c-72 0 -135 31 -162 87h-4c-41 -52 -103 -87 -182 -87c-90 0 -150 58 -150 135c0 146 167 202 314 200l2 11c4 23 -13 64 -79 64c-58 0 -104 -21 -136 -43l-23 92c41 27 106 53 177 53c72 0 123 -27 144 -79h3
c38 48 101 79 173 79c115 0 167 -71 167 -135c0 -141 -144 -170 -319 -162c-2 -21 -1 -42 8 -59c18 -28 55 -43 101 -43c60 0 98 12 140 30zM296 186l8 44c-55 2 -156 -13 -156 -83c0 -30 21 -48 54 -48c42 0 83 31 94 87zM607 353c0 21 -18 43 -56 43
c-63 0 -101 -56 -108 -93c85 -5 164 0 164 50zM457 700h142l-130 -152h-106z" />
    <glyph glyph-name="space_uni0326" unicode="&#xf6c3;" 
d="M53 -240l-15 66c35 6 77 27 77 68c0 19 -9 36 -20 47l107 18c12 -11 26 -35 26 -63c0 -93 -95 -133 -175 -136z" />
    <glyph glyph-name="acute.cap" unicode="&#xf6c9;" 
d="M301 836h160l-132 -126h-122z" />
    <glyph glyph-name="breve.cap" unicode="&#xefee;" 
d="M165 845h80c0 -25 14 -49 53 -49c41 0 60 22 66 49h82c-12 -68 -58 -122 -156 -122s-133 54 -125 122z" />
    <glyph glyph-name="caron.cap" unicode="&#xf6ca;" 
d="M344 710h-109l-80 126h102l39 -64h2l59 64h111z" />
    <glyph glyph-name="cedilla.cap" unicode="&#xeff2;" 
d="M123 4h78l-33 -48c34 -8 60 -32 60 -68c0 -70 -70 -94 -126 -94c-32 0 -60 8 -77 21l24 57c16 -10 35 -16 53 -16s37 8 37 27c0 18 -18 32 -71 36z" />
    <glyph glyph-name="circumflex.cap" unicode="&#xeff7;" 
d="M253 836h109l80 -126h-101l-41 61h-2l-58 -61h-111z" />
    <glyph glyph-name="space_uni0326.cap" unicode="&#xf634;" 
d="M53 -240l-15 66c35 6 77 27 77 68c0 19 -9 36 -20 47l107 18c12 -11 26 -35 26 -63c0 -93 -95 -133 -175 -136z" />
    <glyph glyph-name="dieresis.cap" unicode="&#xf6cb;" 
d="M190 711c-33 0 -64 25 -64 64c0 43 33 73 73 73c38 0 64 -29 64 -64c0 -44 -34 -73 -73 -73zM397 711c-33 0 -64 25 -64 64c0 43 33 73 73 73c38 0 64 -29 64 -64c0 -44 -34 -73 -73 -73z" />
    <glyph glyph-name="dotaccent.cap" unicode="&#xefed;" 
d="M295 712c-35 0 -66 26 -66 64c0 44 34 74 75 74c39 0 65 -29 65 -65c0 -44 -34 -73 -74 -73z" />
    <glyph glyph-name="grave.cap" unicode="&#xf6ce;" 
d="M129 837h158l77 -125h-120z" />
    <glyph glyph-name="hungarumlaut.cap" unicode="&#xf6cf;" 
d="M228 837h140l-121 -119h-105zM410 837h141l-121 -119h-105z" />
    <glyph glyph-name="macron.cap" unicode="&#xf6d0;" 
d="M178 813h253l-16 -79h-253z" />
    <glyph glyph-name="ogonek.cap" unicode="&#xeff1;" 
d="M126 1h83c-24 -26 -45 -61 -45 -87c0 -24 15 -39 41 -39c19 0 37 5 47 9l9 -71c-29 -22 -69 -32 -105 -32c-61 0 -97 32 -97 86c0 53 41 106 67 134z" />
    <glyph glyph-name="ring.cap" unicode="&#xeff3;" 
d="M306 889c60 0 108 -31 108 -91c-2 -64 -55 -101 -124 -101c-58 0 -105 34 -107 87c-2 63 51 105 123 105zM300 840c-28 0 -46 -22 -46 -51c0 -24 15 -43 41 -43c29 0 48 22 48 48s-15 46 -43 46z" />
    <glyph glyph-name="tilde.cap" unicode="&#xeff5;" 
d="M221 716h-71c13 84 52 125 99 125c28 0 46 -9 63 -20c15 -10 28 -19 41 -19c16 0 25 11 34 43h69c-14 -88 -48 -123 -100 -123c-29 0 -48 9 -64 19s-26 18 -40 18c-13 0 -24 -14 -31 -43z" />
    <glyph glyph-name="Alpha" unicode="&#x391;" horiz-adv-x="618" 
d="M399 175h-194l-79 -175h-154l328 674h185l79 -674h-152zM247 285h146l-14 145c-2 37 -6 91 -9 132h-2c-17 -41 -36 -93 -54 -132z" />
    <glyph glyph-name="Beta" unicode="&#x392;" horiz-adv-x="582" 
d="M20 7l124 656c48 10 111 16 177 16c71 0 122 -9 167 -35c45 -23 78 -67 78 -124c0 -85 -62 -139 -136 -160v-3c65 -20 106 -73 106 -147c0 -73 -39 -125 -92 -160c-57 -39 -142 -55 -254 -55c-76 0 -137 5 -170 12zM268 563l-30 -157h48c79 0 133 34 133 92
c0 48 -39 69 -94 69c-25 0 -46 -2 -57 -4zM216 301l-36 -191c17 -2 34 -2 55 -2c78 0 149 31 149 106c0 67 -56 87 -123 87h-45z" />
    <glyph glyph-name="Gamma" unicode="&#x393;" horiz-adv-x="476" 
d="M147 674h399l-24 -123h-252l-105 -551h-146z" />
    <glyph glyph-name="uni0394" unicode="&#x394;" horiz-adv-x="636" 
d="M-27 0l12 77l324 597h178l102 -597l-13 -77h-603zM155 117h277l-44 288c-6 44 -13 105 -17 147h-4c-14 -33 -42 -94 -62 -137z" />
    <glyph glyph-name="Epsilon" unicode="&#x395;" horiz-adv-x="517" 
d="M481 407l-24 -121h-239l-31 -163h269l-23 -123h-414l128 674h399l-24 -123h-254l-28 -144h241z" />
    <glyph glyph-name="Zeta" unicode="&#x396;" horiz-adv-x="553" 
d="M-25 0l15 83l391 464v3h-274l25 124h467l-17 -89l-384 -458v-3h302l-24 -124h-501z" />
    <glyph glyph-name="Eta" unicode="&#x397;" horiz-adv-x="666" 
d="M147 674h144l-50 -263h244l50 263h145l-128 -674h-144l53 283h-245l-53 -283h-144z" />
    <glyph glyph-name="Theta" unicode="&#x398;" horiz-adv-x="705" 
d="M321 -11c-175 0 -274 124 -274 281c0 121 45 240 123 317c63 61 150 98 247 98c178 0 273 -120 273 -281c0 -122 -43 -242 -119 -317c-63 -62 -149 -98 -250 -98zM342 108c115 0 195 165 195 291c0 85 -31 167 -137 167c-120 0 -200 -163 -200 -291
c0 -95 43 -167 142 -167zM278 401h205l-20 -114h-204z" />
    <glyph glyph-name="Iota" unicode="&#x399;" horiz-adv-x="274" 
d="M144 674h144l-128 -674h-144z" />
    <glyph glyph-name="Kappa" unicode="&#x39a;" horiz-adv-x="590" 
d="M19 0l128 674h142l-57 -301h3c20 29 41 53 60 77l187 224h180l-273 -291l156 -383h-156l-113 293l-72 -68l-43 -225h-142z" />
    <glyph glyph-name="Lambda" unicode="&#x39b;" horiz-adv-x="618" 
d="M564 0h-155l-35 403c-2 47 -5 98 -7 148h-3c-18 -51 -38 -102 -58 -149l-178 -402h-158l327 674h187z" />
    <glyph glyph-name="Mu" unicode="&#x39c;" horiz-adv-x="821" 
d="M722 0h-140l41 278c11 73 26 166 45 263h-3c-37 -87 -79 -180 -116 -254l-138 -276h-112l-24 273c-6 74 -11 167 -15 257h-2c-19 -89 -39 -190 -56 -263l-67 -278h-132l169 674h193l21 -256c4 -63 11 -140 12 -215h4c26 75 62 154 91 215l125 256h195z" />
    <glyph glyph-name="Nu" unicode="&#x39d;" horiz-adv-x="666" 
d="M153 0h-134l128 674h169l89 -257c27 -86 45 -156 61 -230h3c3 69 13 143 31 242l46 245h135l-128 -674h-149l-94 269c-30 91 -48 153 -66 235h-3c-7 -66 -23 -162 -43 -268z" />
    <glyph glyph-name="Xi" unicode="&#x39e;" horiz-adv-x="561" 
d="M128 674h460l-20 -120h-460zM112 405h396l-20 -120h-396zM15 122h488l-20 -122h-488z" />
    <glyph glyph-name="Omicron" unicode="&#x39f;" horiz-adv-x="705" 
d="M321 -11c-175 0 -273 124 -273 281c0 121 45 240 122 317c63 61 150 98 248 98c178 0 272 -120 272 -281c0 -122 -43 -242 -119 -317c-62 -62 -148 -98 -250 -98zM342 109c116 0 195 164 195 291c0 84 -30 165 -136 165c-121 0 -200 -162 -200 -290
c0 -95 43 -166 141 -166z" />
    <glyph glyph-name="Pi" unicode="&#x3a0;" horiz-adv-x="653" 
d="M668 674l-127 -674h-143l103 553h-234l-104 -553h-144l127 674h522z" />
    <glyph glyph-name="Rho" unicode="&#x3a1;" horiz-adv-x="559" 
d="M19 0l125 662c44 11 111 17 176 17c61 0 130 -10 179 -44c46 -31 73 -79 73 -144c0 -84 -39 -149 -91 -189c-55 -43 -134 -63 -216 -63c-24 0 -44 3 -59 4l-46 -243h-141zM266 560l-38 -199c15 -3 31 -5 56 -5c86 0 143 55 143 123c0 64 -47 85 -102 85
c-27 0 -47 -2 -59 -4z" />
    <glyph glyph-name="Sigma" unicode="&#x3a3;" horiz-adv-x="558" 
d="M200 126l1 -4h310l-21 -122h-507l13 87l242 250l-149 236l17 101h470l-20 -121h-288l-1 -4l138 -217z" />
    <glyph glyph-name="Tau" unicode="&#x3a4;" horiz-adv-x="527" 
d="M141 0l104 548h-178l25 126h501l-24 -126h-180l-104 -548h-144z" />
    <glyph glyph-name="Upsilon" unicode="&#x3a5;" horiz-adv-x="557" 
d="M43 560l35 120c57 -1 127 -30 168 -87c37 -51 61 -129 54 -220h7c27 88 76 165 133 218c62 59 134 87 178 89l11 -129c-94 -28 -204 -136 -260 -267c-20 -46 -34 -90 -42 -138l-27 -146h-144l27 147c10 50 14 87 14 132c1 143 -46 258 -154 281z" />
    <glyph glyph-name="Phi" unicode="&#x3a6;" horiz-adv-x="766" 
d="M263 -29l11 57c-122 18 -226 108 -226 260c0 237 201 360 343 362l10 52h135l-10 -52c119 -16 225 -108 225 -259c0 -232 -184 -355 -342 -363l-11 -57h-135zM294 132l77 415c-75 -4 -177 -106 -177 -256c0 -87 42 -146 100 -159zM506 547l-78 -416c82 7 177 101 177 259
c0 88 -42 145 -99 157z" />
    <glyph glyph-name="Chi" unicode="&#x3a7;" horiz-adv-x="569" 
d="M517 0h-153l-46 136c-13 41 -23 73 -36 115h-2c-22 -38 -40 -72 -68 -120l-80 -131h-173l252 344l-118 330h152l41 -129c12 -42 21 -72 31 -112h3c25 46 43 78 64 114l78 127h172l-246 -331z" />
    <glyph glyph-name="Psi" unicode="&#x3a8;" horiz-adv-x="691" 
d="M737 674l-39 -211c-35 -183 -148 -271 -300 -279l-34 -184h-135l35 184c-101 11 -205 65 -205 199c0 22 3 46 8 76l41 215h139l-37 -200c-6 -29 -9 -54 -9 -73c0 -71 29 -97 83 -105l72 378h133l-71 -380c71 7 119 54 146 198l34 182h139z" />
    <glyph glyph-name="uni03A9" unicode="&#x3a9;" horiz-adv-x="721" 
d="M137 110l1 5c-42 41 -85 117 -85 208c0 206 164 362 367 362c184 0 285 -126 285 -264c0 -149 -93 -256 -165 -306v-5h121l-19 -110h-288l15 88c84 54 182 159 182 318c0 94 -51 162 -144 162c-112 0 -203 -114 -203 -277c0 -89 34 -163 85 -203l-15 -88h-288l20 110h131
z" />
    <glyph glyph-name="Alphatonos" unicode="&#x386;" horiz-adv-x="618" 
d="M399 175h-194l-79 -175h-154l328 674h185l79 -674h-152zM247 285h146l-14 145c-2 37 -6 91 -9 132h-2c-17 -41 -36 -93 -54 -132zM78 674h119l-61 -174h-83z" />
    <glyph glyph-name="Epsilontonos" unicode="&#x388;" horiz-adv-x="571" 
d="M534 407l-24 -121h-239l-31 -163h269l-23 -123h-414l128 674h399l-24 -123h-254l-28 -144h241zM29 674h119l-62 -174h-82z" />
    <glyph glyph-name="Etatonos" unicode="&#x389;" horiz-adv-x="718" 
d="M199 674h144l-50 -263h244l50 263h145l-128 -674h-144l53 283h-245l-53 -283h-144zM28 674h119l-61 -174h-83z" />
    <glyph glyph-name="Iotatonos" unicode="&#x38a;" horiz-adv-x="328" 
d="M198 674h144l-128 -674h-144zM30 674h119l-62 -174h-82z" />
    <glyph glyph-name="Iotadieresis" unicode="&#x3aa;" horiz-adv-x="274" 
d="M121 714c-34 0 -64 24 -64 63c0 44 33 73 73 73c39 0 64 -28 64 -64c0 -44 -33 -72 -73 -72zM329 714c-34 0 -64 24 -64 63c0 44 33 73 73 73c39 0 64 -28 64 -64c0 -44 -33 -72 -73 -72zM143 674h145l-128 -674h-144z" />
    <glyph glyph-name="Omicrontonos" unicode="&#x38c;" horiz-adv-x="744" 
d="M360 -11c-175 0 -273 124 -273 281c0 121 45 240 122 317c63 61 150 98 248 98c178 0 272 -120 272 -281c0 -122 -43 -242 -119 -317c-62 -62 -148 -98 -250 -98zM381 109c116 0 195 164 195 291c0 84 -30 165 -136 165c-121 0 -200 -162 -200 -290
c0 -95 43 -166 141 -166zM28 674h119l-61 -174h-83z" />
    <glyph glyph-name="Upsilontonos" unicode="&#x38e;" horiz-adv-x="677" 
d="M160 560l35 120c57 -1 127 -30 168 -87c37 -51 61 -129 54 -220h7c27 88 76 165 133 218c62 59 134 87 178 89l11 -129c-94 -28 -204 -136 -260 -267c-20 -46 -34 -90 -42 -137l-27 -147h-144l27 147c10 50 14 87 14 132c1 143 -46 258 -154 281zM24 674h119l-62 -174
h-82z" />
    <glyph glyph-name="Upsilondieresis" unicode="&#x3ab;" horiz-adv-x="557" 
d="M252 699c-34 0 -64 25 -64 64c0 43 33 73 73 73c39 0 64 -28 64 -64c0 -45 -33 -73 -73 -73zM459 699c-34 0 -64 25 -64 64c0 43 33 73 73 73c39 0 64 -28 64 -64c0 -45 -33 -73 -73 -73zM43 560l35 120c57 -1 127 -30 168 -87c37 -51 61 -129 54 -220h7
c27 88 76 165 132 218c63 59 135 87 179 89l10 -129c-93 -28 -203 -136 -259 -267c-20 -46 -34 -90 -42 -138l-27 -146h-144l27 147c10 50 14 87 14 132c1 143 -46 258 -154 281z" />
    <glyph glyph-name="Omegatonos" unicode="&#x38f;" horiz-adv-x="760" 
d="M176 110l1 5c-42 41 -85 117 -85 208c0 206 164 362 368 362c184 0 285 -126 285 -264c0 -149 -93 -256 -164 -306v-5h120l-19 -110h-288l15 88c83 54 182 159 182 318c0 94 -51 162 -144 162c-112 0 -204 -114 -204 -277c0 -89 34 -163 85 -203l-15 -88h-288l20 110h131
zM28 674h119l-61 -174h-83z" />
    <glyph glyph-name="alpha" unicode="&#x3b1;" horiz-adv-x="576" 
d="M362 77h-2c-44 -60 -103 -88 -169 -88c-92 0 -163 68 -163 184c0 199 145 328 257 328c66 0 108 -25 128 -73l3 -1c7 23 15 43 23 62h122c-8 -31 -19 -73 -27 -109c-16 -71 -32 -144 -45 -208c-11 -58 5 -73 32 -71l-26 -105c-11 -4 -23 -7 -45 -7c-53 0 -83 31 -88 88z
M177 190c0 -52 27 -87 70 -87c46 0 87 49 104 95c5 16 10 34 13 53c3 16 6 38 6 50c0 52 -24 90 -71 90c-64 0 -122 -101 -122 -201z" />
    <glyph glyph-name="beta" unicode="&#x3b2;" horiz-adv-x="562" 
d="M126 -198h-133c-9 27 -2 105 13 179l80 430c27 144 71 212 117 251c44 37 92 59 161 59c111 0 173 -74 173 -159c0 -83 -45 -145 -109 -175l-1 -6c56 -16 103 -77 103 -159c0 -136 -113 -233 -232 -233c-57 0 -107 16 -138 47h-3l-11 -60c-11 -60 -22 -131 -20 -174z
M273 319l17 90c6 0 11 0 17 2c54 9 95 56 95 123c0 41 -21 74 -59 74c-48 0 -88 -45 -111 -166l-54 -290c19 -30 53 -54 95 -54c63 0 110 55 110 122c0 56 -37 92 -88 99h-22z" />
    <glyph glyph-name="gamma" unicode="&#x3b3;" horiz-adv-x="483" 
d="M211 -198h-141c15 73 36 170 36 263c0 142 -54 326 -94 424h159c27 -63 56 -202 57 -334h4c51 82 103 188 122 289c2 16 4 34 4 45h142c0 -11 -1 -29 -4 -50c-21 -113 -112 -274 -240 -417c-8 -9 -12 -19 -13 -29c-7 -42 -20 -125 -32 -191z" />
    <glyph glyph-name="delta" unicode="&#x3b4;" horiz-adv-x="551" 
d="M522 653l-51 -84c-22 21 -69 49 -110 49c-31 0 -43 -13 -43 -30c0 -19 21 -39 51 -66l57 -55c52 -49 94 -115 94 -195c0 -145 -108 -283 -279 -283c-127 0 -217 87 -217 210c0 145 108 233 202 273v4l-19 22c-16 18 -40 51 -40 90c0 73 73 133 174 133
c96 0 152 -39 181 -68zM326 367l-34 35c-63 -34 -119 -102 -119 -199c0 -65 36 -110 87 -110c60 0 113 65 113 155c0 45 -11 83 -47 119z" />
    <glyph glyph-name="epsilon" unicode="&#x3b5;" horiz-adv-x="437" 
d="M346 207h-46c-68 0 -129 -15 -129 -62c0 -31 40 -47 88 -47c46 0 97 13 132 28l5 -99c-57 -31 -133 -38 -185 -38c-105 0 -198 36 -198 126c0 81 65 131 125 142l1 4c-51 16 -75 50 -75 90c0 77 84 149 228 149c67 0 117 -14 148 -38l-34 -89c-21 12 -62 25 -104 25
c-58 0 -92 -24 -92 -52c0 -30 38 -45 110 -45h42z" />
    <glyph glyph-name="zeta" unicode="&#x3b6;" horiz-adv-x="427" 
d="M476 706l3 -95c-119 -59 -299 -234 -299 -385c0 -60 26 -95 68 -116c36 -22 89 -31 137 -38c6 -1 8 -5 8 -12c0 -47 -56 -162 -107 -212l-87 29c14 21 38 73 44 100c-21 4 -56 12 -92 29c-62 27 -123 84 -123 190c0 150 133 319 260 401v4c-17 0 -35 1 -53 1
c-46 0 -75 5 -95 16l27 93c25 -5 74 -5 129 -5h180z" />
    <glyph glyph-name="eta" unicode="&#x3b7;" horiz-adv-x="563" 
d="M219 408h3c46 63 106 92 170 92c79 0 126 -49 126 -134c0 -22 -4 -61 -8 -82l-57 -302c-12 -66 -26 -142 -22 -180h-136c-10 21 0 106 14 181l54 288c2 14 5 36 5 54c0 35 -12 59 -48 59c-47 0 -102 -59 -122 -167l-41 -217h-144l62 330c12 62 21 119 15 159h126
c6 -19 7 -49 3 -81z" />
    <glyph glyph-name="theta" unicode="&#x3b8;" horiz-adv-x="555" 
d="M237 -11c-129 0 -202 85 -202 241c0 55 7 114 21 174c42 173 145 317 300 317c129 0 194 -99 194 -231c0 -47 -5 -96 -14 -144c-37 -191 -135 -357 -299 -357zM203 413h200c5 34 8 65 8 90c0 71 -24 116 -71 116c-70 0 -116 -92 -137 -206zM384 310h-200
c-6 -38 -10 -74 -10 -101c0 -75 28 -118 76 -118c69 0 110 88 134 219z" />
    <glyph glyph-name="iota" unicode="&#x3b9;" horiz-adv-x="265" 
d="M243 489l-64 -338c-7 -38 3 -51 35 -49l-27 -105c-12 -4 -34 -8 -57 -8c-62 0 -103 24 -103 100c0 19 6 46 12 77l60 323h144z" />
    <glyph glyph-name="kappa" unicode="&#x3ba;" horiz-adv-x="522" 
d="M333 265v-3c40 -16 61 -62 85 -126l52 -136h-156l-34 96c-21 61 -39 104 -77 104h-8l-37 -200h-144l67 358c9 48 17 113 12 131h136c8 -11 12 -43 3 -91l-21 -112h5c65 72 123 143 175 203h164v-5c-69 -71 -141 -142 -222 -219z" />
    <glyph glyph-name="lambda" unicode="&#x3bb;" horiz-adv-x="475" 
d="M290 0l-29 236c-3 25 -7 54 -10 88l-6 1c-11 -31 -22 -61 -35 -92l-102 -233h-151l237 458c6 12 10 23 10 29c0 5 -1 11 -2 18c-10 57 -35 98 -84 99h-18l29 109c11 3 30 4 47 3c108 -4 144 -92 171 -231l90 -485h-147z" />
    <glyph glyph-name="uni03BC" unicode="&#x3bc;" horiz-adv-x="559" 
d="M245 489l-52 -275c-15 -78 6 -108 54 -108c37 0 69 40 86 76c6 11 11 24 13 37l52 270h144l-62 -329c-8 -45 3 -58 30 -59l-27 -104c-12 -5 -25 -8 -48 -8c-53 0 -82 28 -89 91h-3c-27 -48 -66 -87 -123 -87c-31 0 -57 10 -72 30l-8 -44c-9 -52 -22 -137 -21 -177h-129
c-6 23 1 102 16 180l95 507h144z" />
    <glyph glyph-name="nu" unicode="&#x3bd;" horiz-adv-x="483" 
d="M28 489h153c8 -71 16 -151 22 -226c4 -42 7 -80 10 -122h4c56 94 112 200 131 299c3 18 4 32 5 49h140c0 -12 0 -28 -3 -44c-23 -129 -126 -294 -245 -445h-138c-25 163 -52 333 -79 489z" />
    <glyph glyph-name="xi" unicode="&#x3be;" horiz-adv-x="452" 
d="M390 333h-33c-110 0 -180 -52 -180 -127c0 -56 33 -91 111 -111c38 -11 80 -18 123 -24c6 -1 8 -5 8 -12c0 -44 -66 -170 -108 -211l-87 30c12 21 36 74 43 99c-22 3 -52 9 -78 18c-67 19 -167 70 -167 186c0 115 89 195 176 216v6c-50 22 -84 69 -84 124
c0 105 93 194 249 194c59 0 108 -14 135 -32l-36 -93c-21 13 -55 22 -88 22c-69 0 -114 -43 -114 -98c0 -54 45 -81 117 -87c11 -1 19 -1 31 -1z" />
    <glyph glyph-name="omicron" unicode="&#x3bf;" horiz-adv-x="559" 
d="M236 -11c-125 0 -208 81 -208 203c0 169 118 309 292 309c132 0 208 -90 208 -202c0 -179 -123 -310 -292 -310zM256 99c78 0 123 116 123 199c0 45 -20 93 -77 93c-83 0 -125 -121 -125 -197c0 -57 29 -95 79 -95z" />
    <glyph glyph-name="rho" unicode="&#x3c1;" horiz-adv-x="566" 
d="M123 -198h-137c-3 23 0 81 18 175l40 218c27 144 73 208 128 250c52 41 103 55 168 55c120 0 198 -85 198 -199c0 -177 -128 -312 -259 -312c-53 0 -100 19 -119 48h-2l-11 -62c-12 -61 -24 -135 -24 -173zM196 234l-6 -27c-2 -12 -3 -24 -3 -38c0 -27 27 -70 80 -70
c64 0 123 89 123 191c0 52 -25 94 -76 94c-56 0 -98 -53 -118 -150z" />
    <glyph glyph-name="sigma" unicode="&#x3c3;" horiz-adv-x="585" 
d="M475 406l-1 -6c36 -27 50 -87 50 -123c0 -153 -119 -288 -285 -288c-128 0 -211 81 -211 202c0 170 119 310 290 310h125h76h98l-18 -107c-22 0 -62 3 -124 12zM256 99c78 0 123 116 123 199c0 46 -20 93 -76 93c-85 0 -126 -121 -126 -197c0 -57 29 -95 79 -95z" />
    <glyph glyph-name="tau" unicode="&#x3c4;" horiz-adv-x="430" 
d="M316 103l-23 -103c-13 -7 -39 -11 -61 -11c-94 0 -123 52 -123 119c0 23 5 59 10 84l34 185h-40c-46 0 -70 -2 -94 -7v85c25 17 62 34 175 34h262l-26 -112h-133l-37 -197c-3 -17 -4 -28 -4 -40c0 -25 15 -37 38 -37h22z" />
    <glyph glyph-name="upsilon" unicode="&#x3c5;" horiz-adv-x="536" 
d="M368 489h133c8 -19 14 -54 14 -94c0 -177 -92 -406 -291 -406c-115 0 -188 62 -188 163c0 25 6 55 11 82l16 87c15 76 24 135 20 168h139c7 -13 8 -46 -1 -93l-27 -142c-4 -26 -11 -58 -11 -77c0 -42 27 -71 62 -71c81 0 129 163 129 304c0 36 -3 65 -6 79z" />
    <glyph glyph-name="phi" unicode="&#x3c6;" horiz-adv-x="685" 
d="M248 88l42 230c23 128 95 182 178 182c105 0 186 -84 186 -200c0 -194 -154 -310 -298 -311l-35 -187h-127l35 187c-95 12 -200 81 -200 214c0 175 130 274 211 297l49 -70c-47 -27 -121 -100 -121 -217c0 -63 29 -111 80 -125zM425 358l-51 -270c84 8 141 102 141 207
c0 59 -24 104 -57 104c-16 0 -28 -14 -33 -41z" />
    <glyph glyph-name="chi" unicode="&#x3c7;" horiz-adv-x="471" 
d="M39 489h149l34 -135c8 -33 15 -65 22 -99h5c14 28 29 58 48 91c27 48 54 96 81 143h144c-75 -114 -150 -229 -226 -344l101 -340l-139 -30l-36 140c-11 39 -21 77 -30 122h-6c-15 -29 -30 -56 -53 -97c-32 -54 -66 -113 -98 -165l-119 42c77 116 151 226 228 341z" />
    <glyph glyph-name="psi" unicode="&#x3c8;" horiz-adv-x="691" 
d="M525 489h130c8 -23 14 -55 14 -99c0 -225 -116 -391 -310 -401l-34 -187h-130l35 187c-98 8 -190 65 -190 190c0 22 3 55 8 84l18 97c10 52 17 97 16 129h129c9 -14 8 -47 0 -93l-24 -128c-5 -30 -8 -55 -8 -85c0 -60 30 -89 71 -92l98 526h128l-98 -527
c78 2 154 108 154 315c0 41 -4 70 -7 84z" />
    <glyph glyph-name="omega" unicode="&#x3c9;" horiz-adv-x="717" 
d="M508 491h128c23 -28 48 -92 48 -170c0 -177 -101 -332 -241 -332c-57 0 -100 29 -117 78h-4c-29 -44 -73 -78 -138 -78c-84 0 -156 63 -156 193c0 139 77 264 127 309h137v-3c-52 -54 -118 -169 -118 -291c0 -56 19 -86 46 -86c32 0 54 39 62 92l30 167h132l-30 -146
c-4 -23 -9 -45 -9 -61c0 -26 11 -52 39 -52c55 0 99 115 99 233c0 55 -12 109 -35 144v3z" />
    <glyph glyph-name="uni03C2" unicode="&#x3c2;" horiz-adv-x="443" 
d="M293 -153l-87 31c14 21 37 71 44 99c-21 3 -54 12 -84 23c-56 21 -143 79 -143 201c0 154 125 300 308 300c56 0 93 -11 120 -26l-38 -103c-20 11 -50 17 -81 17c-83 0 -159 -71 -159 -166c0 -70 39 -103 91 -123c37 -14 81 -22 128 -30c5 -1 7 -5 7 -12
c0 -49 -57 -162 -106 -211z" />
    <glyph glyph-name="alphatonos" unicode="&#x3ac;" horiz-adv-x="576" 
d="M375 700h140l-130 -152h-104zM362 77h-2c-44 -60 -103 -88 -169 -88c-92 0 -163 68 -163 184c0 199 145 328 257 328c66 0 108 -25 128 -73l3 -1c7 23 15 43 23 62h122c-8 -31 -19 -73 -27 -109c-16 -71 -32 -144 -45 -208c-11 -58 5 -73 32 -71l-26 -105
c-11 -4 -23 -7 -45 -7c-53 0 -83 31 -88 88zM177 190c0 -52 26 -87 70 -87c46 0 87 49 104 95c5 16 10 34 13 53c3 16 6 38 6 50c0 52 -24 90 -71 90c-64 0 -122 -101 -122 -201z" />
    <glyph glyph-name="epsilontonos" unicode="&#x3ad;" horiz-adv-x="437" 
d="M302 700h139l-130 -152h-103zM346 207h-46c-68 0 -129 -15 -129 -62c0 -31 40 -47 88 -47c46 0 97 13 132 28l5 -98c-57 -32 -134 -39 -185 -39c-105 0 -198 36 -198 126c0 81 65 131 125 142l1 4c-51 16 -75 50 -75 90c0 77 84 149 228 149c67 0 117 -14 148 -37
l-34 -90c-21 13 -62 25 -104 25c-58 0 -92 -24 -92 -52c0 -30 38 -45 110 -45h42z" />
    <glyph glyph-name="etatonos" unicode="&#x3ae;" horiz-adv-x="563" 
d="M362 700h140l-130 -152h-104zM219 408h2c46 63 106 92 171 92c79 0 126 -49 126 -134c0 -22 -4 -61 -8 -82l-58 -302c-12 -66 -25 -140 -22 -180h-136c-9 22 1 107 15 181l54 288c2 14 5 36 5 54c0 35 -12 59 -48 59c-47 0 -102 -59 -122 -167l-41 -217h-144l62 330
c11 62 20 119 15 159h126c6 -19 7 -49 3 -81z" />
    <glyph glyph-name="iotatonos" unicode="&#x3af;" horiz-adv-x="265" 
d="M224 700h140l-131 -152h-103zM243 489l-64 -338c-7 -37 4 -52 35 -49l-27 -105c-13 -4 -33 -8 -58 -8c-57 0 -101 21 -101 97c0 24 5 51 10 78l62 325h143z" />
    <glyph glyph-name="iotadieresis" unicode="&#x3ca;" horiz-adv-x="265" 
d="M81 546c-34 0 -64 25 -64 64c0 44 33 73 73 73c39 0 63 -28 63 -64c0 -44 -32 -73 -72 -73zM285 546c-34 0 -64 25 -64 64c0 44 33 73 73 73c39 0 64 -28 64 -64c0 -44 -33 -73 -73 -73zM243 489l-65 -338c-7 -36 3 -51 36 -49l-28 -105c-13 -4 -33 -8 -57 -8
c-60 0 -101 24 -101 96c0 24 4 51 10 79l61 325h144z" />
    <glyph glyph-name="omicrontonos" unicode="&#x3cc;" horiz-adv-x="559" 
d="M354 700h140l-131 -152h-103zM236 -11c-125 0 -208 81 -208 203c0 169 118 309 292 309c132 0 208 -90 208 -202c0 -179 -123 -310 -292 -310zM256 99c78 0 123 116 123 199c0 45 -20 93 -77 93c-83 0 -125 -121 -125 -197c0 -57 29 -95 79 -95z" />
    <glyph glyph-name="upsilontonos" unicode="&#x3cd;" horiz-adv-x="536" 
d="M322 700h140l-130 -152h-104zM368 489h133c8 -19 14 -51 14 -91c0 -180 -92 -409 -292 -409c-114 0 -187 61 -187 164c0 26 6 54 12 83l16 85c14 73 24 135 19 168h139c7 -13 8 -46 -1 -93l-26 -142c-6 -33 -12 -59 -12 -76c0 -44 26 -72 62 -72c80 0 129 168 129 304
c0 36 -3 65 -6 79z" />
    <glyph glyph-name="upsilondieresis" unicode="&#x3cb;" horiz-adv-x="536" 
d="M200 546c-34 0 -64 25 -64 64c0 44 33 73 73 73c39 0 64 -28 64 -64c0 -44 -33 -73 -73 -73zM404 546c-34 0 -64 25 -64 64c0 44 33 73 73 73c39 0 64 -28 64 -64c0 -44 -33 -73 -73 -73zM367 489h134c8 -19 14 -51 14 -91c0 -180 -92 -409 -292 -409
c-114 0 -187 59 -187 165c0 24 5 50 12 82l16 85c14 73 24 135 19 168h139c7 -13 8 -46 -1 -93l-26 -142c-6 -30 -12 -61 -12 -76c0 -44 26 -72 62 -72c80 0 129 168 129 304c0 36 -3 65 -7 79z" />
    <glyph glyph-name="omegatonos" unicode="&#x3ce;" horiz-adv-x="716" 
d="M436 700h139l-130 -152h-103zM508 491h128c23 -28 48 -92 48 -170c0 -177 -101 -332 -241 -332c-57 0 -100 29 -117 78h-4c-29 -44 -73 -78 -138 -78c-84 0 -156 63 -156 193c0 139 77 264 127 309h137v-3c-52 -54 -118 -169 -118 -291c0 -56 19 -86 46 -86
c32 0 54 39 62 92l30 167h132l-30 -146c-4 -23 -9 -45 -9 -61c0 -26 11 -52 39 -52c55 0 99 115 99 233c0 55 -12 109 -35 144v3z" />
    <glyph glyph-name="iotadieresistonos" unicode="&#x390;" horiz-adv-x="265" 
d="M243 489l-64 -339c-7 -37 3 -50 35 -48l-27 -105c-13 -4 -33 -8 -57 -8c-60 0 -102 23 -102 98c0 21 4 48 10 77l61 325h144zM182 711h114l-96 -168h-78zM45 554c-30 0 -57 21 -57 56c0 38 29 64 65 64c34 0 56 -25 56 -56c0 -39 -29 -64 -64 -64zM347 554
c-31 0 -57 21 -57 56c0 38 29 64 65 64c34 0 56 -25 56 -56c0 -39 -29 -64 -64 -64z" />
    <glyph glyph-name="upsilondieresistonos" unicode="&#x3b0;" horiz-adv-x="536" 
d="M368 489h133c8 -19 14 -51 14 -91c0 -180 -92 -409 -292 -409c-114 0 -187 61 -187 164c0 21 6 53 12 83l16 85c14 73 24 135 19 168h139c7 -13 8 -46 -1 -93l-26 -142c-6 -28 -12 -59 -12 -76c0 -43 26 -72 62 -72c80 0 129 168 129 304c0 36 -3 65 -6 79zM293 711h114
l-97 -168h-79zM155 554c-31 0 -57 21 -57 56c0 38 29 64 65 64c34 0 56 -25 56 -56c0 -39 -29 -64 -64 -64zM457 554c-31 0 -57 21 -57 56c0 38 29 64 65 64c34 0 56 -25 56 -56c0 -39 -29 -64 -64 -64z" />
    <glyph glyph-name="uni037E" unicode="&#x37e;" horiz-adv-x="267" 
d="M62 -110l-104 -9c40 89 80 193 98 278l155 4c-38 -90 -96 -195 -149 -273zM160 287c-49 0 -83 37 -83 86c0 56 41 105 101 105c49 0 85 -37 85 -88c0 -60 -43 -103 -103 -103z" />
    <glyph glyph-name="anoteleia" unicode="&#x387;" horiz-adv-x="267" 
d="M130 218c-50 0 -84 37 -84 87c0 57 42 106 101 106c52 0 87 -36 87 -89c0 -61 -43 -104 -104 -104z" />
    <glyph glyph-name="tonos" unicode="&#x384;" horiz-adv-x="336" 
d="M274 700h140l-130 -152h-104z" />
    <glyph glyph-name="dieresistonos" unicode="&#x385;" horiz-adv-x="435" 
d="M250 715h114l-97 -168h-78zM112 558c-31 0 -59 22 -59 58c0 40 30 67 68 67c35 0 58 -26 58 -59c0 -40 -30 -66 -67 -66zM414 558c-31 0 -59 22 -59 58c0 40 30 67 68 67c35 0 58 -26 58 -59c0 -40 -30 -66 -67 -66z" />
    <glyph glyph-name="dieresis_acutecomb" unicode="&#xf6d7;" 
d="M116 560c-28 0 -59 19 -59 59c0 41 31 68 67 68s58 -26 58 -59c0 -44 -33 -68 -66 -68zM264 704h127l-119 -151h-91zM440 561c-29 0 -60 18 -60 58c0 41 31 69 67 69s58 -26 58 -59c0 -44 -33 -68 -65 -68z" />
    <glyph glyph-name="dieresis_gravecomb" unicode="&#xf6d8;" 
d="M106 560c-29 0 -59 18 -59 58s30 67 67 67c35 0 57 -26 57 -58c0 -43 -32 -67 -65 -67zM168 704h124l63 -151h-86zM423 561c-28 0 -59 18 -59 58c0 39 30 67 67 67c35 0 57 -26 57 -58c0 -43 -32 -67 -65 -67z" />
    <glyph glyph-name="space_uni030F" unicode="&#xf6d6;" 
d="M58 696h124l77 -149h-85zM260 696h123l78 -149h-85z" />
    <glyph glyph-name="dieresis_acutecomb.cap" unicode="&#xf6cc;" 
d="M133 713c-29 0 -59 19 -59 58s30 67 67 67c36 0 58 -26 58 -58c0 -43 -33 -67 -66 -67zM283 847h147l-116 -137h-111zM492 713c-28 0 -59 19 -59 58s30 67 67 67c36 0 58 -26 58 -58c0 -43 -32 -67 -66 -67z" />
    <glyph glyph-name="dieresis_gravecomb.cap" unicode="&#xf6cd;" 
d="M98 713c-28 0 -58 19 -58 58s30 67 67 67c35 0 57 -26 57 -58c0 -43 -33 -67 -66 -67zM169 847h149l74 -135h-102zM459 713c-28 0 -59 19 -59 58s30 67 67 67c35 0 57 -26 57 -58c0 -43 -32 -67 -65 -67z" />
    <glyph glyph-name="space_uni030F.cap" unicode="&#xf6d3;" horiz-adv-x="396" 
d="M64 835h146l82 -123h-100zM275 835h146l82 -123h-100z" />
    <glyph glyph-name="o.superior" horiz-adv-x="383" 
d="M247 591c89 0 149 -55 149 -139c0 -116 -82 -191 -196 -191c-85 0 -146 58 -146 137c0 115 82 193 193 193zM238 517c-48 0 -76 -68 -76 -121c0 -36 20 -61 50 -61c46 0 76 64 76 123c0 31 -13 59 -50 59z" />
    <glyph glyph-name="uni0401" unicode="&#x401;" horiz-adv-x="517" 
d="M480 407l-23 -121h-239l-32 -163h269l-23 -123h-413l128 674h398l-24 -123h-253l-28 -144h240zM255 711c-33 0 -64 25 -64 64c0 43 33 73 73 73c38 0 64 -29 64 -64c0 -44 -34 -73 -73 -73zM462 711c-33 0 -64 25 -64 64c0 43 33 73 73 73c38 0 64 -29 64 -64
c0 -44 -34 -73 -73 -73z" />
    <glyph glyph-name="uni0402" unicode="&#x402;" horiz-adv-x="692" 
d="M93 674h533l-25 -125h-220l-23 -122h2c23 12 59 24 103 24c121 0 186 -91 186 -219c0 -109 -38 -209 -101 -275c-58 -61 -138 -98 -206 -106l-22 123c43 8 81 28 111 59c41 42 64 109 64 179c0 66 -26 120 -91 120c-23 0 -49 -9 -67 -20l-58 -312h-142l102 549h-172z" />
    <glyph glyph-name="uni0403" unicode="&#x403;" horiz-adv-x="457" 
d="M147 674h376l-24 -126h-232l-104 -548h-144zM358 836h160l-132 -126h-123z" />
    <glyph glyph-name="uni0404" unicode="&#x404;" horiz-adv-x="565" 
d="M612 655l-41 -116c-26 13 -75 25 -127 24c-113 -1 -201 -66 -228 -170h278l-18 -114h-271c-1 -5 -1 -12 -1 -19c1 -69 54 -150 172 -150c57 0 103 12 137 26l11 -115c-37 -18 -113 -32 -180 -32c-194 0 -295 124 -295 292c0 130 50 239 139 312c72 59 163 91 268 91
c80 0 131 -17 156 -29z" />
    <glyph glyph-name="uni0405" unicode="&#x405;" horiz-adv-x="510" 
d="M0 37l48 119c40 -24 97 -43 159 -43c56 0 107 26 107 78c0 39 -29 63 -91 96c-71 38 -139 91 -139 178c0 137 118 219 265 219c82 0 130 -18 159 -33l-45 -120c-22 12 -70 30 -125 29c-68 0 -103 -33 -103 -70c0 -39 41 -64 98 -96c82 -42 134 -97 134 -178
c0 -150 -124 -228 -274 -227c-94 1 -161 25 -193 48z" />
    <glyph glyph-name="uni0406" unicode="&#x406;" horiz-adv-x="274" 
d="M144 674h144l-128 -674h-144z" />
    <glyph glyph-name="uni0407" unicode="&#x407;" horiz-adv-x="274" 
d="M143 674h145l-128 -674h-144zM121 711c-33 0 -64 25 -64 64c0 43 33 73 73 73c38 0 64 -29 64 -64c0 -44 -34 -73 -73 -73zM328 711c-33 0 -64 25 -64 64c0 43 33 73 73 73c38 0 64 -29 64 -64c0 -44 -34 -73 -73 -73z" />
    <glyph glyph-name="uni0408" unicode="&#x408;" horiz-adv-x="399" 
d="M194 247l81 427h144l-85 -445c-33 -171 -106 -240 -259 -240c-42 0 -89 7 -111 16l28 123c21 -7 48 -12 80 -12c63 0 103 31 122 131z" />
    <glyph glyph-name="uni0409" unicode="&#x409;" horiz-adv-x="919" 
d="M213 674h424l-46 -235c20 4 47 6 74 6c125 0 219 -64 219 -196c0 -72 -27 -126 -68 -166c-69 -67 -183 -90 -285 -90c-72 0 -133 5 -164 10l103 548h-143l-32 -161c-25 -130 -61 -268 -143 -341c-41 -36 -100 -60 -172 -60l-13 121c34 1 75 18 98 42c44 45 79 152 93 228
zM569 326l-41 -217c16 -2 29 -2 50 -2c72 0 153 42 153 124c0 68 -48 100 -109 100c-19 0 -38 -2 -53 -5z" />
    <glyph glyph-name="uni040A" unicode="&#x40a;" horiz-adv-x="928" 
d="M148 674h144l-49 -256h212l48 256h144l-48 -244c21 5 48 7 74 7c121 0 221 -62 221 -195c0 -67 -26 -120 -68 -160c-68 -67 -182 -89 -285 -89c-71 0 -133 5 -164 10l56 297h-213l-56 -300h-144zM577 318l-39 -209c16 -2 30 -2 51 -2c74 0 152 42 152 119
c0 68 -53 97 -112 97c-18 0 -37 -2 -52 -5z" />
    <glyph glyph-name="uni040B" unicode="&#x40b;" horiz-adv-x="695" 
d="M92 674h526l-25 -124h-216l-28 -143h3c33 21 81 41 139 40c102 0 147 -61 146 -152c-1 -33 -6 -70 -12 -104l-33 -191h-144l34 184c4 22 8 50 8 75c0 36 -19 69 -73 69c-37 0 -71 -19 -90 -36l-54 -292h-142l103 550h-167z" />
    <glyph glyph-name="uni040C" unicode="&#x40c;" horiz-adv-x="585" 
d="M147 674h142l-55 -284h16l230 284h177l-282 -305c67 -30 94 -111 113 -208c16 -77 25 -126 40 -161h-149c-11 29 -23 91 -35 154c-16 81 -37 131 -111 131h-18l-54 -285h-142zM396 836h160l-132 -126h-122z" />
    <glyph glyph-name="uni040E" unicode="&#x40e;" horiz-adv-x="556" 
d="M75 674h159l58 -242c11 -41 20 -85 30 -132h4c19 49 34 89 56 140l99 234h167l-182 -351c-56 -109 -111 -215 -186 -279c-44 -39 -98 -55 -150 -55c-34 0 -68 5 -92 17l25 117c14 -5 36 -8 56 -8c42 0 75 31 93 62c9 15 10 29 4 47zM236 836h101c-4 -36 7 -60 39 -60
s49 23 58 60h102c-18 -79 -78 -122 -168 -122c-93 0 -134 44 -132 122z" />
    <glyph glyph-name="uni040F" unicode="&#x40f;" horiz-adv-x="648" 
d="M146 674h145l-105 -551h227l105 551h144l-127 -674h-190l-45 -185h-114l29 185h-196z" />
    <glyph glyph-name="uni0410" unicode="&#x410;" horiz-adv-x="618" 
d="M399 175h-194l-79 -175h-154l328 674h185l79 -674h-152zM247 285h146l-14 145c-2 37 -6 91 -9 132h-2c-17 -41 -37 -93 -54 -132z" />
    <glyph glyph-name="uni0411" unicode="&#x411;" horiz-adv-x="573" 
d="M146 674h410l-22 -124h-267l-23 -121c20 4 50 7 75 7c119 0 216 -63 216 -193c0 -80 -35 -139 -86 -178c-68 -53 -165 -72 -259 -72c-70 0 -139 5 -170 10zM223 322l-40 -215c16 -3 31 -3 51 -3c70 0 149 42 149 123c0 65 -44 100 -107 100c-17 0 -38 -2 -53 -5z" />
    <glyph glyph-name="uni0412" unicode="&#x412;" horiz-adv-x="586" 
d="M20 7l124 656c48 10 111 16 177 16c71 0 122 -9 167 -35c45 -23 78 -67 78 -124c0 -85 -62 -139 -136 -160v-3c65 -20 106 -73 106 -147c0 -73 -39 -125 -92 -160c-57 -39 -142 -55 -254 -55c-76 0 -137 5 -170 12zM268 563l-30 -157h48c79 0 133 34 133 92
c0 48 -39 69 -94 69c-25 0 -46 -2 -57 -4zM216 301l-36 -191c17 -2 34 -2 55 -2c78 0 149 31 149 106c0 67 -56 87 -123 87h-45z" />
    <glyph glyph-name="uni0413" unicode="&#x413;" horiz-adv-x="457" 
d="M147 674h376l-24 -126h-232l-104 -548h-144z" />
    <glyph glyph-name="uni0414" unicode="&#x414;" horiz-adv-x="660" 
d="M231 674h420l-105 -557l64 -4l-66 -284h-116l25 171h-358l-45 -171h-114l49 284l53 5c38 55 72 114 98 175c27 65 47 133 61 204zM339 551l-18 -94c-13 -65 -32 -132 -57 -193c-21 -51 -46 -99 -77 -144h217l80 431h-145z" />
    <glyph glyph-name="uni0415" unicode="&#x415;" horiz-adv-x="517" 
d="M481 407l-24 -121h-239l-31 -163h269l-23 -123h-414l128 674h399l-24 -123h-254l-28 -144h241z" />
    <glyph glyph-name="uni0416" unicode="&#x416;" horiz-adv-x="845" 
d="M85 674h154l116 -287h15l52 287h138l-54 -288h16l218 288h163l-272 -305c80 -27 104 -121 120 -206c9 -62 18 -116 36 -163h-145c-16 48 -25 103 -34 162c-12 78 -38 126 -102 126h-16l-54 -288h-139l55 289h-16c-65 0 -107 -52 -140 -124c-30 -61 -50 -116 -80 -165
h-152c34 51 59 116 89 179c57 119 101 169 196 191z" />
    <glyph glyph-name="uni0417" unicode="&#x417;" horiz-adv-x="507" 
d="M135 294l19 109h46c71 0 141 26 139 94c0 46 -37 69 -82 69c-50 0 -99 -18 -136 -37l-29 102c43 27 113 53 197 53c101 0 200 -45 200 -162c0 -89 -70 -150 -149 -168l-1 -2c69 -15 121 -70 121 -149c0 -147 -138 -214 -275 -214c-69 0 -145 19 -196 54l44 109
c29 -17 89 -41 150 -41c65 0 128 31 128 97c0 64 -71 87 -123 86h-53z" />
    <glyph glyph-name="uni0418" unicode="&#x418;" horiz-adv-x="659" 
d="M147 674h136l-39 -206c-20 -105 -42 -201 -66 -294l3 -1c51 86 103 161 153 234l183 267h156l-128 -674h-136l40 206c19 100 34 177 58 269h-3c-44 -80 -94 -157 -146 -233l-171 -242h-168z" />
    <glyph glyph-name="uni0419" unicode="&#x419;" horiz-adv-x="659" 
d="M147 674h137l-40 -206c-20 -105 -42 -201 -65 -294l3 -1c50 86 103 161 152 234l183 267h156l-128 -674h-136l40 206c20 100 34 177 58 269h-3c-43 -80 -94 -157 -146 -233l-170 -242h-168zM285 833h101c-4 -36 7 -60 39 -60s49 23 58 60h102c-18 -79 -78 -122 -168 -122
c-93 0 -134 44 -132 122z" />
    <glyph glyph-name="uni041A" unicode="&#x41a;" horiz-adv-x="585" 
d="M147 674h142l-55 -284h16l230 284h177l-282 -305c67 -30 94 -111 113 -208c16 -77 25 -126 40 -161h-149c-11 29 -23 91 -35 154c-16 81 -37 131 -111 131h-18l-54 -285h-142z" />
    <glyph glyph-name="uni041B" unicode="&#x41b;" horiz-adv-x="637" 
d="M212 674h439l-128 -674h-144l105 551h-158l-32 -163c-33 -169 -70 -271 -139 -334c-41 -40 -99 -64 -174 -65l-14 121c44 4 75 20 100 46c41 44 71 124 89 223z" />
    <glyph glyph-name="uni041C" unicode="&#x41c;" horiz-adv-x="821" 
d="M722 0h-140l41 278c11 73 26 166 45 263h-3c-37 -87 -79 -180 -116 -254l-138 -276h-112l-24 273c-6 74 -11 167 -15 257h-2c-19 -89 -39 -190 -56 -263l-67 -278h-132l169 674h193l21 -256c4 -63 11 -140 12 -215h4c26 75 62 154 91 215l125 256h195z" />
    <glyph glyph-name="uni041D" unicode="&#x41d;" horiz-adv-x="666" 
d="M147 674h144l-50 -263h244l50 263h145l-128 -674h-144l53 283h-245l-53 -283h-144z" />
    <glyph glyph-name="uni041E" unicode="&#x41e;" horiz-adv-x="705" 
d="M321 -11c-175 0 -273 124 -273 281c0 121 45 240 122 317c63 61 150 98 248 98c178 0 272 -120 272 -281c0 -122 -43 -242 -119 -317c-62 -62 -148 -98 -250 -98zM342 109c116 0 195 164 195 291c0 84 -30 165 -136 165c-121 0 -200 -162 -200 -290
c0 -95 43 -166 141 -166z" />
    <glyph glyph-name="uni041F" unicode="&#x41f;" horiz-adv-x="652" 
d="M147 674h519l-128 -674h-144l105 551h-230l-106 -551h-144z" />
    <glyph glyph-name="uni0420" unicode="&#x420;" horiz-adv-x="559" 
d="M19 0l125 662c44 11 111 17 176 17c61 0 130 -10 179 -44c46 -31 73 -79 73 -144c0 -84 -39 -149 -91 -189c-55 -43 -134 -63 -216 -63c-24 0 -44 3 -59 4l-46 -243h-141zM266 560l-38 -199c15 -3 31 -5 56 -5c86 0 143 55 143 123c0 64 -47 85 -102 85
c-27 0 -47 -2 -59 -4z" />
    <glyph glyph-name="uni0421" unicode="&#x421;" horiz-adv-x="582" 
d="M512 135l12 -116c-36 -16 -96 -29 -177 -29c-179 0 -298 109 -298 286c0 151 68 269 170 337c70 48 152 71 247 71c73 0 128 -17 148 -28l-40 -117c-19 9 -64 22 -122 22s-113 -18 -154 -52c-56 -47 -93 -123 -93 -217c0 -107 61 -179 179 -179c48 0 95 8 128 22z" />
    <glyph glyph-name="uni0422" unicode="&#x422;" horiz-adv-x="527" 
d="M141 0l104 548h-178l25 126h501l-24 -126h-180l-104 -548h-144z" />
    <glyph glyph-name="uni0423" unicode="&#x423;" horiz-adv-x="556" 
d="M75 674h159l58 -242c11 -41 20 -85 30 -132h3c20 49 35 89 56 140l100 234h167l-182 -351c-56 -109 -111 -215 -186 -279c-44 -39 -98 -55 -151 -55c-34 0 -67 5 -91 17l25 117c14 -5 36 -8 56 -8c42 0 75 31 93 62c9 15 10 29 4 47z" />
    <glyph glyph-name="uni0424" unicode="&#x424;" horiz-adv-x="774" 
d="M268 -29l11 64c-113 22 -226 105 -226 265c0 247 201 344 342 346l11 56h135l-11 -59c115 -20 226 -103 226 -270c0 -236 -182 -339 -342 -341l-11 -61h-135zM299 139l76 404c-84 -5 -176 -99 -176 -243c0 -90 44 -146 100 -161zM510 540l-76 -405c91 6 176 93 176 249
c0 89 -40 144 -100 156z" />
    <glyph glyph-name="uni0425" unicode="&#x425;" horiz-adv-x="569" 
d="M517 0h-153l-46 136c-13 41 -24 73 -36 115h-2c-22 -38 -40 -72 -68 -120l-80 -131h-173l252 344l-118 330h152l41 -129c12 -42 21 -72 31 -112h3c25 46 42 78 64 114l78 127h172l-246 -331z" />
    <glyph glyph-name="uni0426" unicode="&#x426;" horiz-adv-x="668" 
d="M147 674h144l-105 -551h227l105 551h144l-105 -557l63 -4l-66 -284h-115l25 171h-445z" />
    <glyph glyph-name="uni0427" unicode="&#x427;" horiz-adv-x="602" 
d="M131 674h144l-37 -191c-3 -15 -7 -37 -7 -56c0 -50 32 -73 90 -73c39 0 76 12 96 24l56 296h143l-128 -675h-144l51 264l-3 1c-31 -16 -81 -27 -132 -27c-110 0 -178 57 -178 154c0 24 5 52 10 81z" />
    <glyph glyph-name="uni0428" unicode="&#x428;" horiz-adv-x="875" 
d="M147 674h141l-105 -551h160l105 551h140l-104 -551h159l105 551h141l-128 -674h-742z" />
    <glyph glyph-name="uni0429" unicode="&#x429;" horiz-adv-x="895" 
d="M148 674h141l-105 -551h160l105 551h140l-104 -551h159l105 551h141l-106 -557l64 -4l-66 -284h-116l25 171h-671z" />
    <glyph glyph-name="uni042A" unicode="&#x42a;" horiz-adv-x="685" 
d="M91 674h312l-47 -235c20 3 46 6 72 6c129 0 222 -67 222 -198c0 -69 -26 -123 -66 -163c-69 -68 -183 -91 -289 -91c-71 0 -132 5 -162 10l103 546h-169zM334 325l-41 -215c17 -3 31 -3 51 -3c72 0 152 41 152 122c0 66 -45 102 -109 102c-21 0 -40 -3 -53 -6z" />
    <glyph glyph-name="uni042B" unicode="&#x42b;" horiz-adv-x="816" 
d="M145 674h144l-47 -236c20 4 49 7 76 7c114 0 209 -65 209 -197c0 -70 -26 -124 -67 -165c-73 -73 -182 -90 -278 -90c-72 0 -132 5 -163 10zM220 325l-40 -215c11 -3 29 -3 50 -3c65 0 143 40 143 122c0 66 -41 102 -100 102c-18 0 -38 -3 -53 -6zM679 674h150l-129 -674
h-150z" />
    <glyph glyph-name="uni042C" unicode="&#x42c;" horiz-adv-x="572" 
d="M146 674h143l-46 -236c19 4 47 7 75 7c124 0 219 -65 219 -198c0 -69 -26 -122 -65 -161c-70 -69 -184 -93 -290 -93c-71 0 -132 5 -162 10zM221 325l-41 -215c16 -3 31 -3 51 -3c71 0 152 40 152 122c0 67 -45 102 -110 102c-18 0 -38 -3 -52 -6z" />
    <glyph glyph-name="uni042D" unicode="&#x42d;" horiz-adv-x="575" 
d="M109 278l21 115h276c1 5 1 10 1 16c-2 81 -57 154 -162 154c-42 0 -89 -9 -130 -25l-28 109c40 19 105 38 178 38c181 0 292 -121 292 -303c0 -114 -37 -220 -112 -294c-67 -65 -158 -99 -277 -99c-77 0 -147 21 -178 39l36 114c41 -21 90 -30 140 -30
c120 0 200 72 222 166h-279z" />
    <glyph glyph-name="uni042E" unicode="&#x42e;" horiz-adv-x="939" 
d="M147 674h144l-50 -264h88c19 68 52 130 98 177c60 61 143 98 236 98c170 0 262 -120 262 -281c0 -122 -42 -241 -115 -317c-59 -62 -141 -98 -237 -98c-165 0 -260 127 -260 259c0 12 1 24 3 37h-99l-53 -285h-144zM591 108c111 0 183 165 183 291c0 84 -27 167 -127 167
c-115 0 -190 -163 -190 -291c0 -95 40 -167 134 -167z" />
    <glyph glyph-name="uni042F" unicode="&#x42f;" horiz-adv-x="572" 
d="M586 662l-123 -662h-144l51 269h-27c-82 0 -123 -85 -154 -147c-19 -42 -40 -86 -64 -122h-158c30 45 55 100 81 151c36 71 81 144 151 165v4c-49 13 -111 59 -111 148c0 71 37 128 90 162c57 36 128 49 216 49c70 0 149 -7 192 -17zM390 375l34 188c-12 2 -33 4 -53 4
c-73 0 -134 -33 -134 -106c0 -58 51 -88 108 -88c15 0 33 1 45 2z" />
    <glyph glyph-name="uni0430" unicode="&#x430;" horiz-adv-x="554" 
d="M469 0h-132c1 29 3 62 6 97h-2c-47 -81 -110 -108 -167 -108c-88 0 -148 68 -148 170c0 165 110 341 351 341c58 0 121 -11 161 -24l-49 -256c-12 -63 -22 -159 -20 -220zM355 274l21 113c-11 2 -24 4 -38 4c-94 0 -162 -114 -162 -205c0 -48 19 -81 59 -81
c44 0 98 49 120 169z" />
    <glyph glyph-name="uni0431" unicode="&#x431;" horiz-adv-x="557" 
d="M572 719l-21 -120c-27 -8 -57 -11 -86 -14c-75 -8 -149 -13 -212 -73c-31 -29 -58 -77 -67 -115h4c40 56 96 92 166 92c110 0 172 -84 172 -192c-1 -161 -112 -308 -284 -308c-123 0 -199 86 -199 239c0 141 42 269 125 355c89 93 184 110 305 120c35 3 71 7 97 16z
M261 95c83 0 118 118 118 192c0 46 -19 99 -71 99c-30 0 -58 -19 -78 -46c-27 -35 -43 -86 -43 -139c0 -55 22 -106 74 -106z" />
    <glyph glyph-name="uni0432" unicode="&#x432;" horiz-adv-x="533" 
d="M319 501c107 0 176 -39 176 -121c0 -64 -63 -103 -114 -116v-2c51 -6 102 -39 102 -102c0 -129 -151 -170 -258 -170c-126 0 -192 48 -192 151c0 90 39 250 127 314c43 30 95 46 159 46zM306 403c-64 0 -91 -63 -106 -117c39 6 82 13 115 28c23 11 42 27 42 50
c0 24 -21 39 -51 39zM263 209c-29 0 -61 -8 -80 -15c-3 -13 -6 -31 -6 -46c0 -34 17 -59 65 -59c56 0 95 28 95 67c0 41 -35 53 -74 53z" />
    <glyph glyph-name="uni0433" unicode="&#x433;" horiz-adv-x="421" 
d="M104 369l-14 96c38 20 97 35 157 35c107 -1 163 -52 163 -135c0 -85 -75 -128 -166 -166c-53 -23 -90 -42 -90 -70c0 -20 14 -34 50 -34c51 0 102 21 135 37l15 -101c-45 -24 -113 -41 -172 -41c-109 1 -176 46 -176 134c0 102 88 139 173 174c49 20 91 38 91 64
c0 19 -19 32 -53 32c-41 0 -81 -12 -113 -25z" />
    <glyph glyph-name="uni0434" unicode="&#x434;" horiz-adv-x="553" 
d="M140 601l-2 118c43 -12 103 -10 146 -14c74 -8 130 -26 172 -65c58 -49 79 -132 79 -226c0 -187 -83 -425 -307 -425c-124 0 -199 76 -199 203c0 144 101 298 257 298c66 0 108 -32 129 -81h3c1 10 1 22 1 30c1 36 -12 80 -43 106c-32 31 -79 41 -140 45
c-30 3 -60 4 -96 11zM250 95c77 0 118 122 119 187c0 48 -18 100 -72 100c-81 0 -120 -116 -119 -193c0 -49 20 -94 72 -94z" />
    <glyph glyph-name="uni0435" unicode="&#x435;" horiz-adv-x="501" 
d="M412 132l10 -104c-57 -29 -128 -39 -183 -39c-139 0 -211 79 -211 207c0 149 108 304 285 304c99 0 170 -56 170 -147c0 -124 -121 -169 -318 -164c1 -14 6 -36 16 -50c19 -25 52 -38 94 -38c53 0 98 12 137 31zM348 354c0 24 -20 41 -53 41c-67 0 -106 -56 -116 -101
c113 -1 169 14 169 60z" />
    <glyph glyph-name="uni0436" unicode="&#x436;" horiz-adv-x="726" 
d="M54 489h155l76 -202h14l38 202h136l-41 -202h15l157 202h160l-201 -215c48 -16 71 -86 81 -144c8 -41 16 -93 28 -130h-139c-11 31 -16 73 -22 106c-9 50 -23 99 -76 99h-17l-38 -205h-137l41 205h-13c-54 0 -87 -35 -112 -89c-21 -43 -36 -82 -57 -116h-142
c23 40 39 83 62 131c34 73 85 135 151 142z" />
    <glyph glyph-name="uni0437" unicode="&#x437;" horiz-adv-x="461" 
d="M98 206l14 93h57c48 0 102 14 102 51c0 32 -31 47 -70 47c-38 0 -86 -13 -121 -31l-24 87c49 27 115 45 178 45c80 0 189 -24 189 -126c0 -68 -63 -104 -125 -116l-1 -1c54 -9 111 -45 111 -113c0 -118 -136 -151 -233 -151c-72 0 -140 14 -194 49l37 96
c39 -23 92 -40 141 -40c46 0 97 17 97 56c0 41 -47 54 -100 54h-58z" />
    <glyph glyph-name="uni0438" unicode="&#x438;" horiz-adv-x="560" 
d="M103 489h144l-50 -262c-4 -23 -7 -47 -7 -65c0 -31 13 -56 49 -56c49 0 99 59 118 156l43 227h143l-62 -330c-11 -62 -20 -115 -26 -159h-127l9 80h-2c-50 -64 -109 -91 -168 -91c-79 0 -126 44 -126 137c0 26 3 56 10 90z" />
    <glyph glyph-name="uni0439" unicode="&#x439;" horiz-adv-x="560" 
d="M103 489h144l-50 -262c-4 -23 -7 -47 -7 -65c0 -31 13 -56 49 -56c49 0 99 59 118 156l43 227h143l-62 -330c-11 -62 -20 -115 -26 -159h-127l9 80h-2c-50 -64 -109 -91 -168 -91c-79 0 -126 44 -126 137c0 26 3 56 10 90zM226 692h91c-5 -40 9 -66 36 -66
c29 0 46 30 55 66h92c-18 -87 -75 -132 -156 -132c-88 0 -124 53 -118 132z" />
    <glyph glyph-name="uni043A" unicode="&#x43a;" horiz-adv-x="507" 
d="M106 489h140l-38 -201h14l164 201h169l-214 -218c46 -19 69 -73 82 -145c9 -44 19 -94 32 -126h-142c-10 25 -18 73 -28 116c-15 59 -34 88 -80 88h-13l-39 -204h-140z" />
    <glyph glyph-name="uni043B" unicode="&#x43b;" horiz-adv-x="545" 
d="M146 490h385l-93 -490h-143l71 379h-108l-19 -93c-24 -124 -56 -194 -107 -238c-36 -35 -80 -55 -152 -55l-9 113c30 3 54 13 71 30c31 28 52 81 66 153z" />
    <glyph glyph-name="uni043C" unicode="&#x43c;" horiz-adv-x="712" 
d="M130 490h181l19 -191c3 -29 6 -71 9 -115h2c12 28 39 83 64 132l91 174h183l-65 -490h-133l30 196c6 42 18 114 27 163h-4c-15 -35 -43 -91 -73 -151l-103 -200h-110l-19 194c-5 55 -10 115 -13 158h-4c-11 -53 -26 -126 -36 -167l-48 -193h-127z" />
    <glyph glyph-name="uni043D" unicode="&#x43d;" horiz-adv-x="557" 
d="M105 489h144l-34 -180h149l34 180h144l-93 -489h-144l38 198h-149l-37 -198h-144z" />
    <glyph glyph-name="uni043E" unicode="&#x43e;" horiz-adv-x="559" 
d="M236 -11c-125 0 -208 81 -208 203c0 169 118 309 292 309c132 0 208 -90 208 -202c0 -179 -123 -310 -292 -310zM256 99c78 0 123 116 123 199c0 45 -20 93 -77 93c-83 0 -125 -121 -125 -197c0 -57 29 -95 79 -95z" />
    <glyph glyph-name="uni043F" unicode="&#x43f;" horiz-adv-x="563" 
d="M156 0h-144l62 330c12 62 20 115 27 159h127l-9 -81h2c46 63 106 92 171 92c80 0 126 -49 126 -134c0 -22 -4 -58 -8 -82l-54 -284h-145l52 271c3 17 5 36 5 54c0 35 -12 59 -49 59c-47 0 -102 -59 -122 -167z" />
    <glyph glyph-name="uni0440" unicode="&#x440;" horiz-adv-x="565" 
d="M117 -198h-144l95 498c11 58 22 143 28 193h129l-9 -75h2c40 53 98 82 157 82c106 0 158 -85 158 -186c0 -169 -113 -325 -284 -325c-39 0 -73 10 -90 20h-3zM197 227l-18 -106c16 -14 37 -23 66 -23c77 0 137 109 137 205c0 39 -17 80 -63 80c-54 0 -106 -59 -122 -156z
" />
    <glyph glyph-name="uni0441" unicode="&#x441;" horiz-adv-x="433" 
d="M371 125l1 -109c-31 -15 -81 -26 -139 -26c-121 0 -206 74 -206 200c0 174 133 310 319 310c42 0 78 -8 100 -16l-36 -111c-17 7 -37 12 -66 12c-102 0 -166 -87 -166 -179c0 -67 43 -101 96 -101c42 0 72 10 97 20z" />
    </font>
</defs>
</svg>
