<?xml version="1.0" standalone="no"?>
<!DOCTYPE svg PUBLIC "-//W3C//DTD SVG 1.1//EN" "http://www.w3.org/Graphics/SVG/1.1/DTD/svg11.dtd" >
<svg>
<metadata>
Created by FontForge 20120731 at Mon Jun 26 07:08:17 2017
 By www
Copyright 1992, 1994, 1997, 2000, 2004 Adobe Systems Incorporated. All rights reserved. Protected by U.S. Patents D454,582. Myriad is either a registered trademark or a trademark of Adobe Systems Incorporated in the United States and/or other countries.
</metadata>
<defs>
<font id="MyriadPro-It" horiz-adv-x="383" >
  <font-face 
    font-family="Myriad Pro"
    font-weight="400"
    font-style="italic"
    font-stretch="normal"
    units-per-em="1000"
    panose-1="2 11 5 3 3 4 3 9 2 4"
    ascent="750"
    descent="-250"
    x-height="484"
    cap-height="674"
    bbox="-184 -250 1090 953"
    underline-thickness="50"
    underline-position="-50"
    slope="-11"
    stemh="65"
    stemv="88"
    unicode-range="U+0020-FB04"
  />
<missing-glyph horiz-adv-x="500" 
d="M0 0v700h500v-700h-500zM250 395l170 255h-340zM280 350l170 -255v510zM80 50h340l-170 255zM50 605v-510l170 255z" />
    <glyph glyph-name="f_f" unicode="ff" horiz-adv-x="561" 
d="M676 708l-18 -66c-13 6 -30 10 -49 10c-66 0 -98 -65 -112 -145l-4 -23h107l-12 -65h-108l-79 -419h-83l80 419h-196l-79 -419h-83l79 419h-64l13 65h64l4 20c11 58 32 119 73 159c28 28 66 46 117 46c25 0 46 -6 62 -15l-25 -63c-10 5 -25 9 -40 9
c-66 0 -92 -67 -105 -138l-4 -18h196l5 26c12 67 36 129 79 168c31 27 73 43 115 43c33 0 55 -7 67 -13z" />
    <glyph glyph-name="f_f_i" unicode="ffi" horiz-adv-x="777" 
d="M757 694l-26 -65c-21 11 -55 22 -96 22c-87 0 -125 -66 -138 -145l-4 -22h260l-93 -484h-82l79 419h-176l-79 -419h-83l79 419h-196l-79 -419h-83l79 419h-64l12 65h65l4 23c11 55 33 113 72 152c30 30 71 50 125 50c33 0 60 -11 76 -22l-30 -62c-14 9 -32 15 -51 15
c-26 0 -47 -9 -63 -25c-24 -24 -38 -64 -47 -111l-4 -20h197l5 24c24 132 105 212 231 212c45 0 93 -13 110 -26z" />
    <glyph glyph-name="f_f_j" unicode="ffj" horiz-adv-x="756" 
d="M757 694l-26 -65c-21 11 -55 22 -96 22c-87 0 -125 -66 -138 -145l-4 -22h260l-92 -482c-15 -81 -33 -132 -62 -164c-28 -32 -69 -47 -111 -47c-21 0 -38 1 -54 6l10 65c8 -3 21 -4 38 -4c42 0 74 26 93 126l83 435h-177l-80 -419h-82l79 419h-196l-79 -419h-83l79 419
h-64l12 65h65l4 23c11 55 33 113 72 152c30 30 71 50 125 50c33 0 60 -11 75 -22l-29 -62c-14 9 -32 15 -51 15c-26 0 -47 -9 -63 -25c-24 -24 -38 -64 -47 -111l-4 -20h197l5 24c24 132 105 212 231 212c45 0 93 -13 110 -26z" />
    <glyph glyph-name="f_f_l" unicode="ffl" horiz-adv-x="777" 
d="M411 688l-30 -62c-15 9 -33 14 -51 14c-27 0 -48 -10 -64 -26c-27 -27 -41 -70 -48 -110l-4 -20h197l4 21c11 68 39 128 94 170c38 30 92 46 149 46c48 0 104 -12 133 -31l-131 -690h-83l122 640c-12 8 -29 13 -64 13c-80 0 -122 -62 -137 -143l-5 -26h102l-13 -65h-102
l-79 -419h-83l80 419h-196l-79 -419h-83l79 419h-64l12 65h65l4 22c10 57 33 114 72 153c31 31 72 50 125 50c34 0 62 -11 78 -21z" />
    <glyph glyph-name="f_i" unicode="fi" horiz-adv-x="499" 
d="M123 0h-82l79 419h-64l12 65h65l5 24c24 132 105 212 231 212c45 0 93 -13 110 -26l-26 -65c-21 11 -55 22 -96 22c-87 0 -125 -66 -138 -145l-4 -22h260l-93 -484h-82l79 419h-177z" />
    <glyph glyph-name="f_j" unicode="fj" horiz-adv-x="478" 
d="M479 694l-26 -65c-21 11 -55 22 -96 22c-87 0 -125 -66 -138 -145l-4 -22h260l-92 -482c-15 -81 -33 -132 -62 -164c-28 -32 -69 -47 -111 -47c-21 0 -38 1 -54 6l10 65c9 -3 21 -4 38 -4c42 0 74 26 93 126l83 435h-178l-78 -419h-83l79 419h-64l12 65h65l5 24
c24 132 105 212 231 212c45 0 92 -13 110 -26z" />
    <glyph glyph-name="f_l" unicode="fl" horiz-adv-x="499" 
d="M123 0h-82l79 419h-64l12 65h65l4 21c12 68 39 128 94 170c38 30 92 46 149 46c48 0 104 -12 133 -32l-131 -689h-82l121 640c-12 8 -29 13 -64 13c-80 0 -122 -62 -137 -143l-5 -26h102l-13 -65h-102z" />
    <glyph glyph-name=".notdef" horiz-adv-x="500" 
d="M0 0v700h500v-700h-500zM250 395l170 255h-340zM280 350l170 -255v510zM80 50h340l-170 255zM50 605v-510l170 255z" />
    <glyph glyph-name="space" unicode=" " horiz-adv-x="182" 
 />
    <glyph glyph-name="exclam" unicode="!" horiz-adv-x="236" 
d="M142 194h-66l79 480h94zM77 -11c-32 0 -54 26 -54 58c0 37 26 67 62 67c34 0 56 -26 56 -59c0 -37 -26 -66 -64 -66z" />
    <glyph glyph-name="quotedbl" unicode="&#x22;" horiz-adv-x="304" 
d="M121 692h87l-62 -242h-55zM271 692h86l-62 -242h-55z" />
    <glyph glyph-name="numbersign" unicode="#" horiz-adv-x="492" 
d="M193 254h91l45 147h-90zM114 0h-58l60 197h-82l10 57h91l46 147h-87l10 57h94l60 192h58l-60 -192h91l60 192h58l-60 -192h82l-10 -57h-90l-45 -147h86l-10 -57h-95l-60 -197h-59l61 197h-90z" />
    <glyph glyph-name="dollar" unicode="$" horiz-adv-x="492" 
d="M210 -85h-60l19 100c-49 2 -105 23 -132 44l28 65c32 -23 75 -43 133 -43c73 0 131 44 131 111c0 44 -21 79 -84 111c-83 44 -129 93 -129 160c0 89 74 164 177 174l19 97h61l-19 -97c49 -2 90 -19 109 -34l-29 -62c-20 12 -55 32 -114 32c-72 0 -116 -44 -116 -98
c0 -44 24 -70 97 -109c76 -42 116 -92 116 -158c0 -111 -82 -180 -188 -193z" />
    <glyph glyph-name="percent" unicode="%" horiz-adv-x="773" 
d="M257 661c82 0 119 -66 119 -135c0 -142 -75 -263 -184 -263c-77 0 -123 58 -123 144c0 123 72 254 188 254zM246 608c-67 0 -109 -114 -109 -203c0 -46 14 -89 63 -89c67 0 108 119 108 205c0 39 -12 87 -62 87zM186 -13h-60l491 675h59zM618 392c82 0 119 -66 119 -136
c0 -142 -75 -263 -184 -263c-76 0 -122 58 -122 145c0 122 72 254 187 254zM607 339c-66 0 -108 -115 -108 -203c0 -47 14 -90 63 -90c67 0 107 119 107 206c0 39 -12 87 -62 87z" />
    <glyph glyph-name="ampersand" unicode="&#x26;" horiz-adv-x="589" 
d="M533 0h-98c-17 20 -30 38 -46 62c-56 -51 -116 -73 -190 -73c-116 0 -182 75 -182 169c0 105 84 177 167 217v3c-24 43 -37 82 -37 123c0 100 75 184 179 184c90 0 136 -61 136 -133c0 -80 -57 -142 -173 -196v-3c37 -63 86 -137 121 -187c41 51 73 117 102 202h78
c-37 -107 -80 -192 -142 -256c25 -35 52 -72 85 -112zM222 54c53 0 98 24 132 60c-32 47 -90 129 -140 213c-44 -27 -113 -75 -113 -157c0 -65 43 -116 121 -116zM317 626c-51 0 -93 -49 -93 -116c0 -37 10 -72 32 -107c81 39 129 83 129 147c0 39 -18 76 -68 76z" />
    <glyph glyph-name="quoteright" unicode="&#x2019;" horiz-adv-x="194" 
d="M161 682l91 10c-37 -84 -97 -192 -131 -238l-58 -6c31 59 75 162 98 234z" />
    <glyph glyph-name="parenleft" unicode="(" horiz-adv-x="284" 
d="M279 692h71c-105 -119 -210 -303 -210 -534c0 -91 14 -178 55 -276h-63c-41 82 -64 171 -64 278c0 239 112 424 211 532z" />
    <glyph glyph-name="parenright" unicode=")" horiz-adv-x="284" 
d="M25 -118h-71c105 120 210 305 210 536c0 90 -14 178 -55 274h64c41 -81 63 -170 63 -276c0 -239 -112 -425 -211 -534z" />
    <glyph glyph-name="asterisk" unicode="*" horiz-adv-x="414" 
d="M338 685l57 -35l-110 -124l1 -2l152 20l-14 -68l-143 18l-1 -3l82 -120l-64 -36l-48 140h-2l-79 -140l-53 36l109 121v3l-150 -19l13 68l140 -19v2l-79 123l64 34l48 -139h2z" />
    <glyph glyph-name="plus" unicode="+" horiz-adv-x="596" 
d="M274 532h62v-235h219v-59h-219v-238h-62v238h-219v59h219v235z" />
    <glyph glyph-name="comma" unicode="," horiz-adv-x="211" 
d="M21 -117l-64 -7c31 60 77 167 98 240l99 10c-36 -85 -98 -196 -133 -243z" />
    <glyph glyph-name="hyphen" unicode="-" horiz-adv-x="307" 
d="M48 302h239l-12 -64h-239z" />
    <glyph glyph-name="period" unicode="." horiz-adv-x="211" 
d="M76 -11c-33 0 -55 26 -55 59c0 37 26 67 63 67c34 0 56 -26 56 -60c0 -37 -26 -66 -64 -66z" />
    <glyph glyph-name="slash" unicode="/" horiz-adv-x="326" 
d="M13 -40h-67l402 725h68z" />
    <glyph glyph-name="zero" unicode="0" horiz-adv-x="492" 
d="M327 661c124 0 161 -103 161 -204c0 -213 -100 -468 -282 -468c-120 0 -163 98 -163 223c0 216 113 449 284 449zM318 594c-113 0 -192 -227 -192 -386c0 -69 13 -152 91 -152c122 0 188 265 188 396c0 51 -7 142 -87 142z" />
    <glyph glyph-name="one" unicode="1" horiz-adv-x="492" 
d="M182 0l107 566h-2l-111 -56l-9 66l148 74h70l-123 -650h-80z" />
    <glyph glyph-name="two" unicode="2" horiz-adv-x="492" 
d="M393 0h-393l10 55l97 81c174 147 276 248 276 355c0 47 -26 99 -101 99c-58 0 -104 -26 -134 -47l-21 60c45 34 112 58 173 58c122 0 169 -81 169 -159c0 -138 -126 -258 -281 -386l-55 -43v-2h273z" />
    <glyph glyph-name="three" unicode="3" horiz-adv-x="492" 
d="M16 30l28 66c25 -15 66 -36 125 -36c111 0 162 76 162 143c0 81 -63 115 -139 115h-33l13 65h33c61 0 161 40 161 126c0 50 -30 81 -92 81c-49 0 -94 -16 -123 -36l-18 63c41 25 98 44 155 44c109 0 166 -65 166 -140c0 -85 -69 -147 -144 -168v-2
c71 -17 108 -78 108 -147c0 -123 -111 -215 -252 -215c-70 0 -128 21 -150 41z" />
    <glyph glyph-name="four" unicode="4" horiz-adv-x="492" 
d="M335 0h-78l34 179h-280l11 56l346 415h91l-77 -405h88l-12 -66h-89zM113 245h191l42 216c7 35 16 71 24 105h-3c-27 -40 -45 -72 -73 -107l-181 -212v-2z" />
    <glyph glyph-name="five" unicode="5" horiz-adv-x="492" 
d="M487 650l-14 -72h-223l-51 -165c11 2 21 2 32 2c28 0 77 -8 114 -31c53 -29 77 -87 77 -143c0 -158 -126 -252 -267 -252c-63 0 -118 19 -140 36l26 66c23 -15 69 -31 122 -31c92 0 173 73 173 164c0 70 -36 125 -157 125c-27 0 -47 -2 -73 -4l90 305h291z" />
    <glyph glyph-name="six" unicode="6" horiz-adv-x="492" 
d="M470 660l-12 -71c-16 0 -36 -1 -60 -5c-117 -21 -214 -110 -258 -236l2 -1c38 49 101 82 160 82c102 0 157 -78 157 -177c0 -127 -99 -263 -239 -263c-124 0 -185 91 -185 214c0 150 80 289 164 358c65 55 141 86 215 95c23 4 42 4 56 4zM226 56c86 0 147 99 147 191
c0 76 -38 116 -103 116c-51 0 -104 -34 -137 -89c-6 -9 -11 -21 -12 -31c-2 -15 -4 -32 -4 -52c0 -78 37 -135 109 -135z" />
    <glyph glyph-name="seven" unicode="7" horiz-adv-x="492" 
d="M134 650h389l-11 -58c-125 -197 -250 -394 -377 -592h-92c126 193 251 385 375 576l-1 3h-297z" />
    <glyph glyph-name="eight" unicode="8" horiz-adv-x="492" 
d="M315 661c95 0 164 -57 164 -147c0 -77 -52 -134 -127 -169l-1 -3c67 -36 96 -95 96 -154c0 -128 -115 -199 -228 -199c-122 0 -195 69 -195 161c0 100 72 165 152 196l1 3c-52 37 -71 81 -71 128c0 105 94 184 209 184zM225 52c76 0 136 52 136 129
c0 64 -37 105 -115 132c-67 -18 -136 -68 -136 -153c0 -56 38 -108 115 -108zM302 598c-66 0 -116 -54 -116 -115c0 -51 31 -87 95 -110c64 21 116 69 116 131c0 44 -22 94 -95 94z" />
    <glyph glyph-name="nine" unicode="9" horiz-adv-x="492" 
d="M56 -10l10 71c17 -1 38 1 62 4c45 7 94 28 138 64c48 38 91 95 119 172h-3c-40 -46 -97 -70 -148 -70c-107 0 -158 83 -158 168c0 133 106 262 241 262c123 0 175 -94 175 -205c0 -162 -92 -309 -168 -374c-57 -48 -128 -78 -195 -87c-28 -4 -52 -6 -73 -5zM307 594
c-80 0 -146 -91 -146 -185c0 -65 33 -113 98 -113c53 0 100 30 129 75c6 8 11 17 13 28c4 17 7 43 7 67c0 74 -28 128 -101 128z" />
    <glyph glyph-name="colon" unicode=":" horiz-adv-x="211" 
d="M142 342c-32 0 -54 26 -54 58c0 37 26 67 62 67c34 0 56 -25 56 -59c0 -37 -26 -66 -64 -66zM75 -11c-32 0 -54 26 -54 58c0 37 26 67 62 67c34 0 56 -25 56 -59c0 -37 -26 -66 -64 -66z" />
    <glyph glyph-name="semicolon" unicode=";" horiz-adv-x="211" 
d="M20 -116l-63 -7c31 60 76 166 98 240l98 10c-36 -86 -97 -196 -133 -243zM147 342c-32 0 -54 26 -54 58c0 37 26 67 62 67c34 0 56 -25 56 -59c0 -37 -26 -66 -64 -66z" />
    <glyph glyph-name="less" unicode="&#x3c;" horiz-adv-x="596" 
d="M78 239v54l448 239v-68l-375 -197v-2l375 -197v-68z" />
    <glyph glyph-name="equal" unicode="=" horiz-adv-x="596" 
d="M556 338h-500v59h500v-59zM556 141h-500v59h500v-59z" />
    <glyph glyph-name="greater" unicode="&#x3e;" horiz-adv-x="596" 
d="M541 294v-56l-448 -238v68l378 197v2l-378 197v68z" />
    <glyph glyph-name="question" unicode="?" horiz-adv-x="384" 
d="M207 192h-80c1 9 2 17 2 26c5 54 34 115 98 182c45 47 87 92 87 146c0 35 -18 70 -76 70c-38 0 -72 -10 -100 -28l-15 61c37 23 83 37 136 37c97 0 141 -64 141 -125c0 -78 -49 -135 -109 -197c-49 -51 -73 -93 -79 -144c-1 -9 -3 -19 -5 -28zM136 -11
c-32 0 -54 26 -54 58c0 37 26 67 62 67c34 0 56 -26 56 -59c0 -37 -26 -66 -64 -66z" />
    <glyph glyph-name="at" unicode="@" horiz-adv-x="720" 
d="M439 255l21 112c-10 4 -27 8 -50 8c-88 0 -160 -83 -160 -180c0 -44 23 -76 67 -76c58 0 111 74 122 136zM498 -21l16 -44c-54 -30 -111 -40 -174 -40c-172 0 -305 120 -305 313c0 206 142 384 364 384c174 0 291 -122 291 -289c0 -150 -84 -238 -178 -238
c-40 0 -77 26 -75 88h-3c-35 -59 -81 -88 -142 -88c-57 0 -107 47 -107 126c0 124 98 237 237 237c43 0 81 -9 107 -21l-34 -181c-15 -76 -3 -111 30 -112c52 -2 109 67 109 182c0 146 -88 250 -244 250c-163 0 -299 -129 -299 -332c0 -167 105 -271 260 -271
c51 0 107 13 147 36z" />
    <glyph glyph-name="A" unicode="A" horiz-adv-x="568" 
d="M400 213h-232l-107 -213h-88l349 674h97l94 -674h-85zM198 279h196l-26 195c-4 35 -9 85 -12 124h-2c-18 -40 -35 -82 -55 -123z" />
    <glyph glyph-name="B" unicode="B" horiz-adv-x="519" 
d="M33 5l124 660c42 8 90 14 145 14c69 0 120 -14 155 -46c32 -26 49 -61 49 -105c0 -86 -69 -149 -145 -169v-2c60 -18 110 -69 110 -150c0 -69 -36 -124 -80 -157c-54 -40 -128 -55 -219 -55c-58 0 -108 4 -139 10zM229 607l-42 -219h62c97 0 171 50 171 132
c0 65 -49 93 -122 93c-31 0 -56 -2 -69 -6zM174 325l-48 -259c21 -3 45 -4 68 -4c98 0 190 41 190 149c0 79 -67 114 -142 114h-68z" />
    <glyph glyph-name="C" unicode="C" horiz-adv-x="555" 
d="M486 90l11 -68c-38 -17 -99 -32 -175 -32c-170 0 -273 107 -273 279c0 127 51 248 143 325c70 59 156 90 255 90c74 0 128 -19 146 -32l-27 -67c-25 15 -73 27 -133 27c-70 0 -141 -27 -193 -75c-63 -59 -103 -154 -103 -256c0 -121 55 -220 205 -220c51 0 107 10 144 29
z" />
    <glyph glyph-name="D" unicode="D" horiz-adv-x="647" 
d="M33 3l125 663c52 9 109 13 168 13c112 0 198 -32 248 -90c36 -37 63 -98 63 -183c0 -122 -49 -243 -135 -317c-78 -66 -176 -94 -306 -94c-59 0 -120 3 -163 8zM230 604l-102 -536c30 -4 62 -4 87 -4c107 0 185 31 241 89c61 62 92 154 92 249c0 120 -58 209 -226 209
c-30 0 -68 -2 -92 -7z" />
    <glyph glyph-name="E" unicode="E" horiz-adv-x="470" 
d="M433 387l-14 -70h-245l-46 -246h276l-14 -71h-359l128 674h344l-14 -71h-260l-41 -216h245z" />
    <glyph glyph-name="F" unicode="F" horiz-adv-x="465" 
d="M31 0l128 674h342l-14 -71h-258l-44 -227h238l-14 -70h-238l-57 -306h-83z" />
    <glyph glyph-name="G" unicode="G" horiz-adv-x="623" 
d="M588 352l-61 -323c-39 -16 -111 -36 -190 -36c-95 0 -169 27 -220 84c-51 56 -68 130 -68 196c0 112 45 230 131 308c73 63 170 100 278 100c82 0 138 -19 159 -31l-28 -70c-34 18 -80 29 -141 29c-80 0 -153 -29 -209 -82c-63 -59 -101 -156 -101 -247
c0 -130 65 -216 215 -216c40 0 78 8 102 19l39 201h-137l13 68h218z" />
    <glyph glyph-name="H" unicode="H" horiz-adv-x="627" 
d="M159 674h83l-54 -284h310l54 284h83l-128 -674h-83l59 317h-309l-60 -317h-83z" />
    <glyph glyph-name="I" unicode="I" horiz-adv-x="233" 
d="M158 674h83l-128 -674h-83z" />
    <glyph glyph-name="J" unicode="J" horiz-adv-x="364" 
d="M210 220l86 454h83l-88 -464c-30 -157 -96 -221 -222 -221c-41 0 -83 9 -100 18l18 71c22 -10 49 -15 85 -15c71 0 115 37 138 157z" />
    <glyph glyph-name="K" unicode="K" horiz-adv-x="515" 
d="M31 0l128 674h82l-62 -328l4 1c24 28 46 52 67 75l237 252h104l-284 -290l173 -384h-90l-147 331l-81 -75l-49 -256h-82z" />
    <glyph glyph-name="L" unicode="L" horiz-adv-x="442" 
d="M31 0l128 674h83l-115 -602h272l-14 -72h-354z" />
    <glyph glyph-name="M" unicode="M" horiz-adv-x="780" 
d="M676 0h-80l48 364c9 64 24 163 36 228h-3c-31 -68 -69 -148 -105 -217l-201 -371h-63l-50 363c-10 78 -17 156 -21 225h-3c-14 -62 -35 -164 -51 -228l-92 -364h-78l175 674h106l53 -386c7 -58 14 -119 16 -169h3c21 50 50 110 79 166l208 389h109z" />
    <glyph glyph-name="N" unicode="N" horiz-adv-x="632" 
d="M109 0h-78l128 674h91l154 -382c30 -76 45 -130 59 -188l2 1c4 61 11 117 29 211l68 358h78l-128 -674h-82l-154 381c-32 83 -47 130 -62 194l-3 -1c-7 -63 -18 -130 -35 -222z" />
    <glyph glyph-name="O" unicode="O" horiz-adv-x="668" 
d="M402 685c182 0 255 -132 255 -276c0 -117 -43 -246 -123 -326c-59 -59 -138 -94 -231 -94c-174 0 -255 131 -255 274c0 119 46 250 128 331c58 56 141 91 226 91zM391 615c-60 0 -112 -26 -154 -67c-65 -65 -102 -184 -102 -278c0 -110 49 -211 181 -211
c57 0 112 25 154 67c63 64 100 185 100 279c0 96 -31 210 -179 210z" />
    <glyph glyph-name="P" unicode="P" horiz-adv-x="507" 
d="M31 0l127 664c37 9 91 15 146 15c65 0 127 -16 165 -52c32 -29 49 -69 49 -122c0 -75 -37 -139 -81 -176c-52 -44 -128 -64 -204 -64c-26 0 -48 2 -69 5l-51 -270h-82zM227 605l-50 -265c23 -5 43 -7 67 -7c114 0 190 71 190 166c0 81 -57 113 -134 113
c-33 0 -58 -3 -73 -7z" />
    <glyph glyph-name="Q" unicode="Q" horiz-adv-x="668" 
d="M589 -25l-32 -69c-88 21 -198 55 -234 71c-31 11 -41 13 -46 13c-127 8 -229 106 -229 274c0 115 45 245 124 325c60 60 145 96 231 96c183 0 254 -136 254 -276c0 -109 -41 -241 -118 -319c-36 -36 -85 -66 -129 -77v-4c59 -12 122 -25 179 -34zM392 615
c-60 0 -112 -25 -153 -66c-66 -66 -104 -188 -104 -281c0 -107 46 -209 177 -209c62 0 115 25 156 65c66 66 102 191 102 283c0 88 -30 208 -178 208z" />
    <glyph glyph-name="R" unicode="R" horiz-adv-x="523" 
d="M31 0l127 664c41 10 97 15 147 15c67 0 125 -16 161 -49c31 -27 50 -65 50 -111c0 -99 -75 -172 -160 -196l-1 -2c48 -16 70 -66 75 -135c7 -94 12 -159 21 -186h-86c-4 14 -11 85 -16 163c-5 93 -39 131 -106 131h-74l-55 -294h-83zM229 606l-47 -248h74
c105 0 173 69 173 150c0 72 -54 105 -130 105c-33 0 -54 -3 -70 -7z" />
    <glyph glyph-name="S" unicode="S" horiz-adv-x="466" 
d="M12 36l30 68c37 -25 87 -43 143 -43c76 0 146 45 146 126c0 50 -28 88 -99 126c-86 47 -134 101 -134 173c0 121 104 198 228 198c66 0 115 -19 138 -35l-30 -68c-21 13 -63 32 -117 32c-83 0 -133 -55 -133 -110s34 -86 105 -125c83 -45 128 -98 128 -181
c0 -116 -91 -208 -243 -208c-67 1 -134 22 -162 47z" />
    <glyph glyph-name="T" unicode="T" horiz-adv-x="474" 
d="M148 0l114 602h-197l14 72h478l-14 -72h-198l-114 -602h-83z" />
    <glyph glyph-name="U" unicode="U" horiz-adv-x="621" 
d="M158 674h83l-76 -399c-5 -28 -8 -57 -8 -85c0 -86 50 -130 125 -130c92 0 159 62 188 214l77 400h83l-77 -403c-39 -201 -139 -282 -282 -282c-111 0 -197 60 -197 199c0 29 3 62 9 93z" />
    <glyph glyph-name="V" unicode="V" horiz-adv-x="539" 
d="M258 0h-91l-83 674h84l49 -432c8 -69 12 -108 13 -152h3c17 42 37 92 74 163l214 421h92z" />
    <glyph glyph-name="W" unicode="W" horiz-adv-x="829" 
d="M219 0h-89l-33 674h84l14 -404c3 -87 1 -133 0 -176h2c16 44 33 88 70 171l187 409h88l14 -388c3 -88 3 -146 2 -190h2c20 58 40 112 66 173l181 405h87l-312 -674h-88l-17 383c-4 79 -3 117 2 194h-3c-22 -64 -40 -116 -68 -177z" />
    <glyph glyph-name="X" unicode="X" horiz-adv-x="521" 
d="M466 0h-88l-64 167c-18 45 -32 83 -43 118h-2c-21 -32 -45 -69 -79 -116l-121 -169h-99l263 343l-126 331h87l64 -173c14 -40 25 -71 34 -102h2c22 33 45 68 69 102l129 173h99l-260 -330z" />
    <glyph glyph-name="Y" unicode="Y" horiz-adv-x="517" 
d="M243 0h-82l53 280l-130 394h89l65 -218c17 -60 23 -87 28 -113h2c17 28 40 66 72 116l146 215h97l-287 -393z" />
    <glyph glyph-name="Z" unicode="Z" horiz-adv-x="523" 
d="M-20 0l9 51l458 549l-1 3h-320l14 71h432l-11 -54l-454 -546l1 -3h354l-13 -71h-469z" />
    <glyph glyph-name="bracketleft" unicode="[" horiz-adv-x="284" 
d="M194 -111h-175l152 797h175l-10 -54h-108l-131 -689h107z" />
    <glyph glyph-name="backslash" unicode="\" horiz-adv-x="329" 
d="M310 -40h-65l-184 725h65z" />
    <glyph glyph-name="bracketright" unicode="]" horiz-adv-x="284" 
d="M109 686h175l-152 -797h-175l10 54h108l131 689h-107z" />
    <glyph glyph-name="asciicircum" unicode="^" horiz-adv-x="596" 
d="M534 189h-68l-164 388h-2l-164 -388h-67l202 461l61 -1z" />
    <glyph glyph-name="underscore" unicode="_" horiz-adv-x="500" 
d="M-49 -75h500l-10 -50h-500z" />
    <glyph glyph-name="quoteleft" unicode="&#x2018;" horiz-adv-x="194" 
d="M164 458l-91 -10c37 84 97 192 131 238l58 6c-31 -59 -76 -162 -98 -234z" />
    <glyph glyph-name="a" unicode="a" horiz-adv-x="522" 
d="M427 0h-78c0 29 5 75 11 125h-2c-52 -101 -119 -136 -188 -136c-86 0 -139 68 -139 160c0 169 124 346 335 346c47 0 97 -8 131 -18l-50 -253c-16 -84 -22 -170 -20 -224zM375 276l28 146c-11 4 -29 7 -57 7c-126 0 -229 -130 -229 -265c0 -54 19 -107 83 -107
c69 0 151 90 175 219z" />
    <glyph glyph-name="b" unicode="b" horiz-adv-x="525" 
d="M159 710h83l-64 -314h2c43 65 105 99 170 99c106 0 146 -88 146 -174c0 -149 -107 -332 -301 -332c-85 0 -149 35 -149 124c0 24 4 53 9 76zM148 238l-11 -51c-4 -17 -7 -36 -6 -62c0 -46 27 -71 78 -71c125 0 201 149 201 257c0 60 -26 115 -92 115
c-72 0 -146 -74 -170 -188z" />
    <glyph glyph-name="c" unicode="c" horiz-adv-x="423" 
d="M353 85l8 -65c-25 -13 -75 -30 -140 -30c-125 0 -186 84 -186 187c0 165 122 317 296 317c45 0 86 -13 101 -21l-24 -66c-19 9 -46 18 -82 18c-126 0 -205 -124 -205 -238c0 -78 41 -129 120 -129c50 0 87 15 112 27z" />
    <glyph glyph-name="d" unicode="d" horiz-adv-x="525" 
d="M460 710h82l-106 -556c-9 -51 -17 -107 -20 -154h-76l13 96h-2c-44 -69 -105 -107 -174 -107c-94 0 -145 77 -145 176c0 172 128 330 299 330c31 0 65 -7 86 -17zM371 239l32 169c-16 12 -44 21 -79 21c-116 0 -206 -124 -206 -253c0 -58 20 -119 91 -119
c64 0 141 73 162 182z" />
    <glyph glyph-name="e" unicode="e" horiz-adv-x="453" 
d="M365 89l12 -62c-36 -20 -95 -38 -160 -38c-128 0 -184 88 -184 195c0 146 108 311 264 311c92 0 142 -55 142 -125c0 -127 -143 -160 -322 -157c-4 -21 -1 -66 10 -92c19 -44 58 -65 108 -65c57 0 100 17 130 33zM359 369c0 39 -30 61 -74 61c-79 0 -138 -77 -159 -153
c131 -2 233 16 233 92z" />
    <glyph glyph-name="f" unicode="f" horiz-adv-x="283" 
d="M122 0h-83l80 419h-65l13 65h64l5 26c12 67 36 129 79 168c31 28 73 43 115 43c33 0 55 -6 67 -13l-18 -66c-13 6 -30 9 -49 9c-66 0 -98 -64 -112 -144l-4 -23h107l-12 -65h-108z" />
    <glyph glyph-name="g" unicode="g" horiz-adv-x="524" 
d="M10 -175l23 65c29 -19 78 -32 128 -32c82 0 146 41 174 172l16 73h-2c-43 -69 -102 -103 -168 -103c-98 0 -148 82 -148 168c0 164 120 327 307 327c56 0 118 -16 156 -34l-75 -400c-19 -103 -47 -173 -97 -217c-49 -41 -114 -53 -169 -53c-59 0 -115 14 -145 34z
M374 250l31 162c-16 7 -46 16 -80 16c-121 0 -205 -127 -205 -246c-1 -54 19 -116 93 -116c71 0 143 90 161 184z" />
    <glyph glyph-name="h" unicode="h" horiz-adv-x="534" 
d="M111 0h-83l135 710h83l-60 -311h2c41 59 100 96 173 96c55 0 120 -33 120 -130c0 -25 -3 -57 -8 -81l-54 -284h-83l54 280c3 17 6 40 6 67c0 44 -21 79 -75 79c-64 0 -145 -75 -165 -183z" />
    <glyph glyph-name="i" unicode="i" horiz-adv-x="229" 
d="M111 0h-83l93 484h82zM183 566c-29 0 -47 22 -47 52c1 32 25 56 54 56c30 0 50 -22 50 -52c-1 -33 -24 -56 -57 -56z" />
    <glyph glyph-name="j" unicode="j" horiz-adv-x="227" 
d="M126 484h82l-92 -483c-15 -80 -33 -131 -62 -163c-28 -32 -69 -47 -111 -47c-21 0 -39 1 -54 6l10 65c9 -3 22 -4 38 -4c42 0 75 26 94 126zM183 566c-29 0 -47 22 -47 52c1 32 25 56 55 56c29 0 49 -22 49 -52c-1 -33 -24 -56 -57 -56z" />
    <glyph glyph-name="k" unicode="k" horiz-adv-x="456" 
d="M110 0h-82l135 710h83l-85 -445h2c14 17 32 36 45 49l170 170h103l-211 -199l144 -285h-91l-117 239l-61 -55z" />
    <glyph glyph-name="l" unicode="l" horiz-adv-x="229" 
d="M112 0h-83l135 710h83z" />
    <glyph glyph-name="m" unicode="m" horiz-adv-x="808" 
d="M110 0h-81l64 343c10 54 17 101 22 141h73l-12 -91h2c45 68 106 102 170 102c74 0 109 -47 113 -108c43 70 105 107 177 108c56 0 118 -36 118 -127c0 -22 -3 -55 -8 -82l-54 -286h-81l52 279c4 19 7 43 7 63c0 51 -19 84 -73 84c-60 0 -132 -70 -152 -178l-46 -248h-80
l54 284c4 22 6 40 6 59c0 41 -11 83 -72 83c-60 0 -136 -80 -155 -183z" />
    <glyph glyph-name="n" unicode="n" horiz-adv-x="534" 
d="M111 0h-82l64 343c11 54 18 101 23 141h74l-12 -95h2c43 68 109 106 179 106c58 0 123 -33 123 -134c0 -22 -4 -52 -9 -78l-54 -283h-82l53 280c3 19 6 41 6 62c0 48 -19 84 -76 84c-59 0 -143 -71 -165 -191z" />
    <glyph glyph-name="o" unicode="o" horiz-adv-x="522" 
d="M303 495c131 0 190 -99 190 -201c0 -150 -106 -305 -269 -305c-121 0 -189 90 -189 199c0 160 111 307 268 307zM294 429c-104 0 -173 -127 -173 -238c0 -79 44 -136 114 -136c98 0 172 126 172 239c0 56 -26 135 -113 135z" />
    <glyph glyph-name="p" unicode="p" horiz-adv-x="525" 
d="M68 -198h-83l97 510c11 59 21 124 27 173h76l-13 -92h2c43 64 107 102 174 102c104 0 148 -86 148 -175c0 -171 -122 -331 -283 -331c-51 0 -85 11 -104 22h-2zM146 216l-25 -135c22 -17 53 -27 93 -27c107 0 196 133 196 260c0 51 -22 112 -93 112
c-65 0 -146 -74 -171 -210z" />
    <glyph glyph-name="q" unicode="q" horiz-adv-x="525" 
d="M370 -198h-83l59 286h-2c-41 -64 -107 -99 -168 -99c-96 0 -144 81 -144 176c0 162 120 330 308 330c64 0 120 -16 155 -32zM372 244l31 167c-15 9 -44 17 -80 17c-111 0 -205 -118 -205 -253c0 -75 33 -118 84 -118c78 0 151 88 170 187z" />
    <glyph glyph-name="r" unicode="r" horiz-adv-x="318" 
d="M111 0h-82l59 312c11 63 19 127 24 172h73c-4 -34 -8 -68 -13 -105h3c31 66 83 116 148 116c8 0 17 -1 24 -2l-16 -82c-6 1 -14 2 -23 2c-72 0 -136 -87 -157 -200z" />
    <glyph glyph-name="s" unicode="s" horiz-adv-x="373" 
d="M9 23l24 61c23 -14 64 -30 104 -30c56 0 92 36 92 79c0 38 -17 61 -68 89c-56 31 -87 74 -87 124c0 84 73 149 175 149c44 0 83 -12 101 -24l-23 -63c-17 10 -48 22 -84 22c-50 0 -86 -31 -86 -73c0 -35 23 -57 67 -81c54 -30 90 -73 90 -127c0 -102 -82 -159 -184 -159
c-52 1 -99 16 -121 33z" />
    <glyph glyph-name="t" unicode="t" horiz-adv-x="313" 
d="M155 574l87 26l-22 -116h116l-13 -65h-116l-44 -235c-6 -27 -10 -52 -10 -77c0 -29 14 -47 46 -47c15 0 28 1 39 4l-4 -65c-15 -6 -40 -9 -64 -9c-73 0 -102 44 -102 94c0 28 4 55 11 90l47 245h-69l12 65h69z" />
    <glyph glyph-name="u" unicode="u" horiz-adv-x="526" 
d="M417 484h83l-65 -343c-11 -54 -17 -101 -22 -141h-74l12 91h-2c-43 -63 -106 -102 -170 -102c-62 0 -128 30 -128 140c0 23 3 50 9 82l53 273h82l-51 -270c-5 -27 -8 -50 -8 -71c0 -50 20 -84 77 -84c60 0 137 71 157 177z" />
    <glyph glyph-name="v" unicode="v" horiz-adv-x="455" 
d="M52 484h84l42 -276c7 -55 14 -92 15 -119h3c11 26 24 58 52 113l147 282h91l-269 -484h-81z" />
    <glyph glyph-name="w" unicode="w" horiz-adv-x="707" 
d="M61 484h82l17 -272c4 -60 3 -91 2 -130h3c11 31 29 73 53 121l143 281h73l30 -276c5 -53 8 -94 8 -126h2c13 39 26 76 46 123l131 279h84l-239 -484h-77l-32 263c-5 45 -7 86 -7 129h-2c-20 -47 -34 -84 -56 -126l-139 -266h-77z" />
    <glyph glyph-name="x" unicode="x" horiz-adv-x="441" 
d="M63 484h90l47 -106c14 -31 23 -55 33 -77h2c19 27 30 44 53 73l90 110h95l-204 -236l115 -248h-91l-48 109c-17 36 -24 55 -35 86h-3c-14 -23 -29 -45 -50 -74l-98 -121h-96l212 249z" />
    <glyph glyph-name="y" unicode="y" horiz-adv-x="441" 
d="M48 484h86l48 -260c11 -56 17 -92 22 -128h2c13 31 27 65 52 119l124 269h88l-182 -368c-52 -104 -101 -189 -167 -254c-54 -55 -113 -78 -140 -84l-21 72c21 7 56 20 89 46c33 25 68 64 94 112c4 8 4 13 2 22z" />
    <glyph glyph-name="z" unicode="z" horiz-adv-x="415" 
d="M-21 0l9 51l235 262c41 45 68 70 101 100v3h-248l14 68h347l-11 -55l-231 -258c-44 -47 -70 -72 -100 -100l-1 -3h269l-14 -68h-370z" />
    <glyph glyph-name="braceleft" unicode="{" horiz-adv-x="284" 
d="M33 263l9 51c68 0 85 39 92 74c10 55 6 111 17 167c17 92 77 131 159 131h23l-10 -54h-18c-52 0 -79 -32 -90 -86c-9 -49 -4 -96 -13 -148c-11 -67 -44 -98 -91 -109v-2c38 -11 54 -39 54 -71c0 -34 -12 -74 -25 -111c-14 -37 -26 -73 -26 -100c0 -35 17 -61 60 -62h18
l-11 -54h-18c-70 0 -117 34 -117 102c0 38 14 79 27 116c13 38 26 74 26 102c0 19 -7 55 -66 54z" />
    <glyph glyph-name="bar" unicode="|" horiz-adv-x="217" 
d="M95 750h62v-1000h-62v1000z" />
    <glyph glyph-name="braceright" unicode="}" horiz-adv-x="284" 
d="M264 311l-9 -51c-68 0 -85 -39 -92 -74c-10 -54 -6 -111 -17 -167c-17 -91 -77 -130 -159 -130h-23l10 54h18c52 0 79 32 90 86c9 48 4 95 13 147c11 65 44 97 91 109v2c-38 11 -54 40 -54 72s14 71 26 109c13 38 25 75 25 101c0 36 -17 62 -60 63h-18l11 54h18
c70 0 117 -34 117 -102c0 -40 -13 -81 -26 -119c-14 -37 -27 -72 -27 -101c0 -19 7 -54 66 -53z" />
    <glyph glyph-name="asciitilde" unicode="~" horiz-adv-x="596" 
d="M123 212h-60c-3 98 51 148 118 148c37 0 76 -12 134 -43c49 -25 86 -42 123 -42c36 0 53 28 54 82h59c5 -110 -52 -148 -115 -148c-36 0 -80 13 -139 44c-38 20 -80 41 -117 41c-34 0 -56 -30 -57 -82z" />
    <glyph glyph-name="exclamdown" unicode="&#xa1;" horiz-adv-x="236" 
d="M83 -195h-94l106 477h66zM160 488c32 0 54 -26 54 -58c0 -37 -26 -67 -62 -67c-34 0 -56 26 -56 59c0 36 26 66 64 66z" />
    <glyph glyph-name="cent" unicode="&#xa2;" horiz-adv-x="492" 
d="M272 -14h-61l20 101c-53 9 -90 33 -115 67c-24 34 -35 78 -35 122c0 153 111 279 246 297l18 100h61l-19 -98c32 0 73 -12 91 -24l-29 -64c-22 13 -51 23 -95 23c-93 0 -185 -97 -185 -227c0 -75 43 -131 124 -131c43 0 78 12 103 23l8 -63c-23 -13 -70 -25 -113 -26z
" />
    <glyph glyph-name="sterling" unicode="&#xa3;" horiz-adv-x="492" 
d="M426 0h-402l9 51c65 31 115 95 131 162c6 24 8 52 9 82h-90l12 63h79c1 34 3 78 12 123c23 111 96 180 207 180c42 0 76 -12 92 -23l-25 -64c-19 10 -45 17 -75 17c-70 0 -110 -49 -123 -121c-7 -41 -8 -78 -8 -112h148l-12 -63h-139c-2 -25 -4 -50 -11 -79
c-13 -56 -43 -105 -92 -143v-2h291z" />
    <glyph glyph-name="fraction" unicode="&#x2044;" horiz-adv-x="142" 
d="M-123 -11h-61l487 672h61z" />
    <glyph glyph-name="yen" unicode="&#xa5;" horiz-adv-x="492" 
d="M234 0h-78l33 176h-146l9 49h146l14 73h-146l10 49h122l-103 303h85l59 -206c9 -34 17 -61 23 -92h4c15 29 34 61 56 94l141 204h91l-228 -303h121l-9 -49h-148l-14 -73h148l-10 -49h-147z" />
    <glyph glyph-name="florin" unicode="&#x192;" horiz-adv-x="492" 
d="M125 339l10 62h93l13 47c27 106 73 213 204 213c32 -1 53 -7 67 -16l-23 -61c-15 6 -32 11 -54 11c-62 0 -96 -64 -116 -152l-10 -42h116l-10 -62h-121l-51 -207c-32 -127 -78 -216 -189 -216c-32 0 -62 9 -75 18l19 60c14 -8 36 -12 56 -12c53 0 85 56 111 163l49 194
h-89z" />
    <glyph glyph-name="section" unicode="&#xa7;" horiz-adv-x="501" 
d="M152 349c0 -35 15 -62 82 -94c40 -19 72 -36 92 -51c32 20 57 53 57 89c0 31 -14 62 -75 94c-30 14 -68 33 -93 50c-38 -20 -63 -53 -63 -88zM473 652l-24 -55c-25 15 -62 30 -112 30c-57 0 -106 -33 -106 -81c0 -43 34 -62 100 -92c74 -34 125 -72 125 -142
c0 -66 -40 -111 -88 -142c16 -19 23 -45 23 -71c0 -110 -99 -159 -196 -159c-57 0 -115 15 -148 40l25 57c28 -18 69 -39 126 -39c66 0 115 35 115 89c0 35 -20 63 -98 100c-78 35 -137 76 -137 142c0 56 38 106 100 141c-15 19 -23 40 -23 64c0 94 90 151 191 151
c53 0 102 -16 127 -33z" />
    <glyph glyph-name="currency" unicode="&#xa4;" horiz-adv-x="492" 
d="M264 534c45 0 88 -16 114 -40l71 74l44 -46l-77 -70c19 -27 35 -69 35 -119c0 -54 -17 -96 -35 -121l75 -72l-44 -46l-69 76c-30 -28 -76 -42 -116 -42c-41 0 -86 14 -112 39l-67 -73l-45 46l73 69c-20 26 -37 67 -37 120c0 54 18 95 39 123l-76 70l45 46l69 -74
c27 25 69 40 113 40zM261 474c-73 0 -119 -65 -119 -143c0 -101 67 -143 120 -143c59 0 121 41 121 144c0 73 -42 142 -122 142z" />
    <glyph glyph-name="quotesingle" unicode="'" horiz-adv-x="166" 
d="M128 692h86l-62 -242h-54z" />
    <glyph glyph-name="quotedblleft" unicode="&#x201c;" horiz-adv-x="342" 
d="M163 458l-91 -10c37 84 97 192 132 238l57 6c-31 -59 -75 -162 -98 -234zM312 458l-91 -10c37 84 97 192 132 238l57 6c-31 -59 -76 -162 -98 -234z" />
    <glyph glyph-name="guillemotleft" unicode="&#xab;" horiz-adv-x="409" 
d="M253 436l-151 -186l101 -182h-66l-104 184l148 184h72zM417 436l-152 -186l102 -182h-67l-103 184l147 184h73z" />
    <glyph glyph-name="guilsinglleft" unicode="&#x2039;" horiz-adv-x="245" 
d="M253 436l-152 -186l102 -182h-66l-104 184l147 184h73z" />
    <glyph glyph-name="guilsinglright" unicode="&#x203a;" horiz-adv-x="245" 
d="M160 255l-102 181h66l104 -184l-148 -184h-72z" />
    <glyph glyph-name="fi" unicode="&#xfb01;" horiz-adv-x="499" 
d="M123 0h-82l79 419h-64l12 65h65l5 24c24 132 105 212 231 212c45 0 93 -13 110 -26l-26 -65c-21 11 -55 22 -96 22c-87 0 -125 -66 -138 -145l-4 -22h260l-93 -484h-82l79 419h-177z" />
    <glyph glyph-name="fl" unicode="&#xfb02;" horiz-adv-x="499" 
d="M123 0h-82l79 419h-64l12 65h65l4 21c12 68 39 128 94 170c38 30 92 46 149 46c48 0 104 -12 133 -32l-131 -689h-82l121 640c-12 8 -29 13 -64 13c-80 0 -122 -62 -137 -143l-5 -26h102l-13 -65h-102z" />
    <glyph glyph-name="endash" unicode="&#x2013;" horiz-adv-x="500" 
d="M41 284h440l-12 -60h-440z" />
    <glyph glyph-name="dagger" unicode="&#x2020;" horiz-adv-x="483" 
d="M286 674h80l-49 -211l168 7l-14 -71l-165 7l-79 -456h-80l95 456l-167 -7l14 71l164 -7z" />
    <glyph glyph-name="daggerdbl" unicode="&#x2021;" horiz-adv-x="483" 
d="M286 674h79l-46 -201l167 7l-14 -71l-163 7l-39 -205l166 8l-14 -71l-163 7l-33 -205h-79l46 205l-166 -7l14 71l163 -8l39 205l-166 -7l14 71l163 -7z" />
    <glyph glyph-name="periodcentered" unicode="&#xb7;" horiz-adv-x="211" 
d="M105 198c-33 0 -55 26 -55 59c0 37 26 67 63 67c34 0 56 -26 56 -60c0 -37 -26 -66 -64 -66z" />
    <glyph glyph-name="paragraph" unicode="&#xb6;" horiz-adv-x="494" 
d="M222 -51h-61l61 313c-3 1 -7 1 -10 2c-58 8 -137 60 -137 170c0 137 111 240 307 240c49 0 88 -3 110 -8l-138 -717h-60l127 667h-72z" />
    <glyph glyph-name="bullet" unicode="&#x2022;" horiz-adv-x="277" 
d="M144 161c-57 0 -104 46 -104 105c-1 58 47 105 105 105s105 -46 105 -105c0 -58 -47 -105 -106 -105z" />
    <glyph glyph-name="quotesinglbase" unicode="&#x201a;" horiz-adv-x="194" 
d="M7 -115l-60 -7c31 60 77 165 99 238l94 10c-37 -85 -98 -194 -133 -241z" />
    <glyph glyph-name="quotedblbase" unicode="&#x201e;" horiz-adv-x="342" 
d="M5 -115l-60 -7c32 60 77 165 99 238l94 10c-37 -85 -98 -194 -133 -241zM160 -115l-60 -7c31 60 77 165 99 238l94 10c-37 -85 -98 -194 -133 -241z" />
    <glyph glyph-name="quotedblright" unicode="&#x201d;" horiz-adv-x="342" 
d="M161 682l91 10c-37 -84 -97 -192 -131 -238l-58 -6c31 59 76 162 98 234zM310 682l91 10c-37 -84 -97 -192 -131 -238l-58 -6c31 59 76 162 98 234z" />
    <glyph glyph-name="guillemotright" unicode="&#xbb;" horiz-adv-x="408" 
d="M159 255l-102 181h67l103 -184l-147 -184h-73zM322 255l-101 181h66l104 -184l-148 -184h-72z" />
    <glyph glyph-name="ellipsis" unicode="&#x2026;" horiz-adv-x="1000" 
d="M127 -11c-33 0 -55 26 -55 59c0 37 26 67 63 67c34 0 56 -26 56 -60c0 -37 -26 -66 -64 -66zM460 -11c-33 0 -55 26 -55 59c0 37 26 67 63 67c34 0 56 -26 56 -60c0 -37 -26 -66 -64 -66zM793 -11c-33 0 -55 26 -55 59c0 37 26 67 63 67c34 0 56 -26 56 -60
c0 -37 -26 -66 -64 -66z" />
    <glyph glyph-name="perthousand" unicode="&#x2030;" horiz-adv-x="1124" 
d="M258 661c82 0 119 -66 119 -135c0 -142 -75 -263 -184 -263c-77 0 -123 58 -123 144c0 123 72 254 188 254zM247 608c-67 0 -109 -114 -109 -203c0 -46 14 -89 63 -89c67 0 108 119 108 205c0 39 -12 87 -62 87zM186 -13h-60l491 675h60zM618 392c82 0 119 -66 119 -136
c0 -142 -75 -263 -184 -263c-76 0 -122 58 -122 145c0 122 72 254 187 254zM607 339c-66 0 -108 -115 -108 -203c0 -47 14 -90 63 -90c67 0 107 119 107 206c0 39 -12 87 -62 87zM971 392c82 0 119 -66 119 -136c0 -142 -75 -263 -184 -263c-76 0 -122 58 -122 145
c0 122 72 254 187 254zM960 339c-66 0 -108 -115 -108 -203c0 -47 14 -90 63 -90c67 0 107 119 107 206c0 39 -12 87 -62 87z" />
    <glyph glyph-name="questiondown" unicode="&#xbf;" horiz-adv-x="384" 
d="M191 286h80c0 -9 -1 -18 -2 -27c-5 -54 -35 -115 -98 -182c-46 -46 -86 -93 -86 -145c0 -36 18 -71 76 -71c37 0 71 9 100 27l16 -61c-37 -21 -85 -36 -135 -36c-101 0 -143 68 -143 130c0 70 46 131 108 193c49 50 73 93 80 143zM262 488c32 0 54 -26 54 -58
c0 -37 -26 -67 -63 -67c-33 0 -55 26 -55 59c0 37 26 66 64 66z" />
    <glyph glyph-name="grave" unicode="`" 
d="M144 686h94l66 -143h-60z" />
    <glyph glyph-name="acute" unicode="&#xb4;" 
d="M300 686h100l-133 -143h-65z" />
    <glyph glyph-name="circumflex" unicode="&#x2c6;" 
d="M245 686h59l69 -143h-62l-43 91h-2l-70 -91h-67z" />
    <glyph glyph-name="tilde" unicode="&#x2dc;" 
d="M186 568h-48c7 58 34 100 77 100c26 0 40 -10 61 -22c15 -9 27 -17 40 -17c17 0 24 9 30 42h47c-8 -62 -30 -96 -77 -96c-23 0 -43 10 -59 20c-14 9 -27 18 -42 18c-17 0 -24 -19 -29 -45z" />
    <glyph glyph-name="macron" unicode="&#xaf;" 
d="M162 646h219l-10 -53h-219z" />
    <glyph glyph-name="breve" unicode="&#x2d8;" 
d="M159 683h50c-2 -37 17 -68 55 -68c48 0 71 35 80 68h52c-12 -73 -64 -121 -133 -121c-89 0 -112 60 -104 121z" />
    <glyph glyph-name="dotaccent" unicode="&#x2d9;" 
d="M261 569c-26 0 -46 21 -46 49c0 31 23 54 52 54s47 -22 47 -49c0 -31 -21 -54 -53 -54z" />
    <glyph glyph-name="dieresis" unicode="&#xa8;" 
d="M172 570c-27 0 -47 21 -47 49c0 30 23 53 52 53s47 -22 47 -49c0 -29 -21 -53 -52 -53zM354 570c-27 0 -46 21 -46 49c0 30 23 53 52 53s47 -22 47 -49c0 -29 -21 -53 -53 -53z" />
    <glyph glyph-name="ring" unicode="&#x2da;" horiz-adv-x="384" 
d="M272 721c53 0 95 -35 95 -92c-1 -58 -50 -95 -104 -95s-95 36 -96 88c-1 58 44 99 105 99zM267 683c-29 0 -50 -25 -50 -58c0 -28 19 -53 48 -53c30 0 52 25 52 59c0 29 -19 52 -50 52z" />
    <glyph glyph-name="cedilla" unicode="&#xb8;" 
d="M132 2h53l-39 -52c32 -8 54 -32 54 -64c0 -56 -52 -87 -109 -87c-27 0 -52 8 -65 17l18 43c15 -9 34 -14 52 -14c23 0 44 13 44 36c0 21 -23 34 -66 39z" />
    <glyph glyph-name="hungarumlaut" unicode="&#x2dd;" 
d="M242 686h88l-125 -143h-56zM387 686h88l-126 -143h-55z" />
    <glyph glyph-name="ogonek" unicode="&#x2db;" 
d="M137 1h62c-36 -28 -74 -74 -74 -111c0 -23 14 -37 38 -37c16 0 31 4 44 10l9 -45c-25 -17 -53 -24 -81 -24c-49 0 -78 29 -78 72c0 59 53 112 80 135z" />
    <glyph glyph-name="caron" unicode="&#x2c7;" 
d="M284 543h-59l-70 143h62l43 -92h3l71 92h67z" />
    <glyph glyph-name="emdash" unicode="&#x2014;" horiz-adv-x="1000" 
d="M41 284h940l-12 -60h-940z" />
    <glyph glyph-name="AE" unicode="&#xc6;" horiz-adv-x="773" 
d="M37 0h-88l448 674h380l-14 -71h-251l-23 -218h238l-13 -70h-230l-26 -244h257l-13 -71h-329l24 238h-202zM238 307h165l21 195c3 32 7 75 12 109h-4c-18 -32 -41 -71 -64 -106z" />
    <glyph glyph-name="ordfeminine" unicode="&#xaa;" horiz-adv-x="350" 
d="M325 267h-59c0 18 1 41 4 63h-2c-28 -45 -70 -69 -116 -69c-57 0 -94 46 -94 115c0 108 74 215 214 215c33 0 76 -9 97 -17l-36 -206c-7 -37 -8 -75 -8 -101zM280 422l20 112c-12 5 -26 7 -45 7c-71 0 -131 -68 -131 -155c0 -37 14 -73 55 -73c44 0 90 50 101 109z" />
    <glyph glyph-name="Lslash" unicode="&#x141;" horiz-adv-x="448" 
d="M391 0h-354l51 270l-95 -62l13 68l95 61l64 337h83l-53 -278l142 93l-13 -69l-142 -92l-48 -256h271z" />
    <glyph glyph-name="Oslash" unicode="&#xd8;" horiz-adv-x="667" 
d="M64 -42l-41 39l77 88c-34 50 -52 104 -52 183c0 118 45 238 121 317c62 63 146 100 232 100c72 0 125 -19 166 -57l76 85l44 -36l-80 -91c34 -49 49 -108 49 -176c0 -118 -45 -244 -119 -322c-59 -62 -145 -99 -230 -99c-69 0 -123 19 -165 57zM159 155l358 413
c-27 29 -64 47 -125 47c-111 0 -205 -95 -241 -218c-23 -78 -26 -166 6 -242h2zM547 512l-354 -407c29 -30 66 -46 126 -46c100 0 192 85 231 207c23 73 32 165 -1 246h-2z" />
    <glyph glyph-name="OE" unicode="&#x152;" horiz-adv-x="867" 
d="M799 71l-13 -71h-324c-19 0 -39 -2 -62 -3c-21 -3 -43 -4 -72 -4c-192 0 -282 130 -282 284c0 205 138 404 408 404c31 0 52 -1 77 -3c28 -2 45 -4 67 -4h300l-13 -71h-269l-41 -217h253l-13 -70h-253l-46 -245h283zM433 71l100 532c-20 5 -40 8 -85 8
c-204 0 -314 -159 -314 -328c0 -120 59 -220 218 -220c30 0 54 3 81 8z" />
    <glyph glyph-name="ordmasculine" unicode="&#xba;" horiz-adv-x="345" 
d="M231 591c91 0 136 -63 136 -136c0 -110 -78 -194 -181 -194c-87 0 -134 65 -134 133c0 113 81 197 179 197zM223 541c-58 0 -104 -70 -104 -146c0 -54 31 -85 73 -85c56 0 107 62 107 149c0 37 -15 82 -76 82z" />
    <glyph glyph-name="ae" unicode="&#xe6;" horiz-adv-x="718" 
d="M630 89l11 -60c-36 -22 -91 -40 -159 -40c-77 0 -137 39 -158 107h-2c-39 -67 -106 -107 -183 -107c-86 0 -132 56 -133 124c0 129 136 196 315 189l3 19c8 46 -10 111 -92 111c-49 0 -89 -15 -126 -40l-17 56c50 33 106 47 153 47c78 0 127 -37 138 -102h3
c41 68 113 102 183 102c94 0 139 -58 139 -116c0 -135 -150 -152 -321 -146c-7 -39 -9 -77 5 -112c18 -43 59 -65 110 -65c65 0 100 17 131 33zM301 189l10 54c-85 4 -221 -15 -221 -119c0 -43 28 -69 71 -69c60 0 123 45 140 134zM623 373c0 30 -25 58 -71 58
c-85 0 -141 -81 -157 -137c120 -4 228 1 228 79z" />
    <glyph glyph-name="dotlessi" unicode="&#x131;" horiz-adv-x="229" 
d="M111 0h-83l92 484h83z" />
    <glyph glyph-name="lslash" unicode="&#x142;" horiz-adv-x="237" 
d="M116 0h-82l54 284l-76 -54l13 68l76 54l68 358h83l-56 -293l79 57l-13 -68l-79 -56z" />
    <glyph glyph-name="oslash" unicode="&#xf8;" horiz-adv-x="523" 
d="M52 -38l-30 30l56 65c-31 38 -43 85 -43 137c0 155 112 301 266 301c51 0 89 -14 116 -35l55 61l33 -29l-55 -63c31 -41 43 -91 43 -133c0 -169 -121 -307 -261 -307c-56 0 -94 14 -123 39zM139 125l230 277c-17 18 -42 29 -77 29c-106 0 -172 -129 -172 -227
c0 -33 4 -56 17 -79h2zM390 359l-232 -275c19 -20 46 -31 81 -31c88 0 168 115 169 228c0 29 -5 54 -15 78h-3z" />
    <glyph glyph-name="oe" unicode="&#x153;" horiz-adv-x="800" 
d="M712 90l13 -61c-36 -22 -95 -40 -156 -40c-78 0 -139 37 -161 114h-2c-44 -77 -115 -114 -190 -114c-112 0 -182 88 -182 200c0 161 109 306 260 306c85 0 141 -47 159 -118h1c44 77 122 118 195 118c102 0 137 -65 137 -119c0 -138 -162 -156 -319 -157
c-7 -32 -3 -70 9 -98c18 -40 55 -64 110 -64c56 0 97 17 126 33zM232 55c103 0 168 140 168 240c0 67 -24 135 -108 135c-106 0 -172 -126 -172 -237c0 -81 43 -138 112 -138zM707 371c0 35 -27 60 -74 60c-79 0 -135 -78 -155 -149c112 1 229 9 229 89z" />
    <glyph glyph-name="germandbls" unicode="&#xdf;" horiz-adv-x="538" 
d="M112 0h-83l88 461c27 144 94 260 246 260c97 0 156 -62 156 -142c0 -43 -20 -87 -42 -107c-46 -17 -86 -47 -86 -93c0 -33 14 -54 37 -84c29 -39 51 -82 51 -130c0 -111 -89 -176 -197 -176c-40 0 -76 9 -100 23l23 63c23 -13 54 -20 77 -20c64 0 112 40 112 102
c0 26 -8 55 -37 92c-35 44 -51 77 -51 113c0 66 49 114 109 140c11 11 22 35 22 69c0 41 -24 82 -86 82c-73 0 -127 -61 -149 -180z" />
    <glyph glyph-name="onesuperior" unicode="&#xb9;" horiz-adv-x="228" 
d="M203 406h-69l63 329h-2l-72 -32l-6 49l100 44h60z" />
    <glyph glyph-name="logicalnot" unicode="&#xac;" horiz-adv-x="596" 
d="M49 399h501v-279h-63v220h-438v59z" />
    <glyph glyph-name="mu" unicode="&#xb5;" horiz-adv-x="525" 
d="M196 484l-54 -287c-16 -84 7 -138 81 -138c51 0 98 53 124 102c10 18 17 39 21 59l50 264h83l-65 -344c-12 -63 -3 -82 28 -84l-18 -64c-9 -2 -13 -3 -27 -3c-39 0 -67 24 -63 100h-3c-29 -52 -81 -98 -146 -98c-43 0 -81 19 -98 58l-11 -65c-10 -53 -24 -141 -21 -182
h-74c-6 28 1 100 16 179l95 503h82z" />
    <glyph glyph-name="trademark" unicode="&#x2122;" horiz-adv-x="669" 
d="M104 674h227v-45h-87v-227h-54v227h-86v45zM679 402h-54l-10 160c-1 21 -1 47 -2 76h-3c-7 -24 -15 -56 -22 -81l-50 -151h-55l-49 155c-5 21 -13 53 -19 77h-3c-1 -25 -1 -51 -3 -76l-10 -160h-52l20 272h82l47 -133c6 -21 11 -41 17 -69h2c6 24 13 48 18 68l47 134h79z
" />
    <glyph glyph-name="Eth" unicode="&#xd0;" horiz-adv-x="654" 
d="M14 317l14 70h84l52 278c56 10 114 14 171 14c108 0 195 -31 244 -88c37 -38 64 -100 64 -184c0 -120 -51 -242 -140 -316c-75 -62 -175 -94 -301 -94c-60 0 -120 3 -163 9l59 311h-84zM361 387l-14 -70h-166l-47 -246c30 -5 62 -5 91 -5c94 0 177 32 234 90
c61 61 95 155 95 248c0 118 -58 207 -225 207c-31 0 -64 -1 -93 -5l-41 -219h166z" />
    <glyph glyph-name="onehalf" unicode="&#xbd;" horiz-adv-x="751" 
d="M195 266h-69l62 329h-1l-72 -33l-7 50l100 44h61zM140 -11h-61l488 672h61zM661 0h-263l7 39l73 59c93 75 156 128 156 187c0 27 -14 54 -60 54c-33 0 -66 -17 -84 -31l-16 45c31 24 75 42 121 42c71 0 112 -44 112 -101c0 -79 -80 -143 -165 -209l-36 -28v-2h165z" />
    <glyph glyph-name="plusminus" unicode="&#xb1;" horiz-adv-x="596" 
d="M275 572h62v-195h219v-59h-219v-201h-62v201h-219v59h219v195zM56 59h500v-59h-500v59z" />
    <glyph glyph-name="Thorn" unicode="&#xde;" horiz-adv-x="507" 
d="M32 0l128 674h81l-25 -132c22 5 49 7 80 7c66 0 119 -17 153 -52c30 -29 45 -68 45 -113c0 -152 -133 -233 -276 -233c-27 0 -54 2 -76 5l-29 -156h-81zM203 474l-47 -248c23 -5 47 -6 70 -6c98 0 184 61 184 154c0 75 -55 108 -133 108c-29 0 -60 -4 -74 -8z" />
    <glyph glyph-name="onequarter" unicode="&#xbc;" horiz-adv-x="751" 
d="M616 0h-66l19 103h-192l8 40l232 252h73l-46 -243h58l-9 -49h-58zM578 152l23 118c4 24 10 45 15 63h-2c-16 -22 -29 -40 -43 -57l-113 -123l1 -1h119zM198 266h-69l63 329h-2l-71 -33l-7 50l100 44h60zM159 -11h-62l486 672h62z" />
    <glyph glyph-name="divide" unicode="&#xf7;" horiz-adv-x="596" 
d="M305 386c-31 0 -52 24 -52 55c0 33 22 56 53 56c32 0 53 -23 53 -56c0 -31 -21 -55 -54 -55zM556 237h-500v59h500v-59zM305 36c-31 0 -52 24 -52 55c0 33 22 56 53 56c32 0 53 -23 53 -56c0 -31 -21 -55 -54 -55z" />
    <glyph glyph-name="brokenbar" unicode="&#xa6;" horiz-adv-x="217" 
d="M95 174h62v-350h-62v350zM95 674h62v-350h-62v350z" />
    <glyph glyph-name="degree" unicode="&#xb0;" horiz-adv-x="318" 
d="M226 685c79 0 127 -60 127 -125c0 -80 -67 -135 -133 -135c-76 0 -127 58 -127 127c0 73 60 133 133 133zM223 638c-48 0 -76 -47 -76 -86c0 -45 33 -80 75 -80c43 0 77 38 77 86c0 35 -20 80 -76 80z" />
    <glyph glyph-name="thorn" unicode="&#xfe;" horiz-adv-x="526" 
d="M-15 -198l164 868h83l-53 -273h2c40 60 100 98 167 98c103 0 149 -82 149 -176c0 -176 -127 -330 -284 -330c-36 0 -79 8 -103 22h-3l-39 -209h-83zM146 216l-26 -136c21 -17 58 -26 94 -26c107 0 196 132 196 258c0 53 -23 114 -91 114c-64 0 -146 -70 -173 -210z" />
    <glyph glyph-name="threequarters" unicode="&#xbe;" horiz-adv-x="751" 
d="M193 -11h-62l486 672h62zM124 582l-11 45c25 18 68 34 111 34c72 0 110 -40 110 -86c0 -47 -39 -81 -91 -97v-2c41 -10 71 -45 71 -89c-1 -76 -68 -126 -164 -126c-46 0 -89 13 -109 29l22 48c17 -12 50 -26 87 -26c59 0 93 35 93 75c0 46 -44 65 -90 65h-20l8 45h21
c45 0 100 26 100 68c0 25 -15 45 -57 45c-29 0 -62 -14 -81 -28zM627 0h-66l19 103h-192l8 40l232 252h74l-46 -243h57l-9 -49h-58zM590 152l22 118c5 24 10 45 15 63h-2c-16 -22 -28 -40 -43 -57l-113 -123l1 -1h120z" />
    <glyph glyph-name="twosuperior" unicode="&#xb2;" horiz-adv-x="298" 
d="M310 406h-263l7 40l73 58c93 74 156 128 156 187c0 27 -14 54 -60 54c-33 0 -66 -17 -85 -30l-16 44c32 24 76 42 122 42c71 0 112 -44 112 -101c0 -79 -80 -143 -165 -209l-36 -28v-2h166z" />
    <glyph glyph-name="registered" unicode="&#xae;" horiz-adv-x="395" 
d="M226 499v-65h-38v164c15 2 36 5 63 5c32 0 46 -5 57 -13c10 -7 17 -19 17 -35c0 -20 -15 -33 -34 -39v-2c16 -5 24 -18 29 -40c5 -25 9 -34 12 -40h-40c-5 6 -8 20 -13 40c-3 17 -13 25 -34 25h-19zM227 573v-47h18c22 0 39 7 39 24c0 15 -11 25 -36 25
c-10 0 -16 -1 -21 -2zM254 683c93 0 166 -72 166 -164s-73 -165 -167 -165s-169 73 -169 165s75 164 170 164zM251 650c-71 0 -125 -59 -125 -131c0 -73 54 -131 127 -131c72 -1 125 58 125 130c0 73 -53 132 -127 132z" />
    <glyph glyph-name="minus" unicode="&#x2212;" horiz-adv-x="596" 
d="M57 297h500v-59h-500v59z" />
    <glyph glyph-name="eth" unicode="&#xf0;" horiz-adv-x="516" 
d="M228 55c99 0 169 119 171 244c1 27 -1 51 -15 74c-16 26 -44 48 -92 48c-104 0 -173 -124 -173 -235c0 -71 36 -131 109 -131zM165 507l-17 42l128 59c-25 25 -57 46 -89 62l39 49c48 -22 83 -47 121 -79l130 58l18 -42l-112 -51c64 -70 103 -158 103 -269
c0 -212 -126 -347 -264 -347c-132 0 -189 96 -189 195c0 160 113 298 255 300c33 0 77 -8 105 -48l3 2c-18 53 -45 97 -85 137z" />
    <glyph glyph-name="multiply" unicode="&#xd7;" horiz-adv-x="596" 
d="M63 482l43 44l204 -222l205 222l43 -43l-207 -220l207 -219l-44 -44l-205 222l-205 -222l-41 45l205 218z" />
    <glyph glyph-name="threesuperior" unicode="&#xb3;" horiz-adv-x="291" 
d="M137 722l-11 45c25 18 68 34 111 34c72 0 110 -40 110 -86c0 -47 -39 -81 -90 -97v-2c41 -10 71 -45 71 -89c-1 -76 -68 -126 -164 -126c-46 0 -89 13 -109 29l22 48c17 -12 50 -26 87 -26c59 0 93 35 93 75c0 46 -44 65 -91 65h-20l8 45h21c45 0 100 26 100 68
c0 25 -15 45 -57 45c-29 0 -62 -14 -81 -28z" />
    <glyph glyph-name="copyright" unicode="&#xa9;" horiz-adv-x="675" 
d="M368 648c167 0 298 -138 298 -308c0 -172 -131 -310 -299 -310c-170 0 -303 138 -303 310c0 170 133 308 304 308zM365 607c-141 0 -252 -117 -252 -270c0 -150 111 -266 253 -266c141 -2 251 116 251 269c0 150 -110 267 -252 267zM501 493l-12 -40c-14 8 -50 24 -98 24
c-93 0 -139 -60 -139 -140c0 -78 49 -141 140 -141c41 0 79 11 103 27l11 -38c-35 -24 -82 -32 -123 -32c-116 0 -183 79 -183 181c0 114 90 186 190 186c53 0 97 -15 111 -27z" />
    <glyph glyph-name="Aacute" unicode="&#xc1;" horiz-adv-x="568" 
d="M400 213h-232l-107 -213h-88l349 674h97l94 -674h-85zM198 279h196l-26 195c-4 35 -9 85 -12 124h-2c-18 -40 -35 -82 -55 -123zM424 828h108l-136 -118h-74z" />
    <glyph glyph-name="Acircumflex" unicode="&#xc2;" horiz-adv-x="568" 
d="M400 213h-232l-108 -213h-87l348 674h98l94 -674h-85zM198 279h196l-26 195c-4 35 -9 85 -12 124h-2c-18 -40 -35 -82 -56 -123zM357 828h65l80 -118h-68l-49 72h-2l-72 -72h-74z" />
    <glyph glyph-name="Adieresis" unicode="&#xc4;" horiz-adv-x="568" 
d="M400 213h-232l-107 -213h-88l349 674h97l93 -674h-85zM198 279h196l-26 195c-4 35 -9 85 -12 124h-2c-18 -40 -35 -82 -55 -123zM284 720c-25 0 -46 21 -46 48c0 29 23 53 52 53s47 -24 47 -48c0 -29 -23 -53 -53 -53zM468 720c-25 0 -46 21 -46 48c0 29 23 53 52 53
s47 -24 47 -48c0 -29 -23 -53 -53 -53z" />
    <glyph glyph-name="Agrave" unicode="&#xc0;" horiz-adv-x="568" 
d="M400 213h-232l-107 -213h-88l349 674h97l94 -674h-85zM198 279h196l-26 195c-4 35 -9 85 -12 124h-2c-18 -40 -35 -82 -55 -123zM233 828h103l75 -117h-68z" />
    <glyph glyph-name="Aring" unicode="&#xc5;" horiz-adv-x="568" 
d="M401 213h-233l-107 -213h-88l349 674h98l93 -674h-85zM198 279h196l-26 195c-4 35 -9 85 -12 124h-2c-18 -40 -35 -82 -55 -123zM386 873c56 0 95 -34 95 -87c-1 -56 -47 -91 -103 -91c-55 0 -94 34 -95 83c-1 55 42 95 103 95zM382 837c-29 0 -48 -24 -48 -56
c0 -27 18 -50 46 -50c29 0 49 23 49 54c0 30 -17 52 -47 52z" />
    <glyph glyph-name="Atilde" unicode="&#xc3;" horiz-adv-x="568" 
d="M401 213h-233l-107 -213h-88l349 674h98l93 -674h-85zM198 279h197l-27 195c-4 35 -8 85 -12 124h-2c-18 -40 -35 -82 -55 -123zM292 715h-47c10 59 41 100 82 100c27 0 42 -9 60 -20c15 -10 29 -18 44 -18c17 0 27 13 35 40h46c-11 -62 -38 -96 -83 -96
c-26 0 -40 8 -60 19c-17 10 -27 19 -43 18c-16 0 -27 -16 -34 -43z" />
    <glyph glyph-name="Ccedilla" unicode="&#xc7;" horiz-adv-x="558" 
d="M486 91l11 -68c-35 -16 -92 -31 -152 -33l-31 -40c33 -8 54 -33 54 -65c0 -56 -55 -85 -108 -85c-28 0 -53 8 -67 18l18 41c15 -9 33 -14 51 -14c22 0 44 12 44 35c0 22 -21 35 -65 40l52 71c-156 12 -244 119 -244 279c0 125 51 247 144 324c70 59 156 90 254 90
c75 0 129 -19 146 -32l-27 -67c-25 15 -73 27 -132 27c-71 0 -142 -27 -194 -75c-64 -59 -103 -156 -103 -256c0 -120 56 -220 205 -220c51 0 107 11 144 30z" />
    <glyph glyph-name="Eacute" unicode="&#xc9;" horiz-adv-x="470" 
d="M432 387l-13 -70h-245l-47 -246h276l-14 -71h-358l128 674h343l-14 -71h-259l-42 -216h245zM387 828h109l-137 -118h-73z" />
    <glyph glyph-name="Ecircumflex" unicode="&#xca;" horiz-adv-x="470" 
d="M433 387l-14 -70h-245l-46 -246h276l-14 -71h-359l128 674h344l-14 -71h-260l-41 -216h245zM323 828h65l80 -118h-68l-49 72h-2l-72 -72h-74z" />
    <glyph glyph-name="Edieresis" unicode="&#xcb;" horiz-adv-x="470" 
d="M433 387l-14 -70h-245l-47 -246h277l-14 -71h-359l128 674h344l-14 -71h-261l-41 -216h246zM252 720c-25 0 -46 21 -46 48c0 29 23 53 52 53s47 -24 47 -48c0 -29 -23 -53 -53 -53zM437 720c-25 0 -46 21 -46 48c0 29 23 53 52 53s47 -24 47 -48c0 -29 -23 -53 -53 -53z
" />
    <glyph glyph-name="Egrave" unicode="&#xc8;" horiz-adv-x="470" 
d="M433 387l-14 -70h-245l-46 -246h276l-14 -71h-359l128 674h344l-14 -71h-260l-41 -216h245zM214 828h103l75 -117h-68z" />
    <glyph glyph-name="Iacute" unicode="&#xcd;" horiz-adv-x="233" 
d="M158 674h83l-128 -674h-83zM252 828h109l-137 -118h-73z" />
    <glyph glyph-name="Icircumflex" unicode="&#xce;" horiz-adv-x="233" 
d="M158 674h83l-128 -674h-83zM187 828h64l80 -118h-68l-49 72h-2l-72 -72h-74z" />
    <glyph glyph-name="Idieresis" unicode="&#xcf;" horiz-adv-x="233" 
d="M158 674h84l-129 -674h-83zM120 720c-25 0 -46 21 -46 48c0 29 23 53 52 53s47 -24 47 -48c0 -29 -23 -53 -53 -53zM305 720c-25 0 -46 21 -46 48c0 29 23 53 52 53s47 -24 47 -48c0 -29 -23 -53 -53 -53z" />
    <glyph glyph-name="Igrave" unicode="&#xcc;" horiz-adv-x="233" 
d="M158 674h83l-128 -674h-83zM79 828h103l75 -117h-68z" />
    <glyph glyph-name="Ntilde" unicode="&#xd1;" horiz-adv-x="632" 
d="M110 0h-79l129 674h90l154 -382c30 -76 45 -130 60 -188l2 1c3 61 10 117 28 211l68 358h78l-128 -674h-82l-153 381c-33 83 -48 130 -63 194l-3 -1c-7 -63 -18 -130 -35 -222zM332 716h-47c10 59 41 100 82 100c27 0 42 -9 60 -21c15 -10 29 -18 44 -18
c16 0 26 13 34 40h46c-11 -62 -38 -96 -83 -96c-25 0 -40 8 -59 20c-17 10 -27 19 -43 18c-16 0 -27 -16 -34 -43z" />
    <glyph glyph-name="Oacute" unicode="&#xd3;" horiz-adv-x="668" 
d="M303 -11c-174 0 -255 131 -255 274c0 119 46 250 128 331c58 56 141 91 226 91c182 0 255 -132 255 -276c0 -117 -43 -246 -123 -326c-59 -59 -138 -94 -231 -94zM316 59c57 0 112 25 154 67c63 64 100 185 100 279c0 96 -31 210 -179 210c-60 0 -112 -26 -154 -67
c-65 -65 -102 -184 -102 -278c0 -110 49 -211 181 -211zM470 829h109l-137 -118h-74z" />
    <glyph glyph-name="Ocircumflex" unicode="&#xd4;" horiz-adv-x="668" 
d="M303 -11c-174 0 -255 131 -255 274c0 119 46 250 128 331c58 56 141 91 226 91c182 0 255 -132 255 -276c0 -117 -43 -246 -123 -326c-59 -59 -138 -94 -231 -94zM316 59c57 0 112 25 154 67c63 64 100 185 100 279c0 96 -31 210 -179 210c-60 0 -112 -26 -154 -67
c-65 -65 -102 -184 -102 -278c0 -110 49 -211 181 -211zM402 828h65l80 -118h-68l-49 72h-2l-72 -72h-74z" />
    <glyph glyph-name="Odieresis" unicode="&#xd6;" horiz-adv-x="668" 
d="M304 -11c-175 0 -256 131 -256 274c0 119 46 250 128 331c58 56 142 91 227 91c181 0 254 -132 254 -276c0 -117 -43 -246 -122 -326c-60 -59 -138 -94 -231 -94zM316 59c57 0 112 25 154 67c63 64 100 185 100 279c0 96 -31 210 -178 210c-60 0 -113 -26 -155 -67
c-65 -65 -102 -184 -102 -278c0 -110 49 -211 181 -211zM335 720c-25 0 -46 21 -46 48c0 29 23 53 52 53s47 -24 47 -48c0 -29 -23 -53 -53 -53zM520 720c-25 0 -46 21 -46 48c0 29 23 53 52 53s47 -24 47 -48c0 -29 -23 -53 -53 -53z" />
    <glyph glyph-name="Ograve" unicode="&#xd2;" horiz-adv-x="668" 
d="M303 -11c-174 0 -255 131 -255 274c0 119 46 250 128 331c58 56 141 91 226 91c182 0 255 -132 255 -276c0 -117 -43 -246 -123 -326c-59 -59 -138 -94 -231 -94zM316 59c57 0 112 25 154 67c63 64 100 185 100 279c0 96 -31 210 -179 210c-60 0 -112 -26 -154 -67
c-65 -65 -102 -184 -102 -278c0 -110 49 -211 181 -211zM287 828h104l75 -117h-69z" />
    <glyph glyph-name="Otilde" unicode="&#xd5;" horiz-adv-x="668" 
d="M304 -11c-175 0 -256 131 -256 274c0 119 46 250 128 331c59 56 142 91 227 91c181 0 254 -132 254 -276c0 -117 -43 -246 -122 -326c-60 -59 -138 -94 -231 -94zM316 59c58 0 112 25 154 67c63 64 100 185 100 279c0 96 -31 210 -178 210c-60 0 -113 -26 -154 -67
c-65 -65 -103 -184 -103 -278c0 -110 49 -211 181 -211zM345 716h-47c10 59 41 100 82 100c27 0 42 -9 60 -21c15 -10 29 -18 44 -18c16 0 26 13 34 40h46c-11 -62 -38 -96 -83 -96c-25 0 -40 8 -59 20c-17 10 -27 19 -43 18c-16 0 -27 -16 -34 -43z" />
    <glyph glyph-name="Scaron" unicode="&#x160;" horiz-adv-x="466" 
d="M12 36l30 68c37 -25 87 -43 143 -43c76 0 146 45 146 126c0 50 -28 88 -99 126c-86 47 -134 101 -134 173c0 121 104 198 228 198c66 0 115 -19 138 -35l-30 -68c-21 13 -63 32 -117 32c-83 0 -133 -55 -133 -110s34 -86 105 -125c83 -45 128 -98 128 -181
c0 -116 -91 -208 -243 -208c-67 1 -134 22 -162 47zM350 710h-65l-80 118h69l47 -72h3l72 72h74z" />
    <glyph glyph-name="Uacute" unicode="&#xda;" horiz-adv-x="621" 
d="M158 674h83l-76 -399c-5 -28 -8 -57 -8 -85c0 -86 50 -130 125 -130c92 0 159 62 188 214l77 400h83l-77 -403c-39 -201 -139 -282 -282 -282c-111 0 -197 60 -197 199c0 29 3 62 9 93zM438 828h109l-137 -118h-73z" />
    <glyph glyph-name="Ucircumflex" unicode="&#xdb;" horiz-adv-x="621" 
d="M158 674h83l-76 -399c-5 -28 -8 -57 -8 -85c0 -86 50 -130 125 -130c92 0 159 62 188 214l77 400h83l-77 -403c-39 -201 -139 -282 -282 -282c-111 0 -197 60 -197 199c0 29 3 62 9 93zM391 828h64l80 -118h-67l-50 72h-2l-72 -72h-74z" />
    <glyph glyph-name="Udieresis" unicode="&#xdc;" horiz-adv-x="621" 
d="M158 674h83l-76 -399c-5 -28 -8 -57 -8 -85c0 -86 50 -130 125 -130c92 0 159 62 188 214l77 400h83l-78 -403c-38 -201 -138 -282 -281 -282c-111 0 -197 60 -197 199c0 29 3 62 9 93zM312 720c-25 0 -46 21 -46 48c0 29 23 53 52 53c28 0 46 -24 46 -48
c0 -29 -22 -53 -52 -53zM496 720c-25 0 -46 21 -46 48c0 29 23 53 52 53s47 -24 47 -48c0 -29 -23 -53 -53 -53z" />
    <glyph glyph-name="Ugrave" unicode="&#xd9;" horiz-adv-x="621" 
d="M158 674h83l-76 -399c-5 -28 -8 -57 -8 -85c0 -86 50 -130 125 -130c92 0 159 62 188 214l77 400h83l-77 -403c-39 -201 -139 -282 -282 -282c-111 0 -197 60 -197 199c0 29 3 62 9 93zM274 828h103l75 -117h-69z" />
    <glyph glyph-name="Yacute" unicode="&#xdd;" horiz-adv-x="517" 
d="M243 0h-82l53 280l-130 394h89l65 -218c17 -60 23 -87 28 -113h2c17 28 40 66 72 116l146 215h97l-287 -393zM386 828h109l-137 -118h-73z" />
    <glyph glyph-name="Ydieresis" unicode="&#x178;" horiz-adv-x="517" 
d="M243 0h-82l53 280l-130 394h89l65 -218c17 -60 23 -87 28 -113h2c17 28 40 66 73 116l146 215h97l-287 -393zM251 720c-25 0 -46 21 -46 48c0 29 23 53 52 53s47 -24 47 -48c0 -29 -23 -53 -53 -53zM436 720c-25 0 -46 21 -46 48c0 29 23 53 52 53s47 -24 47 -48
c0 -29 -23 -53 -53 -53z" />
    <glyph glyph-name="Zcaron" unicode="&#x17d;" horiz-adv-x="523" 
d="M-20 0l9 51l458 549l-1 3h-320l14 71h432l-11 -54l-454 -546l1 -3h354l-13 -71h-469zM391 710h-65l-80 118h70l47 -73h3l71 73h74z" />
    <glyph glyph-name="aacute" unicode="&#xe1;" horiz-adv-x="522" 
d="M427 0h-78c0 29 5 75 11 125h-2c-52 -101 -119 -136 -188 -136c-86 0 -139 68 -139 160c0 169 124 346 335 346c47 0 97 -8 131 -18l-50 -253c-16 -84 -22 -170 -20 -224zM375 276l28 146c-11 4 -29 7 -57 7c-126 0 -229 -130 -229 -265c0 -54 19 -107 83 -107
c69 0 151 90 175 219zM396 686h100l-133 -143h-66z" />
    <glyph glyph-name="acircumflex" unicode="&#xe2;" horiz-adv-x="522" 
d="M427 0h-78c0 29 5 75 11 125h-2c-52 -101 -119 -136 -188 -136c-86 0 -139 68 -139 160c0 169 124 346 335 346c47 0 97 -8 131 -18l-50 -253c-16 -84 -22 -170 -20 -224zM375 276l28 146c-11 4 -29 7 -57 7c-126 0 -229 -130 -229 -265c0 -54 19 -107 83 -107
c69 0 151 90 175 219zM330 686h59l69 -143h-62l-43 91h-2l-70 -91h-67z" />
    <glyph glyph-name="adieresis" unicode="&#xe4;" horiz-adv-x="522" 
d="M427 0h-78c0 29 5 75 11 125h-2c-52 -101 -119 -136 -188 -136c-86 0 -139 68 -139 160c0 169 124 346 335 346c47 0 97 -8 131 -18l-50 -253c-16 -84 -22 -170 -20 -224zM375 276l28 146c-11 4 -29 7 -57 7c-126 0 -229 -130 -229 -265c0 -54 19 -107 83 -107
c69 0 151 90 175 219zM245 570c-27 0 -47 21 -47 49c0 30 23 53 52 53s47 -22 47 -49c0 -29 -21 -53 -52 -53zM427 570c-27 0 -46 21 -46 49c0 30 23 53 52 53s47 -22 47 -49c0 -29 -21 -53 -53 -53z" />
    <glyph glyph-name="agrave" unicode="&#xe0;" horiz-adv-x="522" 
d="M427 0h-78c0 29 5 75 11 125h-2c-52 -101 -119 -136 -188 -136c-86 0 -139 68 -139 160c0 169 124 346 335 346c47 0 97 -8 131 -18l-50 -253c-16 -84 -22 -170 -20 -224zM375 276l28 146c-11 4 -29 7 -57 7c-126 0 -229 -130 -229 -265c0 -54 19 -107 83 -107
c69 0 151 90 175 219zM227 686h94l66 -143h-60z" />
    <glyph glyph-name="aring" unicode="&#xe5;" horiz-adv-x="522" 
d="M427 0h-78c0 29 5 75 11 125h-2c-52 -101 -119 -136 -188 -136c-86 0 -139 68 -139 160c0 169 124 346 335 346c47 0 97 -8 131 -18l-50 -253c-16 -84 -22 -170 -20 -224zM375 276l28 146c-11 4 -29 7 -58 7c-125 0 -228 -130 -228 -265c0 -54 19 -107 83 -107
c69 0 151 90 175 219zM345 721c53 0 95 -35 95 -92c-1 -58 -50 -95 -104 -95s-95 36 -96 88c-1 58 44 99 105 99zM340 683c-29 0 -50 -25 -50 -58c0 -28 19 -53 48 -53c30 0 52 25 52 59c0 29 -19 52 -50 52z" />
    <glyph glyph-name="atilde" unicode="&#xe3;" horiz-adv-x="522" 
d="M427 0h-78c0 29 5 75 11 125h-2c-52 -101 -119 -136 -188 -136c-86 0 -139 68 -139 160c0 169 124 346 335 346c47 0 97 -8 131 -18l-50 -253c-16 -84 -22 -170 -20 -224zM375 276l28 146c-11 4 -29 7 -57 7c-126 0 -229 -130 -229 -265c0 -54 19 -107 83 -107
c69 0 151 90 175 219zM259 568h-48c7 58 34 100 77 100c26 0 40 -10 61 -22c14 -9 27 -17 40 -17c17 0 24 9 30 42h47c-8 -62 -30 -96 -77 -96c-23 0 -43 10 -59 20c-13 9 -27 18 -42 18c-17 0 -24 -19 -29 -45z" />
    <glyph glyph-name="ccedilla" unicode="&#xe7;" horiz-adv-x="423" 
d="M352 84l8 -64c-21 -10 -61 -26 -106 -29l-31 -41c32 -8 54 -32 54 -65c0 -55 -53 -86 -108 -86c-27 0 -54 8 -67 17l19 43c15 -9 34 -14 52 -14c23 0 43 13 43 36c0 21 -22 35 -66 39l51 71c-117 7 -167 93 -167 185c0 165 122 318 296 318c46 0 86 -13 101 -22l-24 -65
c-19 9 -46 18 -82 18c-126 0 -205 -124 -205 -239c0 -77 41 -129 120 -129c52 0 87 16 112 27z" />
    <glyph glyph-name="eacute" unicode="&#xe9;" horiz-adv-x="453" 
d="M365 89l12 -62c-36 -20 -95 -38 -160 -38c-128 0 -184 88 -184 195c0 146 108 311 264 311c92 0 142 -55 142 -125c0 -127 -143 -160 -322 -157c-4 -21 -1 -66 10 -92c19 -44 58 -65 108 -65c57 0 100 17 130 33zM359 369c0 39 -30 61 -74 61c-79 0 -138 -77 -159 -153
c131 -2 233 16 233 92zM351 686h99l-133 -143h-65z" />
    <glyph glyph-name="ecircumflex" unicode="&#xea;" horiz-adv-x="453" 
d="M365 89l12 -62c-36 -20 -95 -38 -160 -38c-128 0 -184 88 -184 195c0 146 108 311 264 311c92 0 142 -55 142 -125c0 -127 -143 -160 -322 -157c-4 -21 -1 -66 10 -92c19 -44 58 -65 108 -65c57 0 100 17 130 33zM359 369c0 39 -30 61 -74 61c-79 0 -138 -77 -159 -153
c131 -2 233 16 233 92zM296 686h59l69 -143h-62l-43 91h-2l-70 -91h-67z" />
    <glyph glyph-name="edieresis" unicode="&#xeb;" horiz-adv-x="453" 
d="M365 89l12 -62c-36 -20 -95 -38 -160 -38c-128 0 -184 88 -184 195c0 146 108 311 264 311c92 0 142 -55 142 -125c0 -127 -143 -160 -322 -157c-4 -21 -1 -66 10 -92c19 -44 58 -65 108 -65c57 0 100 17 130 33zM359 369c0 39 -30 61 -74 61c-79 0 -138 -77 -159 -153
c131 -2 233 16 233 92zM221 570c-27 0 -47 21 -47 49c0 30 23 53 52 53s47 -22 47 -49c0 -29 -21 -53 -52 -53zM403 570c-27 0 -46 21 -46 49c0 30 23 53 52 53s47 -22 47 -49c0 -29 -21 -53 -53 -53z" />
    <glyph glyph-name="egrave" unicode="&#xe8;" horiz-adv-x="453" 
d="M365 89l12 -62c-36 -20 -95 -38 -160 -38c-128 0 -184 88 -184 195c0 146 108 311 264 311c92 0 142 -55 142 -125c0 -127 -143 -160 -322 -157c-4 -21 -1 -66 10 -92c19 -44 58 -65 108 -65c57 0 100 17 130 33zM359 369c0 39 -30 61 -74 61c-79 0 -138 -77 -159 -153
c131 -2 233 16 233 92zM190 686h94l66 -143h-60z" />
    <glyph glyph-name="iacute" unicode="&#xed;" horiz-adv-x="229" 
d="M111 0h-83l93 484h82zM223 686h100l-133 -143h-66z" />
    <glyph glyph-name="icircumflex" unicode="&#xee;" horiz-adv-x="229" 
d="M111 0h-83l92 484h83zM161 686h59l69 -143h-62l-43 91h-2l-69 -91h-68z" />
    <glyph glyph-name="idieresis" unicode="&#xef;" horiz-adv-x="229" 
d="M111 0h-83l92 484h83zM89 570c-27 0 -47 21 -47 49c0 30 23 53 52 53s47 -22 47 -49c0 -29 -21 -53 -52 -53zM271 570c-27 0 -46 21 -46 49c0 30 23 53 52 53s47 -22 47 -49c0 -29 -21 -53 -53 -53z" />
    <glyph glyph-name="igrave" unicode="&#xec;" horiz-adv-x="229" 
d="M111 0h-83l92 484h83zM50 686h94l66 -143h-60z" />
    <glyph glyph-name="ntilde" unicode="&#xf1;" horiz-adv-x="534" 
d="M111 0h-82l64 343c11 54 18 101 23 141h74l-12 -95h2c43 68 109 106 179 106c58 0 123 -33 123 -134c0 -22 -4 -52 -9 -78l-54 -283h-82l53 280c3 19 6 41 6 62c0 48 -19 84 -76 84c-59 0 -143 -71 -165 -191zM252 568h-48c7 58 34 100 77 100c26 0 40 -10 62 -22
c14 -9 27 -17 40 -17c17 0 24 9 30 42h47c-8 -62 -30 -96 -77 -96c-23 0 -43 10 -60 20c-13 9 -27 18 -42 18c-17 0 -24 -19 -29 -45z" />
    <glyph glyph-name="oacute" unicode="&#xf3;" horiz-adv-x="522" 
d="M224 -11c-121 0 -189 90 -189 199c0 160 111 307 268 307c131 0 190 -99 190 -201c0 -150 -106 -305 -269 -305zM235 55c98 0 172 126 172 239c0 56 -26 135 -113 135c-104 0 -173 -127 -173 -238c0 -79 44 -136 114 -136zM367 686h99l-133 -143h-65z" />
    <glyph glyph-name="ocircumflex" unicode="&#xf4;" horiz-adv-x="522" 
d="M224 -11c-121 0 -189 90 -189 199c0 160 111 307 268 307c131 0 190 -99 190 -201c0 -150 -106 -305 -269 -305zM235 55c98 0 172 126 172 239c0 56 -26 135 -113 135c-104 0 -173 -127 -173 -238c0 -79 44 -136 114 -136zM313 686h60l68 -143h-62l-42 91h-2l-70 -91h-68
z" />
    <glyph glyph-name="odieresis" unicode="&#xf6;" horiz-adv-x="522" 
d="M224 -11c-121 0 -189 90 -189 199c0 160 111 307 268 307c131 0 190 -99 190 -201c0 -150 -106 -305 -269 -305zM235 55c98 0 172 126 172 239c0 56 -26 135 -113 135c-104 0 -173 -127 -173 -238c0 -79 44 -136 114 -136zM239 570c-27 0 -47 21 -47 49c0 30 23 53 52 53
s47 -22 47 -49c0 -29 -21 -53 -52 -53zM421 570c-27 0 -46 21 -46 49c0 30 23 53 52 53s47 -22 47 -49c0 -29 -21 -53 -53 -53z" />
    <glyph glyph-name="ograve" unicode="&#xf2;" horiz-adv-x="522" 
d="M224 -11c-121 0 -189 90 -189 199c0 160 111 307 268 307c131 0 190 -99 190 -201c0 -150 -106 -305 -269 -305zM235 55c98 0 172 126 172 239c0 56 -26 135 -113 135c-104 0 -173 -127 -173 -238c0 -79 44 -136 114 -136zM196 686h94l66 -143h-59z" />
    <glyph glyph-name="otilde" unicode="&#xf5;" horiz-adv-x="522" 
d="M224 -11c-121 0 -189 90 -189 199c0 160 111 307 268 307c131 0 190 -99 190 -201c0 -150 -106 -305 -269 -305zM235 55c98 0 172 126 172 239c0 56 -26 135 -113 135c-104 0 -173 -127 -173 -238c0 -79 44 -136 114 -136zM238 568h-48c7 58 34 100 77 100
c26 0 40 -10 61 -22c15 -9 27 -17 40 -17c17 0 24 9 30 42h47c-8 -62 -30 -96 -77 -96c-23 0 -43 10 -59 20c-13 9 -27 18 -42 18c-17 0 -24 -19 -29 -45z" />
    <glyph glyph-name="scaron" unicode="&#x161;" horiz-adv-x="373" 
d="M9 23l24 61c23 -14 64 -30 104 -30c56 0 92 36 92 79c0 38 -17 61 -68 89c-56 31 -87 74 -87 124c0 84 73 149 175 149c44 0 83 -12 101 -24l-23 -63c-17 10 -48 22 -84 22c-50 0 -86 -31 -86 -73c0 -35 23 -57 67 -81c54 -30 90 -73 90 -127c0 -102 -82 -159 -184 -159
c-52 1 -99 16 -121 33zM275 543h-60l-70 143h63l43 -92h2l71 92h67z" />
    <glyph glyph-name="uacute" unicode="&#xfa;" horiz-adv-x="526" 
d="M417 484h83l-65 -343c-11 -54 -17 -101 -22 -141h-74l12 91h-2c-43 -63 -106 -102 -170 -102c-62 0 -128 30 -128 140c0 23 3 50 9 82l53 273h82l-51 -270c-5 -27 -8 -50 -8 -71c0 -50 20 -84 77 -84c60 0 137 71 157 177zM361 686h99l-132 -143h-65z" />
    <glyph glyph-name="ucircumflex" unicode="&#xfb;" horiz-adv-x="526" 
d="M417 484h83l-65 -343c-11 -54 -17 -101 -22 -141h-75l13 91h-2c-43 -63 -107 -102 -170 -102c-62 0 -128 30 -128 140c0 23 3 50 9 82l53 273h82l-51 -270c-5 -27 -8 -50 -8 -71c0 -50 20 -84 77 -84c60 0 137 71 157 177zM315 686h60l68 -143h-62l-42 91h-2l-70 -91h-67
z" />
    <glyph glyph-name="udieresis" unicode="&#xfc;" horiz-adv-x="526" 
d="M417 484h83l-65 -343c-11 -54 -17 -101 -22 -141h-74l12 91h-2c-43 -63 -106 -102 -170 -102c-62 0 -128 30 -128 140c0 23 3 50 9 82l53 273h82l-51 -270c-5 -27 -8 -50 -8 -71c0 -50 20 -84 77 -84c60 0 137 71 157 177zM237 570c-27 0 -47 21 -47 49c0 30 23 53 52 53
s47 -22 47 -49c0 -29 -21 -53 -52 -53zM419 570c-27 0 -46 21 -46 49c0 30 23 53 52 53s47 -22 47 -49c0 -29 -21 -53 -53 -53z" />
    <glyph glyph-name="ugrave" unicode="&#xf9;" horiz-adv-x="526" 
d="M417 484h83l-65 -343c-11 -54 -17 -101 -22 -141h-74l12 91h-2c-43 -63 -106 -102 -170 -102c-62 0 -128 30 -128 140c0 23 3 50 9 82l53 273h82l-51 -270c-5 -27 -8 -50 -8 -71c0 -50 20 -84 77 -84c60 0 137 71 157 177zM196 686h93l66 -143h-59z" />
    <glyph glyph-name="yacute" unicode="&#xfd;" horiz-adv-x="441" 
d="M48 484h86l48 -260c11 -56 17 -92 22 -128h2c13 31 27 65 52 119l124 269h88l-182 -368c-52 -104 -101 -189 -167 -254c-54 -55 -113 -78 -140 -84l-21 72c21 7 56 20 89 46c33 25 68 64 94 112c4 8 4 13 2 22zM321 686h99l-133 -143h-65z" />
    <glyph glyph-name="ydieresis" unicode="&#xff;" horiz-adv-x="441" 
d="M48 484h86l48 -260c11 -56 17 -92 22 -128h2c13 31 27 65 52 119l124 269h88l-182 -368c-52 -104 -101 -189 -167 -254c-54 -55 -113 -78 -140 -84l-21 72c21 7 56 20 89 46c33 25 68 64 94 112c4 8 4 13 2 22zM189 570c-27 0 -47 21 -47 49c0 30 23 53 52 53
s47 -22 47 -49c0 -29 -21 -53 -52 -53zM371 570c-27 0 -46 21 -46 49c0 30 23 53 52 53s47 -22 47 -49c0 -29 -21 -53 -53 -53z" />
    <glyph glyph-name="zcaron" unicode="&#x17e;" horiz-adv-x="415" 
d="M-21 0l9 51l235 262c41 45 68 70 101 100v3h-248l14 68h347l-11 -55l-231 -258c-44 -47 -70 -72 -100 -100l-1 -3h269l-14 -68h-370zM302 543h-60l-70 143h62l44 -92h2l72 92h66z" />
    <glyph glyph-name="Dcroat" unicode="&#x110;" horiz-adv-x="654" 
d="M14 317l14 70h84l52 278c56 10 114 14 171 14c108 0 195 -31 244 -88c37 -38 64 -100 64 -184c0 -120 -51 -242 -140 -316c-75 -62 -175 -94 -301 -94c-60 0 -120 3 -163 9l59 311h-84zM361 387l-14 -70h-166l-47 -246c30 -5 62 -5 91 -5c94 0 177 32 234 90
c61 61 95 155 95 248c0 118 -58 207 -225 207c-31 0 -64 -1 -93 -5l-41 -219h166z" />
    <glyph glyph-name="Eng" unicode="&#x14a;" horiz-adv-x="632" 
d="M291 -196l-6 67c75 6 124 40 144 128l-153 382c-33 83 -47 131 -62 194l-3 -1c-7 -63 -18 -130 -35 -222l-67 -352h-78l128 674h91l154 -382c30 -76 45 -130 59 -188l2 2c4 60 11 116 29 210l68 358h78l-123 -647c-33 -176 -120 -219 -226 -223z" />
    <glyph glyph-name="Hbar" unicode="&#x126;" horiz-adv-x="627" 
d="M515 480h-310l-20 -103h310zM60 536h73l26 138h83l-26 -138h310l26 138h83l-26 -138h65l-11 -56h-65l-91 -480h-83l57 304h-310l-57 -304h-83l91 480h-73z" />
    <glyph glyph-name="Tbar" unicode="&#x166;" horiz-adv-x="474" 
d="M424 321h-132l-61 -321h-82l60 321h-125l11 58h125l43 223h-197l14 72h477l-14 -72h-198l-42 -223h132z" />
    <glyph glyph-name="uni021C" unicode="&#x21c;" horiz-adv-x="465" 
d="M-7 -114l-7 67c192 23 350 111 350 249c0 55 -38 110 -132 110c-28 0 -57 -7 -88 -16l-10 58c115 25 232 88 232 181c0 52 -45 81 -99 81c-50 0 -95 -22 -121 -35l-16 56c35 21 101 48 167 48c97 0 159 -59 159 -133c0 -87 -71 -149 -147 -182v-3
c74 -13 145 -65 145 -159c0 -158 -164 -293 -433 -322z" />
    <glyph glyph-name="dcroat" unicode="&#x111;" horiz-adv-x="525" 
d="M371 239l32 169c-16 12 -44 21 -79 21c-116 0 -206 -124 -206 -253c0 -58 20 -119 91 -119c64 0 141 73 162 182zM246 606h195l19 104h82l-19 -104h80l-11 -53h-79l-77 -399c-9 -51 -17 -107 -20 -154h-76l13 96h-2c-44 -69 -105 -107 -174 -107c-94 0 -145 77 -145 176
c0 172 128 330 299 330c31 0 65 -7 86 -17l14 75h-195z" />
    <glyph glyph-name="eng" unicode="&#x14b;" horiz-adv-x="534" 
d="M208 -176l-8 69c71 11 124 40 147 162l43 225c3 19 6 41 6 62c0 48 -19 84 -76 84c-59 0 -143 -71 -165 -191l-44 -235h-82l64 343c10 54 18 101 23 141h74l-12 -95h2c43 68 109 106 179 106c58 0 123 -33 123 -135c0 -21 -4 -51 -9 -77l-44 -231
c-31 -164 -111 -218 -221 -228z" />
    <glyph glyph-name="hbar" unicode="&#x127;" horiz-adv-x="534" 
d="M57 606h87l19 104h83l-20 -104h185l-10 -53h-185l-30 -154h2c41 59 100 96 173 96c55 0 120 -33 120 -130c0 -25 -3 -57 -8 -81l-54 -284h-83l54 280c3 17 6 40 6 67c0 44 -21 79 -75 79c-64 0 -145 -75 -165 -183l-45 -243h-83l106 553h-87z" />
    <glyph glyph-name="kgreenlandic" unicode="&#x138;" horiz-adv-x="456" 
d="M110 0h-82l92 484h83l-42 -219h2c14 17 32 36 45 49l170 170h103l-211 -199l144 -285h-91l-117 239l-61 -55z" />
    <glyph glyph-name="napostrophe" unicode="&#x149;" horiz-adv-x="534" 
d="M111 0h-82l64 343c11 54 18 101 23 141h74l-12 -95h2c43 68 109 106 179 106c58 0 123 -33 123 -134c0 -22 -4 -52 -9 -78l-54 -283h-82l53 280c3 19 6 41 6 62c0 48 -19 84 -76 84c-59 0 -143 -71 -165 -191zM77 545l-12 41c26 9 55 33 55 72c0 21 -11 41 -23 52l63 14
c14 -10 28 -35 28 -61c0 -76 -65 -112 -111 -118z" />
    <glyph glyph-name="tbar" unicode="&#x167;" horiz-adv-x="313" 
d="M44 303h59l23 116h-69l12 65h69l17 90l87 26l-22 -116h116l-13 -65h-116l-22 -116h93l-11 -52h-92l-14 -75c-5 -25 -8 -46 -8 -69c0 -29 14 -47 46 -47c15 0 28 1 39 4l-4 -65c-15 -6 -40 -9 -64 -9c-73 0 -102 44 -102 94c0 28 4 55 11 90l14 77h-59z" />
    <glyph glyph-name="uni021D" unicode="&#x21d;" horiz-adv-x="393" 
d="M-55 -208l-6 66c71 8 328 47 328 208c0 53 -47 94 -124 93c-21 0 -48 -5 -82 -15l-9 59c112 28 214 74 214 155c0 40 -33 68 -91 68c-50 0 -90 -20 -116 -33l-16 54c35 21 95 48 163 48c87 0 144 -55 144 -118c0 -79 -55 -128 -129 -158v-3c72 -12 132 -65 132 -142
c0 -161 -181 -266 -408 -282z" />
    <glyph glyph-name="IJ" unicode="&#x132;" horiz-adv-x="597" 
d="M158 674h83l-128 -674h-83zM443 219l86 455h83l-88 -464c-30 -157 -95 -221 -222 -221c-40 0 -83 9 -100 18l18 71c22 -10 49 -15 85 -15c71 0 115 37 138 156z" />
    <glyph glyph-name="ij" unicode="&#x133;" horiz-adv-x="456" 
d="M111 0h-83l93 484h82zM183 566c-29 0 -47 22 -47 52c1 32 25 56 55 56c29 0 49 -22 49 -52c-1 -33 -24 -56 -57 -56zM354 484h83l-92 -482c-15 -81 -33 -132 -62 -164c-28 -32 -69 -47 -111 -47c-21 0 -39 1 -55 6l10 65c9 -3 22 -4 39 -4c42 0 74 26 93 126zM412 566
c-29 0 -47 22 -47 52c1 32 25 56 55 56c29 0 49 -22 49 -52c-1 -33 -24 -56 -57 -56z" />
    <glyph glyph-name="zero.slash" unicode="&#xf638;" horiz-adv-x="492" 
d="M130 165l261 378c-11 28 -34 51 -73 51c-110 0 -190 -202 -193 -372c0 -18 1 -38 5 -57zM403 479l-260 -375c12 -28 35 -48 72 -48c121 0 187 237 191 378c0 13 -1 29 -3 45zM530 648l-61 -80c14 -33 19 -73 19 -111c0 -213 -100 -468 -281 -468c-52 0 -89 18 -115 49
l-45 -62l-37 32l55 73c-15 36 -22 82 -22 131c0 217 113 449 284 449c54 0 91 -19 116 -50l48 67z" />
    <glyph glyph-name="Euro" unicode="&#x20ac;" horiz-adv-x="492" 
d="M431 85l13 -62c-28 -16 -81 -34 -141 -34c-154 0 -234 118 -231 262h-66l11 50h59c2 20 6 41 12 60h-61l11 50h65c46 137 169 250 316 250c58 0 100 -15 127 -30l-28 -63c-23 12 -58 24 -104 24c-109 0 -192 -89 -225 -181h264l-11 -50h-270c-6 -17 -10 -38 -12 -60h271
l-11 -50h-263c0 -100 50 -193 161 -193c46 0 91 15 113 27z" />
    <glyph glyph-name="Aringacute" unicode="&#x1fa;" horiz-adv-x="568" 
d="M382 692c-54 0 -86 31 -86 73c0 46 41 83 97 83c50 0 83 -30 83 -74c0 -49 -40 -82 -94 -82zM384 729c29 0 47 18 47 43c0 21 -15 40 -43 40c-27 0 -46 -21 -46 -44s17 -39 42 -39zM461 946h107l-131 -80h-76zM401 213h-233l-107 -213h-88l349 674h98l93 -674h-85z
M198 279h197l-27 195c-3 35 -8 85 -11 124h-3c-18 -40 -35 -82 -55 -123z" />
    <glyph glyph-name="estimated" unicode="&#x212e;" horiz-adv-x="817" 
d="M782 316h-605c-3 0 -5 -1 -5 -4v-183c0 -8 4 -15 9 -21c57 -61 139 -99 229 -99c96 0 182 43 240 111h55c-68 -79 -176 -131 -296 -131c-206 0 -374 150 -374 336s168 336 374 336s373 -150 373 -336v-9zM646 340v184c0 9 -4 16 -10 22c-58 58 -138 95 -226 95
c-90 0 -170 -38 -228 -98c-6 -6 -10 -14 -10 -23v-180c0 -3 2 -5 5 -5h464c3 0 5 2 5 5z" />
    <glyph glyph-name="zero.oldstyle" unicode="&#xf730;" horiz-adv-x="512" 
d="M217 -11c-104 0 -181 78 -181 199c0 146 100 308 262 308c101 0 182 -80 182 -199c0 -149 -99 -308 -263 -308zM230 56c106 0 166 135 166 238c0 78 -40 135 -109 135c-109 0 -167 -137 -167 -238c0 -80 39 -135 110 -135z" />
    <glyph glyph-name="one.oldstyle" unicode="&#xf731;" horiz-adv-x="351" 
d="M300 486l-92 -486h-80l77 405h-2l-139 -66l-6 66l172 81h70z" />
    <glyph glyph-name="two.oldstyle" unicode="&#xf732;" horiz-adv-x="444" 
d="M389 69l-12 -69h-392l9 48l102 67c142 96 208 160 208 227c0 59 -39 87 -91 87c-48 0 -96 -28 -121 -44l-22 51c38 30 98 62 172 62c81 0 149 -50 149 -143c0 -86 -65 -154 -201 -248l-58 -40v-2c24 2 55 4 77 4h180z" />
    <glyph glyph-name="three.oldstyle" unicode="&#xf733;" horiz-adv-x="427" 
d="M-26 -90l20 63c24 -10 68 -19 106 -19c100 0 176 49 176 125c0 65 -61 97 -127 97c-23 0 -41 -1 -58 -2l12 63c6 0 13 1 19 1c72 5 174 44 174 122c0 44 -35 68 -87 68c-47 0 -87 -16 -114 -31l-17 54c35 24 93 45 155 45c81 0 148 -44 148 -124
c-1 -81 -69 -132 -141 -153v-2c68 -13 122 -58 122 -134c0 -130 -132 -197 -256 -197c-56 0 -106 11 -132 24z" />
    <glyph glyph-name="four.oldstyle" unicode="&#xf734;" horiz-adv-x="496" 
d="M350 52l-32 -165h-76l31 165h-276l11 56l335 384h90l-70 -374h87l-13 -66h-87zM285 118l37 195c6 33 14 69 22 99h-3c-20 -31 -43 -63 -65 -89l-177 -201l1 -4h185z" />
    <glyph glyph-name="five.oldstyle" unicode="&#xf735;" horiz-adv-x="421" 
d="M-15 -93l19 64c25 -10 64 -17 102 -17c96 0 175 51 175 137c0 28 -10 53 -29 71c-41 40 -129 45 -197 40l91 283h271l-24 -71h-198l-50 -151c66 2 136 -14 178 -56c28 -27 44 -64 44 -108c0 -131 -115 -213 -259 -213c-52 0 -101 11 -123 21z" />
    <glyph glyph-name="six.oldstyle" unicode="&#xf736;" horiz-adv-x="506" 
d="M232 56c74 0 143 75 143 167c0 70 -46 109 -102 109c-62 0 -102 -33 -125 -69c-16 -22 -23 -49 -23 -79c0 -77 42 -128 107 -128zM472 605l6 -64c-111 -11 -197 -49 -250 -102c-37 -37 -59 -73 -74 -113h2c31 34 83 67 153 67c80 0 151 -60 151 -161
c0 -134 -104 -243 -237 -243c-99 0 -180 67 -180 205c0 75 33 193 120 279c70 69 171 124 309 132z" />
    <glyph glyph-name="seven.oldstyle" unicode="&#xf737;" horiz-adv-x="443" 
d="M445 485l-10 -55c-61 -129 -234 -386 -363 -544l-80 20c105 120 282 371 350 505v2h-282l12 72h373z" />
    <glyph glyph-name="eight.oldstyle" unicode="&#xf738;" horiz-adv-x="515" 
d="M308 607c101 0 171 -61 171 -143c0 -70 -52 -111 -125 -147v-2c64 -34 105 -83 105 -144c0 -114 -115 -182 -226 -182c-120 0 -198 64 -198 159c0 83 75 135 153 170v2c-50 27 -81 70 -81 121c0 97 94 166 201 166zM298 545c-60 0 -112 -36 -112 -93
c0 -52 44 -84 105 -108c60 25 107 60 107 115c0 45 -32 86 -100 86zM238 52c74 0 134 49 134 111c0 57 -46 93 -120 125c-62 -24 -130 -67 -130 -135c0 -62 49 -101 116 -101z" />
    <glyph glyph-name="nine.oldstyle" unicode="&#xf739;" horiz-adv-x="507" 
d="M234 153c49 0 99 31 128 71c13 17 23 48 23 80c0 84 -46 127 -109 127c-73 0 -139 -75 -139 -167c0 -71 42 -111 97 -111zM45 -113l-5 65c26 2 54 4 81 9c140 28 210 116 240 200l-3 1c-28 -35 -86 -69 -150 -69c-94 0 -156 66 -156 162c0 132 107 243 239 243
c104 0 177 -81 177 -206c0 -182 -117 -363 -356 -400c-24 -3 -47 -5 -67 -5z" />
    <glyph glyph-name="percent.oldstyle" unicode="&#xf642;" horiz-adv-x="781" 
d="M224 607c82 0 119 -66 119 -136c0 -142 -75 -263 -184 -263c-76 0 -122 58 -122 145c0 122 72 254 187 254zM213 554c-66 0 -108 -114 -108 -203c0 -47 14 -90 63 -90c67 0 107 119 107 206c0 39 -12 87 -62 87zM194 -13h-60l450 619h60zM626 392c82 0 119 -66 119 -136
c0 -142 -75 -263 -184 -263c-76 0 -122 58 -122 145c0 122 72 254 187 254zM615 339c-66 0 -108 -115 -108 -203c0 -47 14 -90 63 -90c67 0 107 119 107 206c0 39 -12 87 -62 87z" />
    <glyph glyph-name="zero.fitted" unicode="&#xf639;" horiz-adv-x="492" 
d="M206 -11c-120 0 -163 98 -163 223c0 216 113 449 284 449c124 0 161 -103 161 -204c0 -213 -100 -468 -282 -468zM217 56c122 0 188 265 188 396c0 51 -7 142 -87 142c-113 0 -192 -227 -192 -386c0 -69 13 -152 91 -152z" />
    <glyph glyph-name="one.fitted" unicode="&#xf6dc;" horiz-adv-x="345" 
d="M116 0l107 566h-2l-111 -56l-9 66l148 74h70l-123 -650h-80z" />
    <glyph glyph-name="two.fitted" unicode="&#xf63a;" horiz-adv-x="444" 
d="M365 0h-393l10 55l97 81c174 147 276 248 276 355c0 47 -26 99 -101 99c-58 0 -104 -26 -134 -47l-21 60c45 34 112 58 173 58c122 0 169 -81 169 -159c0 -138 -126 -258 -281 -386l-55 -43v-2h273z" />
    <glyph glyph-name="three.fitted" unicode="&#xf63b;" horiz-adv-x="426" 
d="M-16 30l28 66c25 -15 66 -36 125 -36c111 0 162 76 162 143c0 81 -63 115 -140 115h-33l13 65h33c61 0 161 40 161 126c0 50 -30 81 -92 81c-49 0 -94 -16 -123 -36l-18 63c41 25 98 44 155 44c109 0 166 -65 166 -140c0 -85 -69 -147 -143 -168v-2
c71 -17 108 -78 108 -147c0 -123 -111 -215 -252 -215c-70 0 -128 21 -150 41z" />
    <glyph glyph-name="four.fitted" unicode="&#xf63c;" horiz-adv-x="492" 
d="M335 0h-78l34 179h-280l11 56l346 415h91l-77 -405h88l-12 -66h-89zM113 245h191l42 216c7 35 16 71 24 105h-3c-27 -40 -45 -72 -73 -107l-181 -212v-2z" />
    <glyph glyph-name="five.fitted" unicode="&#xf63d;" horiz-adv-x="440" 
d="M463 650l-14 -72h-223l-51 -165c11 2 21 2 32 2c28 0 77 -8 114 -31c53 -29 77 -87 77 -143c0 -158 -126 -252 -267 -252c-63 0 -118 19 -140 36l26 66c23 -15 69 -31 122 -31c92 0 173 73 173 164c0 70 -36 125 -157 125c-27 0 -47 -2 -73 -4l90 305h291z" />
    <glyph glyph-name="six.fitted" unicode="&#xf63e;" horiz-adv-x="491" 
d="M472 660l-12 -71c-16 0 -36 -1 -60 -5c-117 -21 -214 -110 -258 -236l2 -1c38 49 101 82 160 82c102 0 157 -78 157 -177c0 -127 -99 -263 -239 -263c-124 0 -185 91 -185 214c0 150 80 289 164 358c65 55 141 86 215 95c23 4 42 4 56 4zM228 56c86 0 147 99 147 191
c0 76 -38 116 -103 116c-51 0 -104 -34 -137 -89c-6 -9 -11 -21 -12 -31c-2 -15 -4 -32 -4 -52c0 -78 37 -135 109 -135z" />
    <glyph glyph-name="seven.fitted" unicode="&#xf63f;" horiz-adv-x="409" 
d="M91 650h389l-11 -58c-125 -197 -250 -394 -377 -592h-92c126 193 251 385 375 576l-1 3h-297z" />
    <glyph glyph-name="eight.fitted" unicode="&#xf640;" horiz-adv-x="490" 
d="M314 661c95 0 164 -57 164 -147c0 -77 -52 -134 -126 -169l-1 -3c67 -36 96 -95 96 -154c0 -128 -115 -199 -228 -199c-122 0 -195 69 -195 161c0 100 72 165 151 196l1 3c-52 37 -71 81 -71 128c0 105 94 184 209 184zM225 52c76 0 136 52 136 129
c0 64 -37 105 -115 132c-67 -18 -136 -68 -136 -153c0 -56 37 -108 115 -108zM303 598h-2c-66 0 -116 -54 -116 -115c0 -51 31 -87 95 -110c64 21 116 69 116 131c0 44 -22 94 -93 94z" />
    <glyph glyph-name="nine.fitted" unicode="&#xf641;" horiz-adv-x="492" 
d="M55 -10l10 71c17 -1 38 1 62 4c45 7 94 28 138 64c48 38 91 95 119 172h-3c-40 -46 -97 -70 -148 -70c-107 0 -158 83 -158 168c0 133 106 262 241 262c123 0 175 -94 175 -205c0 -162 -92 -309 -168 -374c-57 -48 -128 -78 -195 -87c-28 -4 -52 -6 -73 -5zM306 594
c-80 0 -146 -91 -146 -185c0 -65 33 -113 98 -113c53 0 100 30 129 75c6 8 11 17 13 28c4 17 7 43 7 67c0 74 -28 128 -101 128z" />
    <glyph glyph-name="zero.slashfitted" unicode="&#xe008;" horiz-adv-x="492" 
d="M130 165l261 378c-11 28 -34 51 -73 51c-110 0 -190 -202 -193 -372c0 -18 1 -38 5 -57zM403 479l-260 -375c12 -28 35 -48 72 -48c121 0 187 237 191 378c0 13 -1 29 -3 45zM530 648l-61 -80c14 -33 19 -73 19 -111c0 -213 -100 -468 -281 -468c-52 0 -89 18 -115 49
l-45 -62l-37 32l55 73c-15 36 -22 82 -22 131c0 217 113 449 284 449c54 0 91 -19 116 -50l48 67z" />
    <glyph glyph-name="zero.taboldstyle" unicode="&#xf643;" horiz-adv-x="512" 
d="M217 -11c-104 0 -181 78 -181 199c0 146 100 308 262 308c101 0 182 -80 182 -199c0 -149 -99 -308 -263 -308zM230 56c106 0 166 135 166 238c0 78 -40 135 -109 135c-109 0 -167 -137 -167 -238c0 -80 39 -135 110 -135z" />
    <glyph glyph-name="one.taboldstyle" unicode="&#xf644;" horiz-adv-x="512" 
d="M395 486l-92 -486h-80l78 410h-2l-192 -71l-2 66l220 81h70z" />
    <glyph glyph-name="two.taboldstyle" unicode="&#xf645;" horiz-adv-x="512" 
d="M428 69l-12 -69h-392l9 48l102 67c142 96 208 160 208 227c0 59 -39 87 -91 87c-48 0 -96 -28 -121 -44l-22 51c38 30 98 62 172 62c81 0 149 -50 149 -143c0 -86 -65 -154 -201 -248l-58 -40v-2c24 2 55 4 77 4h180z" />
    <glyph glyph-name="three.taboldstyle" unicode="&#xf646;" horiz-adv-x="512" 
d="M27 -90l20 63c24 -10 68 -19 106 -19c100 0 176 49 176 125c0 65 -61 97 -128 97c-23 0 -41 -1 -58 -2l12 63c6 0 13 1 19 1c72 5 174 44 174 122c0 44 -35 68 -87 68c-47 0 -87 -16 -114 -31l-17 54c35 24 93 45 155 45c81 0 148 -44 148 -124
c-1 -81 -69 -132 -140 -153v-2c68 -13 122 -58 122 -134c0 -130 -132 -197 -256 -197c-56 0 -106 11 -132 24z" />
    <glyph glyph-name="four.taboldstyle" unicode="&#xf647;" horiz-adv-x="512" 
d="M360 52l-32 -165h-76l31 165h-276l11 56l335 384h90l-70 -374h87l-13 -66h-87zM295 118l37 195c6 33 14 69 22 99h-3c-20 -31 -43 -63 -65 -89l-177 -201l1 -4h185z" />
    <glyph glyph-name="five.taboldstyle" unicode="&#xf648;" horiz-adv-x="512" 
d="M33 -93l19 64c25 -10 64 -17 102 -17c96 0 175 51 175 137c0 28 -10 53 -29 71c-41 40 -129 45 -197 40l91 283h271l-24 -71h-198l-50 -151c66 2 136 -14 178 -56c28 -27 44 -64 44 -108c0 -131 -115 -213 -259 -213c-52 0 -101 11 -123 21z" />
    <glyph glyph-name="six.taboldstyle" unicode="&#xf649;" horiz-adv-x="512" 
d="M239 56c74 0 143 75 143 167c0 70 -46 109 -102 109c-62 0 -102 -33 -125 -69c-16 -22 -23 -49 -23 -79c0 -77 42 -128 107 -128zM479 605l6 -64c-111 -11 -197 -49 -250 -102c-37 -37 -59 -73 -74 -113h2c31 34 83 67 153 67c80 0 151 -60 151 -161
c0 -134 -104 -243 -237 -243c-99 0 -180 67 -180 205c0 75 33 193 120 279c70 69 171 124 309 132z" />
    <glyph glyph-name="seven.taboldstyle" unicode="&#xf64a;" horiz-adv-x="512" 
d="M478 485l-10 -55c-61 -129 -234 -386 -363 -544l-80 20c105 120 282 371 350 505v2h-282l12 72h373z" />
    <glyph glyph-name="eight.taboldstyle" unicode="&#xf64b;" horiz-adv-x="512" 
d="M309 607c101 0 171 -61 171 -143c0 -70 -52 -111 -125 -147v-2c64 -34 105 -83 105 -144c0 -114 -115 -182 -226 -182c-120 0 -198 64 -198 159c0 83 75 135 153 170v2c-50 27 -81 70 -81 121c0 97 94 166 201 166zM299 545c-60 0 -112 -36 -112 -93
c0 -52 44 -84 105 -108c60 25 107 60 107 115c0 45 -32 86 -100 86zM239 52c74 0 134 49 134 111c0 57 -46 93 -120 125c-62 -24 -130 -67 -130 -135c0 -62 49 -101 116 -101z" />
    <glyph glyph-name="nine.taboldstyle" unicode="&#xf64c;" horiz-adv-x="512" 
d="M237 153c49 0 99 31 128 71c13 17 23 48 23 80c0 84 -46 127 -109 127c-73 0 -139 -75 -139 -167c0 -71 42 -111 97 -111zM48 -113l-5 65c26 2 54 4 81 9c140 28 210 116 240 200l-3 1c-28 -35 -86 -69 -150 -69c-94 0 -156 66 -156 162c0 132 107 243 239 243
c104 0 177 -81 177 -206c0 -182 -117 -363 -356 -400c-24 -3 -47 -5 -67 -5z" />
    <glyph glyph-name="dollar.taboldstyle" unicode="&#xf653;" horiz-adv-x="512" 
d="M225 -81h-53l15 80c-52 2 -104 21 -133 42l33 59c22 -17 69 -37 120 -37c61 0 118 29 118 78c0 27 -16 53 -90 83c-84 33 -113 67 -113 116c0 82 78 134 162 142l17 86h54l-16 -84c46 -4 87 -20 110 -37l-31 -57c-25 17 -64 33 -107 33c-58 0 -103 -28 -103 -69
c0 -31 17 -46 89 -75c78 -30 116 -71 116 -123c0 -91 -85 -145 -172 -155z" />
    <glyph glyph-name="cent.taboldstyle" unicode="&#xf654;" horiz-adv-x="512" 
d="M367 132l6 -59c-23 -11 -67 -25 -109 -27l-14 -72h-53l14 74c-85 10 -145 69 -145 153c0 122 93 230 221 248l12 68h54l-13 -66c37 -2 77 -17 96 -28l-28 -58c-17 11 -52 24 -86 24c-104 0 -174 -83 -174 -174c0 -67 44 -106 117 -106c39 0 77 12 102 23z" />
    <glyph glyph-name="Euro.taboldstyle" unicode="&#xf64e;" horiz-adv-x="512" 
d="M426 83l9 -62c-28 -17 -84 -32 -147 -32c-117 0 -197 77 -203 194h-57l10 49h49c2 17 5 34 9 51h-48l11 49h52c45 117 151 194 279 194c58 0 96 -14 120 -27l-26 -61c-22 11 -55 22 -95 22c-89 0 -161 -53 -196 -128h238l-10 -49h-245c-4 -18 -7 -33 -8 -51h243l-10 -49
h-232c9 -80 62 -127 142 -127c42 0 92 14 115 27z" />
    <glyph glyph-name="florin.taboldstyle" unicode="&#xf64f;" horiz-adv-x="512" 
d="M514 591l-24 -62c-14 6 -28 10 -47 10c-66 0 -101 -55 -122 -140l-12 -53h115l-8 -64h-123l-46 -187c-31 -128 -83 -214 -191 -214c-32 0 -60 8 -74 18l21 61c16 -8 33 -12 52 -12c46 0 85 36 115 158l42 176h-88l8 64h96l11 45c22 94 75 216 209 216c26 0 51 -7 66 -16z
" />
    <glyph glyph-name="sterling.taboldstyle" unicode="&#xf651;" horiz-adv-x="512" 
d="M458 509l-25 -63c-14 8 -44 18 -78 18c-77 0 -125 -61 -124 -163c-1 -6 -1 -13 -1 -20h147l-9 -55h-137c0 -63 -20 -118 -73 -156v-2h273l-10 -68h-397l8 49c81 33 124 87 121 177h-87l9 55h75c0 6 1 11 1 18c3 131 78 234 212 234c44 0 78 -13 95 -24z" />
    <glyph glyph-name="yen.taboldstyle" unicode="&#xf652;" horiz-adv-x="512" 
d="M247 0h-79l22 115h-145l9 49h146l11 60h-146l10 49h123l-97 242h86l52 -153c9 -31 16 -55 22 -80h2c16 25 36 53 56 82l114 151h89l-198 -242h121l-9 -49h-147l-11 -60h146l-9 -49h-146z" />
    <glyph glyph-name="numbersign.taboldstyle" unicode="&#xf650;" horiz-adv-x="512" 
d="M200 232h91l45 147h-90zM128 0h-59l54 175h-82l10 57h91l46 147h-87l10 57h94l54 171h57l-53 -171h91l53 171h58l-53 -171h82l-10 -57h-90l-45 -147h86l-10 -57h-95l-53 -175h-59l54 175h-90z" />
    <glyph glyph-name="zero.superior" unicode="&#x2070;" horiz-adv-x="323" 
d="M200 400c-77 0 -112 59 -112 139c0 136 75 263 184 263c79 0 111 -62 111 -127c0 -139 -71 -275 -183 -275zM209 452c68 0 106 139 106 216c0 33 -7 82 -51 82c-63 0 -108 -126 -108 -212c0 -39 9 -86 53 -86z" />
    <glyph glyph-name="one.superior" horiz-adv-x="228" 
d="M203 406h-69l63 329h-2l-72 -32l-6 49l100 44h60z" />
    <glyph glyph-name="two.superior" horiz-adv-x="298" 
d="M310 406h-263l7 40l73 58c93 74 156 128 156 187c0 27 -14 54 -60 54c-33 0 -66 -17 -85 -30l-16 44c32 24 76 42 122 42c71 0 112 -44 112 -101c0 -79 -80 -143 -165 -209l-36 -28v-2h166z" />
    <glyph glyph-name="three.superior" horiz-adv-x="291" 
d="M137 722l-11 45c25 18 68 34 111 34c72 0 110 -40 110 -86c0 -47 -39 -81 -90 -97v-2c41 -10 71 -45 71 -89c-1 -76 -68 -126 -164 -126c-46 0 -89 13 -109 29l22 48c17 -12 50 -26 87 -26c59 0 93 35 93 75c0 46 -44 65 -91 65h-20l8 45h21c45 0 100 26 100 68
c0 25 -15 45 -57 45c-29 0 -62 -14 -81 -28z" />
    <glyph glyph-name="four.superior" unicode="&#x2074;" horiz-adv-x="318" 
d="M290 406h-65l20 104h-180l8 40l216 248h76l-46 -239h55l-10 -49h-54zM255 559l22 116c4 22 10 45 15 64h-2c-16 -23 -29 -44 -44 -62l-101 -116l-1 -2h111z" />
    <glyph glyph-name="five.superior" unicode="&#x2075;" horiz-adv-x="295" 
d="M364 796l-12 -55h-142l-27 -85c9 1 16 1 23 1c18 0 46 -4 68 -15c39 -18 56 -54 56 -89c0 -98 -82 -153 -177 -153c-43 0 -79 12 -94 22l18 50c15 -9 45 -19 80 -19c55 0 101 38 101 88c0 37 -23 68 -97 68c-18 0 -32 -2 -49 -3l56 190h196z" />
    <glyph glyph-name="six.superior" unicode="&#x2076;" horiz-adv-x="320" 
d="M370 801l-9 -53c-11 1 -27 0 -42 -3c-74 -13 -125 -60 -148 -124l1 -1c22 27 61 46 94 46c69 0 103 -49 103 -109c0 -81 -67 -157 -156 -157c-80 0 -126 56 -126 133c0 92 52 172 106 213c35 25 77 43 124 50c17 3 36 5 53 5zM218 450c46 0 83 49 83 103
c0 41 -22 65 -61 65c-28 0 -57 -18 -75 -47c-4 -5 -7 -11 -8 -17c-3 -9 -3 -20 -3 -31c0 -42 22 -73 64 -73z" />
    <glyph glyph-name="seven.superior" unicode="&#x2077;" horiz-adv-x="282" 
d="M123 796h254l-8 -43c-50 -78 -167 -254 -229 -347h-73c67 99 172 254 227 334l-1 2h-181z" />
    <glyph glyph-name="eight.superior" unicode="&#x2078;" horiz-adv-x="323" 
d="M270 802c60 0 110 -32 110 -91c0 -45 -34 -78 -78 -98v-1c43 -22 62 -56 62 -90c0 -82 -80 -122 -152 -122c-80 0 -129 42 -129 98c0 57 44 96 94 114v2c-31 20 -46 46 -46 75c0 67 63 113 139 113zM218 447c42 0 76 28 76 69c0 36 -21 58 -66 72c-38 -9 -76 -34 -76 -81
c0 -30 22 -60 66 -60zM259 755c-36 0 -63 -29 -63 -61c0 -27 16 -48 57 -61c34 10 63 34 63 69c0 24 -13 53 -57 53z" />
    <glyph glyph-name="nine.superior" unicode="&#x2079;" horiz-adv-x="315" 
d="M90 400l8 54c11 -1 28 -1 45 1c27 3 54 14 81 34c29 20 54 52 70 92l-1 1c-24 -27 -60 -40 -90 -40c-66 0 -104 48 -104 105c0 82 71 156 156 156c81 0 120 -59 120 -131c0 -96 -55 -180 -104 -219c-38 -30 -86 -47 -132 -52c-17 -2 -35 -2 -49 -1zM248 752
c-43 0 -81 -46 -81 -100c0 -34 20 -62 58 -62c30 0 55 16 72 39c4 5 7 11 8 18c2 9 4 22 4 34c0 40 -19 71 -61 71z" />
    <glyph glyph-name="period.superior" unicode="&#xf6e8;" horiz-adv-x="140" 
d="M113 400c-22 0 -38 18 -38 41c0 26 18 48 46 48c24 0 40 -17 40 -42c0 -27 -19 -47 -48 -47z" />
    <glyph glyph-name="comma.superior" unicode="&#xf6e2;" horiz-adv-x="140" 
d="M78 338l-48 -5c22 43 49 106 63 155l73 6c-24 -56 -62 -121 -88 -156z" />
    <glyph glyph-name="dollar.superior" unicode="&#xf6e4;" horiz-adv-x="286" 
d="M190 355h-45l11 58c-33 1 -71 16 -89 31l22 49c21 -16 52 -29 91 -29c41 0 74 22 74 57c0 23 -13 43 -54 61c-51 24 -86 54 -86 99c0 58 49 103 116 109l12 57h45l-12 -57c33 -1 61 -12 74 -22l-22 -47c-13 7 -37 21 -77 21c-42 0 -66 -24 -66 -52c0 -23 16 -37 63 -59
c49 -24 77 -55 77 -100c0 -69 -55 -110 -122 -118z" />
    <glyph glyph-name="cent.superior" unicode="&#xf6e0;" horiz-adv-x="283" 
d="M226 397h-45l12 61c-34 5 -57 19 -73 41c-16 21 -24 48 -24 77c0 95 71 165 155 177l10 59h46l-11 -57c19 -1 45 -7 57 -15l-21 -49c-14 8 -31 14 -59 14c-55 0 -108 -50 -108 -122c0 -46 29 -76 76 -76c26 0 46 7 62 14l6 -48c-16 -8 -45 -16 -71 -16z" />
    <glyph glyph-name="hyphen.superior" unicode="&#xf6e6;" horiz-adv-x="192" 
d="M95 612h152l-9 -47h-152z" />
    <glyph glyph-name="parenleft.superior" unicode="&#x207d;" horiz-adv-x="181" 
d="M231 832h51c-62 -73 -123 -185 -123 -321c0 -54 8 -106 32 -164h-47c-24 48 -38 102 -38 164c0 143 63 254 125 321z" />
    <glyph glyph-name="parenright.superior" unicode="&#x207e;" horiz-adv-x="181" 
d="M92 347h-50c61 74 123 185 123 322c0 54 -9 105 -32 163h47c24 -47 39 -101 39 -163c0 -142 -64 -253 -127 -322z" />
    <glyph glyph-name="zero.inferior" unicode="&#x2080;" horiz-adv-x="323" 
d="M94 -150c-77 0 -112 59 -112 139c0 136 75 263 184 263c79 0 111 -62 111 -127c0 -139 -71 -275 -183 -275zM103 -98c68 0 106 139 106 216c0 33 -7 82 -51 82c-63 0 -108 -126 -108 -212c0 -39 9 -86 53 -86z" />
    <glyph glyph-name="one.inferior" unicode="&#x2081;" horiz-adv-x="228" 
d="M97 -144h-69l63 329h-2l-72 -33l-6 50l100 44h60z" />
    <glyph glyph-name="two.inferior" unicode="&#x2082;" horiz-adv-x="298" 
d="M204 -144h-263l7 40l73 58c93 74 156 128 156 187c0 27 -14 54 -60 54c-33 0 -66 -17 -85 -30l-16 44c32 24 76 42 122 42c71 0 112 -44 112 -101c0 -79 -80 -143 -165 -209l-36 -28v-2h166z" />
    <glyph glyph-name="three.inferior" unicode="&#x2083;" horiz-adv-x="291" 
d="M31 172l-11 45c25 18 68 34 111 34c72 0 110 -40 110 -86c0 -47 -39 -81 -90 -97v-2c41 -10 71 -45 71 -89c-1 -76 -68 -126 -164 -126c-46 0 -89 13 -109 29l22 48c17 -12 50 -26 87 -26c59 0 93 35 93 75c0 46 -44 65 -91 65h-20l8 45h21c45 0 100 26 100 68
c0 25 -15 45 -57 45c-29 0 -62 -14 -81 -28z" />
    <glyph glyph-name="four.inferior" unicode="&#x2084;" horiz-adv-x="318" 
d="M184 -144h-65l20 104h-180l8 40l216 248h76l-46 -239h55l-10 -49h-54zM149 9l22 116c4 22 10 45 15 63l-2 1c-16 -23 -29 -44 -44 -62l-101 -116l-1 -2h111z" />
    <glyph glyph-name="five.inferior" unicode="&#x2085;" horiz-adv-x="295" 
d="M258 246l-12 -55h-142l-27 -85c9 1 16 1 23 1c18 0 46 -4 68 -15c39 -18 56 -54 56 -89c0 -98 -82 -153 -177 -153c-43 0 -79 12 -94 22l18 50c15 -9 45 -19 80 -19c55 0 101 38 101 88c0 37 -23 68 -97 68c-18 0 -32 -2 -49 -3l56 190h196z" />
    <glyph glyph-name="six.inferior" unicode="&#x2086;" horiz-adv-x="320" 
d="M264 251l-9 -53c-11 1 -27 0 -42 -3c-74 -13 -125 -60 -148 -124l1 -1c22 27 61 46 94 46c69 0 103 -49 103 -109c0 -81 -67 -157 -156 -157c-80 0 -126 56 -126 133c0 92 52 172 106 213c35 25 77 43 124 50c17 3 36 5 53 5zM112 -100c46 0 83 49 83 103
c0 41 -22 65 -61 65c-28 0 -57 -18 -75 -47c-4 -5 -7 -11 -8 -17c-3 -9 -3 -20 -3 -31c0 -42 22 -73 64 -73z" />
    <glyph glyph-name="seven.inferior" unicode="&#x2087;" horiz-adv-x="282" 
d="M17 246h254l-8 -44c-50 -78 -167 -253 -229 -346h-73c67 99 172 254 227 334l-1 2h-181z" />
    <glyph glyph-name="eight.inferior" unicode="&#x2088;" horiz-adv-x="323" 
d="M164 252c60 0 110 -32 110 -91c0 -45 -34 -78 -78 -98v-1c43 -22 62 -56 62 -90c0 -82 -80 -122 -152 -122c-80 0 -129 42 -129 98c0 57 44 96 94 114v2c-31 20 -46 46 -46 75c0 67 63 113 139 113zM112 -103c42 0 76 28 76 69c0 36 -21 58 -66 72
c-38 -9 -76 -34 -76 -81c0 -30 22 -60 66 -60zM153 205c-36 0 -63 -29 -63 -61c0 -27 16 -48 57 -61c34 10 63 34 63 69c0 24 -13 53 -57 53z" />
    <glyph glyph-name="nine.inferior" unicode="&#x2089;" horiz-adv-x="315" 
d="M-16 -150l8 54c11 -1 28 -1 45 1c27 3 54 14 81 34c29 20 54 52 70 92l-1 1c-24 -27 -60 -40 -90 -40c-66 0 -104 48 -104 105c0 82 71 156 156 156c81 0 120 -59 120 -131c0 -96 -55 -180 -104 -219c-38 -30 -86 -47 -132 -52c-17 -2 -35 -2 -49 -1zM142 202
c-43 0 -81 -46 -81 -100c0 -35 20 -62 58 -62c30 0 55 16 72 39c4 5 7 11 8 18c2 9 4 22 4 34c0 40 -19 71 -61 71z" />
    <glyph glyph-name="period.inferior" unicode="&#xf6e7;" horiz-adv-x="140" 
d="M7 -150c-22 0 -38 18 -38 41c0 26 18 48 46 48c24 0 40 -17 40 -42c0 -27 -19 -47 -48 -47z" />
    <glyph glyph-name="comma.inferior" unicode="&#xf6e1;" horiz-adv-x="140" 
d="M-28 -212l-48 -5c22 43 49 106 63 155l73 6c-24 -56 -62 -121 -88 -156z" />
    <glyph glyph-name="dollar.inferior" unicode="&#xf6e3;" horiz-adv-x="286" 
d="M84 -196h-45l11 58c-33 1 -71 17 -89 31l22 49c21 -16 52 -29 91 -29c41 0 74 22 74 58c0 23 -13 42 -54 61c-51 24 -86 53 -86 99c0 58 49 103 116 109l12 57h45l-12 -57c33 -1 61 -12 74 -22l-22 -47c-13 7 -37 21 -77 21c-42 0 -66 -24 -66 -52c0 -23 16 -37 63 -59
c49 -24 77 -55 77 -100c0 -69 -55 -110 -122 -118z" />
    <glyph glyph-name="cent.inferior" unicode="&#xf6df;" horiz-adv-x="283" 
d="M120 -153h-45l12 61c-34 5 -57 19 -73 41c-16 21 -24 48 -24 77c0 95 71 165 155 177l10 59h46l-11 -58c19 0 45 -7 57 -15l-21 -48c-14 7 -31 13 -59 13c-55 0 -108 -50 -108 -121c0 -46 29 -76 76 -76c26 0 46 7 62 14l6 -48c-16 -8 -45 -16 -71 -16z" />
    <glyph glyph-name="hyphen.inferior" unicode="&#xf6e5;" horiz-adv-x="192" 
d="M-11 62h152l-9 -47h-152z" />
    <glyph glyph-name="parenleft.inferior" unicode="&#x208d;" horiz-adv-x="181" 
d="M125 282h51c-62 -73 -123 -185 -123 -321c0 -54 8 -106 32 -164h-47c-24 48 -38 102 -38 164c0 143 63 254 125 321z" />
    <glyph glyph-name="parenright.inferior" unicode="&#x208e;" horiz-adv-x="181" 
d="M-14 -203h-50c61 74 123 185 123 322c0 54 -9 105 -32 163h47c24 -47 39 -101 39 -163c0 -142 -64 -253 -127 -322z" />
    <glyph glyph-name="zero.numerator" unicode="&#xf661;" horiz-adv-x="323" 
d="M172 260c-77 0 -112 59 -112 139c0 136 75 263 184 263c79 0 111 -62 111 -127c0 -139 -71 -275 -183 -275zM181 312c68 0 106 139 106 216c0 33 -7 82 -51 82c-63 0 -108 -126 -108 -212c0 -39 9 -86 53 -86z" />
    <glyph glyph-name="one.numerator" unicode="&#xf662;" horiz-adv-x="228" 
d="M175 266h-69l63 329h-2l-72 -33l-6 50l100 44h60z" />
    <glyph glyph-name="two.numerator" unicode="&#xf663;" horiz-adv-x="298" 
d="M282 266h-263l7 40l73 58c93 74 156 128 156 187c0 27 -14 54 -60 54c-33 0 -66 -17 -85 -30l-16 44c32 24 76 42 122 42c71 0 112 -44 112 -101c0 -79 -80 -143 -165 -209l-36 -28v-2h166z" />
    <glyph glyph-name="three.numerator" unicode="&#xf664;" horiz-adv-x="291" 
d="M109 582l-11 45c25 18 68 34 111 34c72 0 110 -40 110 -86c0 -47 -39 -81 -90 -97v-2c41 -10 71 -45 71 -89c-1 -76 -68 -126 -164 -126c-46 0 -89 13 -109 29l22 48c17 -12 50 -26 87 -26c59 0 93 35 93 75c0 46 -44 65 -91 65h-20l8 45h21c45 0 100 26 100 68
c0 25 -15 45 -57 45c-29 0 -62 -14 -81 -28z" />
    <glyph glyph-name="four.numerator" unicode="&#xf665;" horiz-adv-x="318" 
d="M262 266h-65l20 104h-180l8 40l216 248h76l-46 -239h55l-10 -49h-54zM227 419l22 116c4 22 10 45 15 63l-2 1c-16 -23 -29 -44 -44 -62l-101 -116l-1 -2h111z" />
    <glyph glyph-name="five.numerator" unicode="&#xf666;" horiz-adv-x="295" 
d="M336 656l-12 -55h-142l-27 -85c9 1 16 1 23 1c18 0 46 -4 68 -15c39 -18 56 -54 56 -89c0 -98 -82 -153 -177 -153c-43 0 -79 12 -94 22l18 50c15 -9 45 -19 80 -19c55 0 101 38 101 88c0 37 -23 68 -97 68c-18 0 -32 -2 -49 -3l56 190h196z" />
    <glyph glyph-name="six.numerator" unicode="&#xf667;" horiz-adv-x="320" 
d="M342 661l-9 -53c-11 1 -27 0 -42 -3c-74 -13 -125 -60 -148 -124l1 -1c22 27 61 46 94 46c69 0 103 -49 103 -109c0 -81 -67 -157 -156 -157c-80 0 -126 56 -126 133c0 92 52 172 106 213c35 25 77 43 124 50c17 3 36 5 53 5zM190 310c46 0 83 49 83 103
c0 41 -22 65 -61 65c-28 0 -57 -18 -75 -47c-4 -5 -7 -11 -8 -17c-3 -9 -3 -20 -3 -31c0 -42 22 -73 64 -73z" />
    <glyph glyph-name="seven.numerator" unicode="&#xf668;" horiz-adv-x="282" 
d="M95 656h254l-8 -44c-50 -78 -167 -253 -229 -346h-73c67 99 172 254 227 334l-1 2h-181z" />
    <glyph glyph-name="eight.numerator" unicode="&#xf669;" horiz-adv-x="323" 
d="M242 662c60 0 110 -32 110 -92c0 -44 -34 -77 -78 -97v-1c43 -22 62 -56 62 -90c0 -82 -80 -122 -152 -122c-80 0 -129 42 -129 98c0 57 44 96 94 114v2c-31 20 -46 46 -46 75c0 67 63 113 139 113zM190 307c42 0 76 28 76 69c0 36 -21 58 -66 72c-38 -9 -76 -34 -76 -81
c0 -30 22 -60 66 -60zM231 615c-36 0 -63 -29 -63 -61c0 -27 16 -48 57 -61c34 10 63 34 63 69c0 24 -13 53 -57 53z" />
    <glyph glyph-name="nine.numerator" unicode="&#xf66a;" horiz-adv-x="315" 
d="M62 260l8 54c11 -1 28 -1 45 1c27 3 54 14 81 34c29 20 54 52 70 92l-1 1c-24 -27 -60 -40 -90 -40c-66 0 -104 48 -104 105c0 82 71 156 156 156c81 0 120 -59 120 -131c0 -96 -55 -180 -104 -219c-38 -30 -86 -47 -132 -52c-17 -2 -35 -2 -49 -1zM220 612
c-43 0 -81 -46 -81 -100c0 -35 20 -62 58 -62c30 0 55 16 72 39c4 5 7 11 8 18c2 9 4 22 4 34c0 40 -19 71 -61 71z" />
    <glyph glyph-name="period.numerator" unicode="&#xf66c;" horiz-adv-x="140" 
d="M85 260c-22 0 -38 18 -38 41c0 26 18 48 46 48c24 0 40 -17 40 -42c0 -27 -19 -47 -48 -47z" />
    <glyph glyph-name="comma.numerator" unicode="&#xf66b;" horiz-adv-x="140" 
d="M50 198l-48 -5c22 43 49 106 63 155l73 6c-24 -56 -62 -121 -88 -156z" />
    <glyph glyph-name="dollar.numerator" unicode="&#xf62f;" horiz-adv-x="286" 
d="M162 215h-45l11 58c-33 1 -71 16 -89 31l22 49c21 -16 52 -29 91 -29c41 0 74 22 74 57c0 23 -13 43 -54 61c-51 24 -86 54 -86 99c0 58 49 103 116 109l12 57h45l-12 -57c33 -1 61 -12 74 -21l-22 -48c-13 7 -37 21 -77 21c-42 0 -66 -24 -66 -52c0 -23 16 -37 63 -60
c49 -23 77 -54 77 -99c0 -69 -55 -110 -122 -118z" />
    <glyph glyph-name="cent.numerator" unicode="&#xf62e;" horiz-adv-x="283" 
d="M198 257h-45l12 61c-34 5 -57 19 -73 41c-16 21 -24 48 -24 77c0 95 71 165 155 177l10 59h46l-11 -58c19 0 45 -7 57 -15l-21 -48c-14 7 -31 13 -59 13c-55 0 -108 -50 -108 -121c0 -46 29 -76 76 -76c26 0 46 7 62 14l6 -48c-16 -8 -45 -16 -71 -16z" />
    <glyph glyph-name="hyphen.numerator" unicode="&#xf630;" horiz-adv-x="192" 
d="M67 472h152l-9 -47h-152z" />
    <glyph glyph-name="parenleft.numerator" unicode="&#xf631;" horiz-adv-x="181" 
d="M203 692h51c-62 -73 -123 -185 -123 -321c0 -54 8 -106 32 -164h-47c-24 48 -38 102 -38 164c0 143 63 254 125 321z" />
    <glyph glyph-name="parenright.numerator" unicode="&#xf632;" horiz-adv-x="181" 
d="M64 207h-50c61 75 123 186 123 322c0 54 -9 105 -32 163h47c24 -47 39 -101 39 -163c0 -142 -64 -253 -127 -322z" />
    <glyph glyph-name="zero.denominator" unicode="&#xf655;" horiz-adv-x="323" 
d="M119 -6c-77 0 -112 59 -112 139c0 136 75 263 184 263c79 0 111 -62 111 -127c0 -139 -71 -275 -183 -275zM128 46c68 0 106 139 106 216c0 33 -7 82 -51 82c-63 0 -108 -126 -108 -212c0 -39 9 -86 53 -86z" />
    <glyph glyph-name="one.denominator" unicode="&#xf656;" horiz-adv-x="228" 
d="M122 0h-69l63 329h-2l-72 -32l-6 49l100 44h60z" />
    <glyph glyph-name="two.denominator" unicode="&#xf657;" horiz-adv-x="298" 
d="M230 0h-263l7 39l73 59c93 74 156 128 156 187c0 27 -14 54 -60 54c-33 0 -66 -17 -85 -30l-16 44c32 24 76 42 122 42c71 0 112 -44 112 -101c0 -79 -80 -143 -165 -209l-36 -28v-2h166z" />
    <glyph glyph-name="three.denominator" unicode="&#xf658;" horiz-adv-x="291" 
d="M56 316l-11 45c25 18 68 34 111 34c72 0 110 -40 110 -86c0 -47 -39 -81 -90 -97v-2c41 -10 71 -45 71 -89c-1 -76 -68 -126 -164 -126c-46 0 -89 13 -109 29l22 48c17 -12 50 -26 87 -26c59 0 93 35 93 75c0 46 -44 65 -91 65h-20l8 45h21c45 0 100 26 100 68
c0 25 -15 45 -57 45c-29 0 -62 -14 -81 -28z" />
    <glyph glyph-name="four.denominator" unicode="&#xf659;" horiz-adv-x="318" 
d="M210 0h-65l20 104h-180l8 40l216 248h76l-46 -239h55l-10 -49h-54zM175 153l22 116c4 22 10 45 15 64h-2c-16 -23 -29 -44 -44 -62l-101 -116l-1 -2h111z" />
    <glyph glyph-name="five.denominator" unicode="&#xf65a;" horiz-adv-x="295" 
d="M283 390l-12 -55h-142l-27 -85c9 1 16 1 23 1c18 0 46 -4 68 -15c39 -18 56 -54 56 -89c0 -98 -82 -153 -177 -153c-43 0 -79 12 -94 22l18 50c15 -9 45 -19 80 -19c55 0 101 38 101 88c0 37 -23 68 -97 68c-18 0 -32 -2 -49 -3l56 190h196z" />
    <glyph glyph-name="six.denominator" unicode="&#xf65b;" horiz-adv-x="320" 
d="M289 395l-9 -53c-11 1 -27 0 -42 -3c-74 -13 -125 -60 -148 -124l1 -1c22 27 61 46 94 46c69 0 103 -49 103 -109c0 -81 -67 -157 -156 -157c-80 0 -126 56 -126 133c0 92 52 172 106 213c35 25 77 43 124 50c17 3 36 5 53 5zM137 44c46 0 83 49 83 103
c0 41 -22 65 -61 65c-28 0 -57 -18 -75 -47c-4 -5 -7 -11 -8 -17c-3 -9 -3 -20 -3 -31c0 -42 22 -73 64 -73z" />
    <glyph glyph-name="seven.denominator" unicode="&#xf65c;" horiz-adv-x="282" 
d="M43 390h254l-8 -43c-50 -78 -167 -254 -229 -347h-73c67 99 172 254 227 334l-1 2h-181z" />
    <glyph glyph-name="eight.denominator" unicode="&#xf65d;" horiz-adv-x="323" 
d="M189 396c60 0 110 -32 110 -91c0 -45 -34 -78 -78 -98v-1c43 -22 62 -56 62 -90c0 -82 -80 -122 -152 -122c-80 0 -129 42 -129 98c0 57 44 96 94 114v2c-31 20 -46 46 -46 75c0 67 63 113 139 113zM137 41c42 0 76 28 76 69c0 36 -21 58 -66 72c-38 -9 -76 -34 -76 -81
c0 -30 22 -60 66 -60zM178 349c-36 0 -63 -29 -63 -61c0 -27 16 -48 57 -61c34 10 63 34 63 69c0 24 -13 53 -57 53z" />
    <glyph glyph-name="nine.denominator" unicode="&#xf65e;" horiz-adv-x="315" 
d="M9 -6l8 54c11 -1 28 -1 45 1c27 3 54 14 81 34c29 20 54 52 70 92l-1 1c-24 -27 -60 -40 -90 -40c-66 0 -104 48 -104 105c0 82 71 156 156 156c81 0 120 -59 120 -131c0 -96 -55 -180 -104 -219c-38 -30 -86 -47 -132 -52c-17 -2 -35 -2 -49 -1zM167 346
c-43 0 -81 -46 -81 -100c0 -34 20 -62 58 -62c30 0 55 16 72 39c4 5 7 11 8 18c2 9 4 22 4 34c0 40 -19 71 -61 71z" />
    <glyph glyph-name="period.denominator" unicode="&#xf660;" horiz-adv-x="140" 
d="M32 -6c-22 0 -38 18 -38 41c0 26 18 48 46 48c24 0 40 -17 40 -42c0 -27 -19 -47 -48 -47z" />
    <glyph glyph-name="comma.denominator" unicode="&#xf65f;" horiz-adv-x="140" 
d="M-2 -68l-48 -5c22 43 49 106 63 155l73 6c-24 -56 -62 -121 -88 -156z" />
    <glyph glyph-name="dollar.denominator" unicode="&#xf62a;" horiz-adv-x="286" 
d="M109 -51h-45l11 58c-33 1 -71 16 -89 31l22 49c21 -16 52 -29 91 -29c41 0 74 22 74 57c0 23 -13 43 -54 61c-51 24 -86 54 -86 99c0 58 49 103 116 109l12 57h45l-12 -57c33 -1 61 -12 74 -22l-22 -47c-13 7 -37 21 -77 21c-42 0 -66 -24 -66 -52c0 -23 16 -37 63 -59
c49 -24 77 -55 77 -100c0 -69 -55 -110 -122 -118z" />
    <glyph glyph-name="cent.denominator" unicode="&#xf629;" horiz-adv-x="283" 
d="M145 -9h-45l12 61c-34 5 -57 19 -73 41c-16 21 -24 48 -24 77c0 95 71 165 155 177l10 59h46l-11 -57c19 -1 45 -7 57 -15l-21 -49c-14 8 -31 14 -59 14c-55 0 -108 -50 -108 -122c0 -46 29 -76 76 -76c26 0 46 7 62 14l6 -48c-16 -8 -45 -16 -71 -16z" />
    <glyph glyph-name="hyphen.denominator" unicode="&#xf62b;" horiz-adv-x="192" 
d="M14 206h152l-9 -47h-152z" />
    <glyph glyph-name="parenleft.denominator" unicode="&#xf62c;" horiz-adv-x="181" 
d="M151 426h51c-62 -73 -123 -185 -123 -321c0 -54 8 -106 32 -164h-47c-24 48 -38 102 -38 164c0 143 63 254 125 321z" />
    <glyph glyph-name="parenright.denominator" unicode="&#xf62d;" horiz-adv-x="181" 
d="M11 -59h-50c61 74 123 185 123 322c0 54 -9 105 -32 163h47c24 -47 39 -101 39 -163c0 -142 -64 -253 -127 -322z" />
    <glyph glyph-name="at.cap" unicode="&#xf633;" horiz-adv-x="720" 
d="M457 348l21 112c-10 4 -27 8 -50 8c-88 0 -160 -83 -160 -180c0 -44 23 -76 67 -76c58 0 111 74 122 136zM516 72l16 -44c-54 -30 -111 -40 -174 -40c-172 0 -305 120 -305 313c0 206 142 384 364 384c174 0 291 -122 291 -289c0 -150 -84 -238 -178 -238
c-40 0 -77 26 -75 88h-3c-35 -59 -81 -88 -142 -88c-57 0 -107 47 -107 126c0 124 98 237 237 237c43 0 81 -9 107 -21l-34 -181c-15 -76 -3 -111 30 -112c52 -2 109 67 109 182c0 146 -88 250 -244 250c-163 0 -299 -129 -299 -332c0 -167 105 -271 260 -271
c51 0 107 13 147 36z" />
    <glyph glyph-name="emdash.cap" unicode="&#xf6bc;" horiz-adv-x="1000" 
d="M55 359h940l-12 -60h-940z" />
    <glyph glyph-name="endash.cap" unicode="&#xf6bb;" horiz-adv-x="500" 
d="M55 359h440l-12 -60h-440z" />
    <glyph glyph-name="exclamdown.cap" unicode="&#xf6b4;" horiz-adv-x="236" 
d="M119 0h-94l106 477h66zM196 683c32 0 54 -26 54 -58c0 -37 -26 -67 -62 -67c-34 0 -56 26 -56 59c0 37 26 66 64 66z" />
    <glyph glyph-name="guillemotleft.cap" unicode="&#xf6b6;" horiz-adv-x="409" 
d="M267 511l-151 -186l101 -182h-66l-104 184l148 184h72zM431 511l-152 -186l102 -182h-67l-103 184l147 184h73z" />
    <glyph glyph-name="guillemotright.cap" unicode="&#xf6b7;" horiz-adv-x="408" 
d="M173 330l-102 181h67l103 -184l-147 -184h-73zM336 330l-101 181h66l104 -184l-148 -184h-72z" />
    <glyph glyph-name="guilsinglleft.cap" unicode="&#xf6b8;" horiz-adv-x="245" 
d="M267 511l-152 -186l102 -182h-66l-104 184l147 184h73z" />
    <glyph glyph-name="guilsinglright.cap" unicode="&#xf6b9;" horiz-adv-x="245" 
d="M174 330l-102 181h66l104 -184l-148 -184h-72z" />
    <glyph glyph-name="hyphen.cap" unicode="&#xf6ba;" horiz-adv-x="307" 
d="M62 377h239l-12 -64h-239z" />
    <glyph glyph-name="questiondown.cap" unicode="&#xf6b5;" horiz-adv-x="384" 
d="M227 481h80c0 -9 -1 -18 -2 -27c-5 -54 -35 -115 -98 -182c-46 -46 -86 -93 -86 -145c0 -36 18 -71 76 -71c37 0 71 9 100 27l16 -61c-37 -21 -85 -36 -135 -36c-101 0 -143 68 -143 130c0 70 46 131 108 193c49 50 73 93 80 143zM298 683c32 0 54 -26 54 -58
c0 -37 -26 -67 -63 -67c-33 0 -55 26 -55 59c0 37 26 66 64 66z" />
    <glyph glyph-name="braceleft.cap" unicode="&#xf6b2;" horiz-adv-x="284" 
d="M42 302l9 51c68 0 85 39 92 74c10 55 6 111 17 167c17 92 77 131 159 131h23l-10 -54h-18c-52 0 -79 -32 -90 -86c-9 -48 -4 -96 -13 -148c-11 -66 -44 -98 -91 -109v-2c38 -10 54 -39 54 -71c0 -34 -12 -74 -25 -111c-14 -37 -26 -73 -26 -99c0 -36 17 -62 60 -63h18
l-11 -54h-18c-70 0 -117 34 -117 102c0 38 14 79 27 116c13 38 26 74 26 103c0 18 -7 54 -66 53z" />
    <glyph glyph-name="braceright.cap" unicode="&#xf6b3;" horiz-adv-x="284" 
d="M273 351l-9 -51c-68 0 -85 -39 -92 -75c-10 -54 -6 -110 -17 -166c-17 -92 -77 -131 -159 -131h-23l10 54h18c52 0 79 32 90 86c9 48 4 96 13 148c11 65 44 98 91 109v2c-38 11 -54 40 -54 72s14 71 26 109c13 38 25 74 25 100c0 36 -17 62 -60 63h-18l11 54h18
c70 0 117 -34 117 -102c0 -40 -13 -80 -26 -118c-14 -37 -27 -72 -27 -101c0 -19 7 -54 66 -53z" />
    <glyph glyph-name="bracketleft.cap" unicode="&#xf6b0;" horiz-adv-x="284" 
d="M204 -72h-175l152 797h175l-10 -54h-108l-131 -689h107z" />
    <glyph glyph-name="bracketright.cap" unicode="&#xf6b1;" horiz-adv-x="284" 
d="M119 725h175l-152 -797h-175l10 54h108l131 689h-107z" />
    <glyph glyph-name="parenleft.cap" unicode="&#xf6ae;" horiz-adv-x="284" 
d="M288 731h71c-105 -119 -210 -304 -210 -534c0 -91 14 -178 55 -276h-63c-41 82 -64 171 -64 278c0 238 112 424 211 532z" />
    <glyph glyph-name="parenright.cap" unicode="&#xf6af;" horiz-adv-x="284" 
d="M34 -79h-71c105 120 210 305 210 536c0 90 -14 178 -55 274h64c41 -81 63 -170 63 -276c0 -239 -112 -425 -211 -534z" />
    <glyph glyph-name="periodcentered.cap" unicode="&#xf6bd;" horiz-adv-x="211" 
d="M119 273c-33 0 -55 26 -55 59c0 37 26 67 63 67c34 0 56 -26 56 -60c0 -37 -26 -66 -64 -66z" />
    <glyph glyph-name="lessequal" unicode="&#x2264;" horiz-adv-x="596" 
d="M530 99l-464 193v59l464 192v-66l-382 -155v-2l382 -154v-67zM530 0h-462v58h462v-58z" />
    <glyph glyph-name="greaterequal" unicode="&#x2265;" horiz-adv-x="596" 
d="M530 292l-464 -193v67l382 154v2l-382 155v66l464 -192v-59zM528 0h-462v58h462v-58z" />
    <glyph glyph-name="approxequal" unicode="&#x2248;" horiz-adv-x="596" 
d="M533 416l36 -41c-31 -40 -89 -78 -151 -78c-59 0 -96 22 -129 37c-30 12 -64 34 -114 34c-46 0 -90 -30 -117 -59l-35 42c32 38 90 77 153 77c58 0 95 -23 127 -37c30 -12 64 -34 114 -34c46 0 91 33 116 59zM538 218l36 -40c-32 -41 -91 -79 -153 -79
c-57 0 -95 23 -127 36c-30 12 -64 34 -115 34c-45 0 -90 -30 -117 -59l-35 43c32 38 91 76 153 76c58 0 95 -23 128 -36c30 -12 64 -34 113 -34c47 0 91 30 117 59z" />
    <glyph glyph-name="notequal" unicode="&#x2260;" horiz-adv-x="596" 
d="M556 140h-310l-76 -122h-65l79 122h-144v60h182l89 138h-271v60h309l76 122h65l-79 -122h145v-60h-183l-88 -138h271v-60z" />
    <glyph glyph-name="infinity" unicode="&#x221e;" horiz-adv-x="728" 
d="M541 117c-74 0 -129 58 -177 105c-51 -50 -104 -105 -186 -105c-84 0 -143 61 -143 146c0 80 64 148 151 148c75 0 130 -58 178 -106c51 51 104 106 186 106c84 0 143 -61 143 -148c0 -78 -64 -146 -152 -146zM543 176c49 0 87 40 87 87c0 51 -36 89 -85 89
c-57 0 -103 -50 -141 -89c39 -35 80 -87 139 -87zM184 176c56 0 102 48 140 87c-39 36 -80 89 -138 89c-50 0 -88 -41 -88 -89c0 -50 36 -87 86 -87z" />
    <glyph glyph-name="lozenge" unicode="&#x25ca;" horiz-adv-x="520" 
d="M490 324l-246 -355h-69l-117 355l246 356h68zM414 323l-83 267c-2 6 -4 15 -6 23h-2c-3 -8 -9 -17 -14 -23l-175 -264l82 -267c3 -7 5 -15 6 -23h2c4 8 10 16 15 23z" />
    <glyph glyph-name="integral" unicode="&#x222b;" horiz-adv-x="291" 
d="M372 787l-19 -55c-8 2 -19 4 -29 4c-77 0 -95 -115 -106 -183c-22 -142 -39 -316 -63 -467c-17 -103 -54 -236 -174 -236c-22 0 -38 5 -50 10l17 57c8 -3 21 -6 34 -6c76 0 95 120 104 175c24 152 41 330 64 473c17 107 57 236 178 236c18 0 34 -3 44 -8z" />
    <glyph glyph-name="partialdiff" unicode="&#x2202;" horiz-adv-x="518" 
d="M133 617l-20 57c34 24 93 53 171 53c126 0 227 -102 227 -291c0 -215 -110 -447 -306 -447c-115 0 -172 87 -172 186c0 145 106 267 248 267c71 0 125 -47 142 -85h1c4 26 7 56 7 85c0 145 -77 214 -160 214c-62 0 -111 -21 -138 -39zM218 57c94 0 162 105 186 222
c-14 48 -63 95 -124 95c-93 0 -162 -89 -162 -197c0 -74 38 -120 100 -120z" />
    <glyph glyph-name="product" unicode="&#x220f;" horiz-adv-x="617" 
d="M647 579h-76l-134 -669h-80l135 669h-244l-134 -669h-80l135 669h-78l14 71h557z" />
    <glyph glyph-name="radical" unicode="&#x221a;" horiz-adv-x="540" 
d="M639 827l-372 -925h-61l-79 431l-75 -31l-12 45l142 58l57 -349c4 -21 6 -45 8 -63h1c6 17 15 42 23 64l305 770h63z" />
    <glyph glyph-name="summation" unicode="&#x2211;" horiz-adv-x="536" 
d="M448 -90h-479l9 52l293 319l-170 311l10 58h436l-13 -72h-335l-1 -3l163 -295l-269 -294v-4h369z" />
    <glyph glyph-name="Delta" unicode="&#x2206;" horiz-adv-x="529" 
d="M522 0h-519l9 49l321 607h98l100 -607zM107 71h339l-56 343c-7 48 -18 125 -23 166h-2c-17 -37 -45 -99 -70 -148z" />
    <glyph glyph-name="Omega" unicode="&#x2126;" horiz-adv-x="680" 
d="M145 66l1 4c-48 47 -91 132 -91 229c0 216 151 386 349 386c165 0 263 -120 263 -266c0 -164 -99 -289 -186 -349v-4h136l-12 -66h-245l9 55c96 56 210 185 210 355c0 105 -59 207 -183 207c-159 0 -255 -169 -255 -322c0 -115 46 -198 102 -240l-10 -55h-244l12 66h144z
" />
    <glyph glyph-name="pi" unicode="&#x3c0;" horiz-adv-x="528" 
d="M532 418h-67l-50 -271c-15 -82 -17 -122 -14 -147h-79c-6 15 -6 58 9 140l51 278h-151c-8 -31 -15 -66 -24 -101c-33 -124 -80 -260 -121 -317h-80c43 68 88 193 120 314c9 36 18 72 24 104c-43 0 -76 -3 -100 -10l-3 50c21 17 59 26 137 26h364z" />
    <glyph glyph-name="aringacute" unicode="&#x1fb;" horiz-adv-x="522" 
d="M427 0h-78c0 29 5 75 11 125h-2c-52 -101 -119 -136 -188 -136c-86 0 -139 68 -139 160c0 169 124 346 335 346c47 0 97 -8 131 -18l-50 -253c-16 -84 -22 -170 -20 -224zM375 276l28 146c-12 4 -30 7 -58 7c-125 0 -228 -130 -228 -265c0 -54 19 -107 83 -107
c70 0 151 90 175 219zM447 844h103l-156 -112h-68zM364 709c53 0 94 -35 94 -92c0 -58 -49 -95 -103 -95c-53 0 -95 36 -95 88c-1 58 44 99 104 99zM359 671c-29 0 -50 -25 -50 -59c0 -27 19 -52 48 -52c30 0 52 25 52 59c0 29 -19 52 -50 52z" />
    <glyph glyph-name="Abreve" unicode="&#x102;" horiz-adv-x="568" 
d="M400 213h-232l-107 -213h-88l349 674h97l94 -674h-85zM198 279h196l-26 195c-4 35 -9 85 -12 124h-2c-18 -40 -35 -82 -55 -123zM272 835h52c0 -28 15 -54 61 -54s68 24 76 54h54c-10 -57 -52 -106 -133 -106c-87 0 -117 49 -110 106z" />
    <glyph glyph-name="Amacron" unicode="&#x100;" horiz-adv-x="568" 
d="M400 213h-232l-107 -213h-88l349 674h97l94 -674h-85zM198 279h196l-26 195c-4 35 -9 85 -12 124h-2c-18 -40 -35 -82 -55 -123zM272 787h231l-10 -54h-231z" />
    <glyph glyph-name="Aogonek" unicode="&#x104;" horiz-adv-x="568" 
d="M419 674l94 -674h-33c-30 -34 -54 -75 -54 -107c0 -24 16 -40 40 -40c14 0 30 4 43 10l9 -44c-22 -19 -53 -25 -80 -25c-51 0 -80 30 -80 77c0 53 50 110 69 133l-27 209h-232l-107 -213h-88l349 674h97zM198 279h196l-26 195c-3 35 -8 85 -12 124h-2
c-18 -40 -35 -82 -55 -123z" />
    <glyph glyph-name="i.dot" horiz-adv-x="229" 
d="M111 0h-83l93 484h82zM183 566c-29 0 -47 22 -47 52c1 32 25 56 54 56c30 0 50 -22 50 -52c-1 -33 -24 -56 -57 -56z" />
    <glyph glyph-name="Cacute" unicode="&#x106;" horiz-adv-x="555" 
d="M486 90l11 -68c-38 -17 -99 -32 -175 -32c-170 0 -273 107 -273 279c0 127 51 248 143 325c70 59 156 90 255 90c74 0 128 -19 146 -32l-27 -67c-25 15 -73 27 -133 27c-70 0 -141 -27 -193 -75c-63 -59 -103 -154 -103 -256c0 -121 55 -220 205 -220c51 0 107 10 144 29
zM461 832h109l-137 -118h-73z" />
    <glyph glyph-name="Ccaron" unicode="&#x10c;" horiz-adv-x="555" 
d="M486 90l11 -68c-38 -17 -99 -32 -175 -32c-170 0 -273 107 -273 279c0 127 51 248 143 325c70 59 156 90 255 90c74 0 128 -19 146 -32l-27 -67c-25 15 -73 27 -133 27c-70 0 -141 -27 -193 -75c-63 -59 -103 -154 -103 -256c0 -121 55 -220 205 -220c51 0 107 10 144 29
zM446 714h-64l-80 118h69l47 -72h3l72 72h74z" />
    <glyph glyph-name="Ccircumflex" unicode="&#x108;" horiz-adv-x="555" 
d="M486 90l11 -68c-38 -17 -99 -32 -175 -32c-170 0 -273 107 -273 279c0 127 51 248 143 325c70 59 156 90 255 90c74 0 128 -19 146 -32l-27 -67c-25 15 -73 27 -133 27c-70 0 -141 -27 -193 -75c-63 -59 -103 -154 -103 -256c0 -121 55 -220 205 -220c51 0 107 10 144 29
zM400 829h65l80 -118h-68l-49 72h-2l-72 -72h-74z" />
    <glyph glyph-name="Cdotaccent" unicode="&#x10a;" horiz-adv-x="555" 
d="M486 90l11 -68c-38 -17 -99 -32 -175 -32c-170 0 -273 107 -273 279c0 127 51 248 143 325c70 59 156 90 254 90c75 0 129 -19 146 -32l-26 -67c-25 15 -73 27 -133 27c-70 0 -141 -27 -193 -75c-63 -59 -103 -154 -103 -256c0 -121 55 -220 205 -220c51 0 106 10 144 29
zM430 722c-26 0 -47 22 -47 49c0 28 23 53 52 53s48 -24 48 -49c0 -29 -23 -53 -53 -53z" />
    <glyph glyph-name="Dcaron" unicode="&#x10e;" horiz-adv-x="647" 
d="M33 3l125 663c52 9 109 13 168 13c112 0 198 -32 248 -90c36 -37 63 -98 63 -183c0 -122 -49 -243 -135 -317c-78 -66 -176 -94 -306 -94c-59 0 -120 3 -163 8zM230 604l-102 -536c30 -4 62 -4 87 -4c107 0 185 31 241 89c61 62 92 154 92 249c0 120 -58 209 -226 209
c-30 0 -68 -2 -92 -7zM404 710h-65l-80 118h70l47 -72h3l71 72h74z" />
    <glyph glyph-name="Ebreve" unicode="&#x114;" horiz-adv-x="470" 
d="M433 387l-14 -70h-245l-46 -246h275l-13 -71h-359l128 674h344l-14 -71h-260l-41 -216h245zM227 830h52c0 -28 15 -54 61 -54s68 24 76 54h54c-10 -57 -52 -106 -134 -106c-86 0 -116 49 -109 106z" />
    <glyph glyph-name="Ecaron" unicode="&#x11a;" horiz-adv-x="470" 
d="M433 387l-14 -70h-245l-46 -246h275l-13 -71h-359l128 674h344l-14 -71h-260l-42 -216h246zM363 710h-65l-80 118h69l47 -73h3l72 73h74z" />
    <glyph glyph-name="Edotaccent" unicode="&#x116;" horiz-adv-x="470" 
d="M433 387l-14 -70h-245l-46 -246h276l-14 -71h-359l129 674h343l-14 -71h-260l-41 -216h245zM340 720c-26 0 -47 22 -47 49c0 28 23 53 52 53s48 -24 48 -49c0 -29 -23 -53 -53 -53z" />
    <glyph glyph-name="Emacron" unicode="&#x112;" horiz-adv-x="470" 
d="M433 387l-14 -70h-245l-46 -246h276l-14 -71h-359l128 674h344l-14 -71h-260l-41 -216h245zM231 787h231l-10 -54h-231z" />
    <glyph glyph-name="Eogonek" unicode="&#x118;" horiz-adv-x="470" 
d="M32 0l128 674h343l-14 -71h-260l-41 -216h245l-14 -70h-244l-47 -246h276l-14 -71h-17c-46 -30 -87 -77 -87 -116c0 -20 12 -32 32 -32c16 0 32 4 45 10l12 -45c-25 -17 -52 -24 -82 -24c-48 0 -76 30 -76 71c0 58 56 111 91 136h-276z" />
    <glyph glyph-name="Gbreve" unicode="&#x11e;" horiz-adv-x="623" 
d="M588 352l-61 -323c-39 -16 -111 -36 -190 -36c-95 0 -169 27 -220 84c-51 56 -68 130 -68 196c0 112 45 230 131 308c73 63 170 100 278 100c82 0 138 -19 159 -31l-28 -70c-34 18 -80 29 -141 29c-80 0 -153 -29 -209 -82c-63 -59 -101 -156 -101 -247
c0 -130 65 -216 215 -216c40 0 78 8 102 19l39 201h-137l13 68h218zM315 831h52c0 -28 15 -54 61 -54s68 24 76 54h54c-10 -57 -52 -106 -133 -106c-86 0 -117 49 -110 106z" />
    <glyph glyph-name="Gcircumflex" unicode="&#x11c;" horiz-adv-x="623" 
d="M588 352l-61 -323c-39 -16 -111 -36 -190 -36c-95 0 -169 27 -220 84c-51 56 -68 130 -68 196c0 112 45 230 131 308c73 63 170 100 278 100c82 0 138 -19 159 -31l-28 -70c-34 18 -80 29 -141 29c-80 0 -153 -29 -209 -82c-63 -59 -101 -156 -101 -247
c0 -130 65 -216 215 -216c40 0 78 8 102 19l39 201h-137l13 68h218zM420 828h65l80 -118h-68l-49 72h-2l-72 -72h-74z" />
    <glyph glyph-name="Gcommaaccent" unicode="&#x122;" horiz-adv-x="623" 
d="M588 352l-61 -323c-39 -16 -111 -36 -190 -36c-95 0 -169 27 -220 84c-51 56 -68 130 -68 196c0 112 45 230 131 308c73 63 170 100 278 100c82 0 138 -19 159 -31l-28 -70c-34 18 -80 29 -141 29c-80 0 -153 -29 -209 -82c-63 -59 -101 -156 -101 -247
c0 -130 65 -216 215 -216c40 0 78 8 102 19l39 201h-137l13 68h218zM193 -221l-10 41c41 7 87 29 87 75c0 21 -11 39 -24 50l66 13c14 -10 28 -33 28 -59c0 -78 -77 -114 -147 -120z" />
    <glyph glyph-name="Gdotaccent" unicode="&#x120;" horiz-adv-x="623" 
d="M588 352l-61 -323c-39 -16 -111 -36 -190 -36c-95 0 -169 27 -220 84c-51 56 -68 130 -68 196c0 112 45 230 131 308c73 63 169 100 277 100c83 0 139 -19 160 -31l-28 -70c-34 18 -80 29 -141 29c-80 0 -153 -29 -209 -82c-63 -59 -101 -156 -101 -247
c0 -130 65 -216 215 -216c40 0 78 8 102 19l39 201h-137l13 68h218zM442 720c-26 0 -47 22 -47 49c0 28 23 53 52 53s48 -24 48 -49c0 -29 -23 -53 -53 -53z" />
    <glyph glyph-name="G_tildecomb" unicode="&#xe000;" horiz-adv-x="623" 
d="M588 352l-61 -323c-39 -16 -110 -36 -189 -36c-96 0 -170 27 -221 84c-51 56 -68 130 -68 196c0 112 45 230 132 308c72 63 169 100 277 100c82 0 138 -19 159 -31l-28 -70c-34 18 -80 29 -141 29c-79 0 -152 -29 -209 -82c-63 -59 -101 -156 -101 -247
c0 -130 66 -216 216 -216c39 0 77 8 102 19l38 201h-136l13 68h217zM330 716h-47c10 59 41 100 82 100c27 0 42 -9 60 -21c15 -10 29 -18 44 -18c16 0 26 13 34 40h46c-11 -62 -38 -96 -83 -96c-25 0 -40 8 -59 20c-17 10 -27 19 -43 18c-16 0 -27 -16 -34 -43z" />
    <glyph glyph-name="Hcircumflex" unicode="&#x124;" horiz-adv-x="627" 
d="M159 674h83l-54 -284h310l54 284h83l-128 -674h-83l59 317h-309l-60 -317h-83zM392 828h64l80 -118h-67l-50 72h-2l-72 -72h-74z" />
    <glyph glyph-name="Ibreve" unicode="&#x12c;" horiz-adv-x="233" 
d="M158 674h83l-128 -674h-83zM107 833h53c-1 -28 14 -54 60 -54s68 24 76 54h54c-10 -57 -52 -106 -133 -106c-86 0 -117 49 -110 106z" />
    <glyph glyph-name="Idotaccent" unicode="&#x130;" horiz-adv-x="233" 
d="M158 674h83l-128 -674h-83zM217 720c-26 0 -47 22 -47 49c0 28 23 53 52 53s48 -24 48 -49c0 -29 -23 -53 -53 -53z" />
    <glyph glyph-name="Imacron" unicode="&#x12a;" horiz-adv-x="233" 
d="M158 674h83l-128 -674h-83zM107 787h231l-10 -54h-231z" />
    <glyph glyph-name="Iogonek" unicode="&#x12e;" horiz-adv-x="233" 
d="M241 674l-129 -674h-28c-30 -34 -54 -75 -54 -107c0 -24 16 -40 40 -40c14 0 30 4 43 10l9 -44c-22 -19 -53 -25 -80 -25c-51 0 -80 30 -80 77c0 53 50 110 68 133l128 670h83z" />
    <glyph glyph-name="Itilde" unicode="&#x128;" horiz-adv-x="233" 
d="M158 674h83l-128 -674h-83zM132 715h-47c10 59 41 100 82 100c27 0 42 -9 60 -20c15 -10 29 -18 44 -18c16 0 26 13 34 40h46c-11 -62 -38 -96 -83 -96c-25 0 -40 8 -59 19c-17 10 -27 19 -43 18c-16 0 -27 -16 -34 -43z" />
    <glyph glyph-name="Jcircumflex" unicode="&#x134;" horiz-adv-x="364" 
d="M210 220l86 454h83l-88 -464c-30 -157 -96 -221 -222 -221c-41 0 -83 9 -100 18l18 71c22 -10 49 -15 85 -15c71 0 115 37 138 157zM331 828h65l80 -118h-68l-49 72h-2l-72 -72h-74z" />
    <glyph glyph-name="Kcommaaccent" unicode="&#x136;" horiz-adv-x="515" 
d="M32 0l128 674h82l-62 -328l4 1c23 28 46 52 66 75l237 252h104l-284 -290l173 -384h-90l-147 331l-80 -75l-49 -256h-82zM115 -221l-10 42c41 6 87 29 87 75c0 21 -11 38 -24 49l66 14c14 -10 28 -33 28 -59c0 -79 -77 -115 -147 -121z" />
    <glyph glyph-name="Lacute" unicode="&#x139;" horiz-adv-x="442" 
d="M31 0l128 674h83l-115 -602h272l-14 -72h-354zM280 828h109l-137 -118h-73z" />
    <glyph glyph-name="Lcaron" unicode="&#x13d;" horiz-adv-x="442" 
d="M31 0l128 674h83l-115 -602h272l-14 -72h-354zM287 499l-10 41c41 7 87 29 87 75c0 21 -11 38 -24 49l66 14c14 -10 28 -33 28 -59c0 -78 -77 -114 -147 -120z" />
    <glyph glyph-name="Lcommaaccent" unicode="&#x13b;" horiz-adv-x="442" 
d="M31 0l128 674h83l-115 -602h272l-14 -72h-354zM92 -221l-10 42c41 6 87 29 87 75c0 21 -11 38 -24 49l66 14c14 -10 28 -33 28 -59c0 -79 -77 -115 -147 -121z" />
    <glyph glyph-name="Ldot" unicode="&#x13f;" horiz-adv-x="443" 
d="M31 0l128 674h83l-115 -602h272l-14 -72h-354zM336 316c-26 0 -47 21 -47 49s23 52 52 52s48 -23 48 -48c0 -29 -23 -53 -53 -53z" />
    <glyph glyph-name="M_uni0302" unicode="&#xe001;" horiz-adv-x="780" 
d="M676 0h-80l48 364c9 64 24 163 36 228h-3c-31 -68 -69 -148 -105 -217l-201 -371h-63l-50 363c-10 78 -17 156 -21 225h-3c-14 -62 -35 -164 -51 -228l-92 -364h-78l175 674h106l53 -386c7 -58 14 -119 16 -169h3c21 50 50 110 79 166l208 389h109zM468 828h65l80 -118
h-68l-49 72h-2l-72 -72h-74z" />
    <glyph glyph-name="Nacute" unicode="&#x143;" horiz-adv-x="632" 
d="M109 0h-78l128 674h91l154 -382c30 -76 45 -130 59 -188l2 1c4 61 11 117 29 211l68 358h78l-128 -674h-82l-154 381c-32 83 -47 130 -62 194l-3 -1c-7 -63 -18 -130 -35 -222zM450 828h108l-136 -118h-74z" />
    <glyph glyph-name="Ncaron" unicode="&#x147;" horiz-adv-x="632" 
d="M109 0h-78l128 674h91l154 -382c30 -76 45 -130 59 -188l2 1c4 61 11 117 29 211l68 358h78l-128 -674h-82l-154 381c-32 83 -47 130 -62 194l-3 -1c-7 -63 -18 -130 -35 -222zM439 710h-65l-79 118h69l47 -72h3l71 72h74z" />
    <glyph glyph-name="N_uni0302" unicode="&#xe002;" horiz-adv-x="632" 
d="M109 0h-78l128 674h91l154 -382c30 -76 45 -130 59 -188l2 1c4 61 11 117 29 211l68 358h78l-128 -674h-82l-154 381c-32 83 -47 130 -62 194l-3 -1c-7 -63 -18 -130 -35 -222zM394 828h65l80 -118h-68l-49 72h-2l-72 -72h-74z" />
    <glyph glyph-name="Ncommaaccent" unicode="&#x145;" horiz-adv-x="632" 
d="M109 0h-78l128 674h91l154 -382c30 -76 45 -130 59 -188l2 1c4 61 11 117 28 211l69 358h78l-128 -674h-82l-154 381c-32 83 -47 130 -62 194l-3 -1c-7 -63 -18 -130 -35 -222zM181 -221l-10 42c41 6 87 29 87 75c0 21 -11 38 -24 49l66 14c14 -10 28 -33 28 -59
c0 -79 -77 -115 -147 -121z" />
    <glyph glyph-name="Obreve" unicode="&#x14e;" horiz-adv-x="668" 
d="M303 -11c-174 0 -255 131 -255 274c0 119 46 250 128 331c58 56 141 91 226 91c182 0 255 -132 255 -276c0 -117 -43 -246 -123 -326c-59 -59 -138 -94 -231 -94zM316 59c57 0 112 25 154 67c63 64 100 185 100 279c0 96 -31 210 -179 210c-60 0 -112 -26 -154 -67
c-65 -65 -102 -184 -102 -278c0 -110 49 -211 181 -211zM321 834h53c-1 -28 14 -54 61 -54c45 0 67 24 75 54h55c-10 -57 -52 -106 -134 -106c-86 0 -117 49 -110 106z" />
    <glyph glyph-name="Ohungarumlaut" unicode="&#x150;" horiz-adv-x="668" 
d="M303 -11c-174 0 -255 131 -255 274c0 119 46 250 128 331c58 56 141 91 226 91c182 0 255 -132 255 -276c0 -117 -43 -246 -123 -326c-59 -59 -138 -94 -231 -94zM316 59c57 0 112 25 154 67c63 64 100 185 100 279c0 96 -31 210 -179 210c-60 0 -112 -26 -154 -67
c-65 -65 -102 -184 -102 -278c0 -110 49 -211 181 -211zM397 828h95l-127 -113h-64zM544 828h96l-127 -113h-65z" />
    <glyph glyph-name="Omacron" unicode="&#x14c;" horiz-adv-x="668" 
d="M303 -11c-174 0 -255 131 -255 274c0 119 46 250 128 331c58 56 141 91 226 91c182 0 255 -132 255 -276c0 -117 -43 -246 -123 -326c-59 -59 -138 -94 -231 -94zM316 59c57 0 112 25 154 67c63 64 100 185 100 279c0 96 -31 210 -179 210c-60 0 -112 -26 -154 -67
c-65 -65 -102 -184 -102 -278c0 -110 49 -211 181 -211zM321 787h231l-10 -54h-231z" />
    <glyph glyph-name="Oslashacute" unicode="&#x1fe;" horiz-adv-x="667" 
d="M64 -42l-41 39l77 88c-34 50 -52 104 -52 183c0 118 45 238 121 317c62 63 146 100 232 100c72 0 125 -19 166 -57l76 85l44 -36l-80 -91c34 -49 49 -108 49 -176c0 -118 -45 -244 -119 -322c-59 -62 -145 -99 -230 -99c-69 0 -123 19 -165 57zM159 155l358 413
c-27 29 -64 47 -125 47c-111 0 -205 -95 -241 -218c-23 -78 -26 -166 6 -242h2zM547 512l-354 -407c29 -30 66 -46 126 -46c100 0 192 85 231 207c23 73 32 165 -1 246h-2zM469 832h109l-137 -118h-73z" />
    <glyph glyph-name="Racute" unicode="&#x154;" horiz-adv-x="523" 
d="M31 0l127 664c41 10 97 15 147 15c67 0 125 -16 161 -49c31 -27 50 -65 50 -111c0 -99 -75 -172 -160 -196l-1 -2c48 -16 70 -66 75 -135c7 -94 12 -159 21 -186h-86c-4 14 -11 85 -16 163c-5 93 -39 131 -106 131h-74l-55 -294h-83zM229 606l-47 -248h74
c105 0 173 69 173 150c0 72 -54 105 -130 105c-33 0 -54 -3 -70 -7zM377 828h109l-137 -118h-74z" />
    <glyph glyph-name="Rcaron" unicode="&#x158;" horiz-adv-x="523" 
d="M31 0l127 664c41 10 97 15 147 15c67 0 125 -16 161 -49c31 -27 50 -65 50 -111c0 -99 -75 -172 -160 -196l-1 -2c48 -16 70 -66 75 -135c7 -94 12 -159 21 -186h-86c-4 14 -11 85 -16 163c-5 93 -39 131 -106 131h-74l-55 -294h-83zM229 606l-47 -248h74
c105 0 173 69 173 150c0 72 -54 105 -130 105c-33 0 -54 -3 -70 -7zM354 710h-65l-80 118h70l46 -72h4l71 72h74z" />
    <glyph glyph-name="Rcommaaccent" unicode="&#x156;" horiz-adv-x="523" 
d="M31 0l127 664c41 10 96 15 147 15c67 0 125 -16 161 -49c31 -27 50 -65 50 -111c0 -99 -75 -172 -161 -196v-2c47 -16 70 -66 75 -135c7 -94 12 -159 21 -186h-86c-4 14 -11 85 -16 163c-5 93 -39 131 -106 131h-74l-55 -294h-83zM229 606l-47 -248h74
c105 0 173 69 173 150c0 72 -54 105 -130 105c-34 0 -55 -3 -70 -7zM119 -221l-10 42c41 6 87 29 87 75c0 21 -11 38 -24 49l66 14c14 -10 28 -33 28 -59c0 -79 -77 -115 -147 -121z" />
    <glyph glyph-name="Sacute" unicode="&#x15a;" horiz-adv-x="466" 
d="M12 36l30 68c37 -25 87 -43 143 -43c76 0 146 45 146 126c0 50 -28 88 -99 126c-86 47 -134 101 -134 173c0 121 104 198 228 198c66 0 115 -19 138 -35l-30 -68c-21 13 -63 32 -117 32c-83 0 -133 -55 -133 -110s34 -86 105 -125c83 -45 128 -98 128 -181
c0 -116 -91 -208 -243 -208c-67 1 -134 22 -162 47zM366 828h109l-137 -118h-73z" />
    <glyph glyph-name="Scedilla" unicode="&#x15e;" horiz-adv-x="466" 
d="M464 649l-30 -68c-21 13 -63 32 -117 32c-83 0 -133 -55 -133 -110s34 -86 105 -125c83 -45 128 -98 128 -180c0 -99 -65 -181 -178 -203l-34 -45c32 -8 54 -32 54 -65c0 -55 -52 -86 -109 -86c-27 0 -52 8 -65 17l18 44c15 -10 34 -15 52 -15c23 0 44 13 44 36
c0 21 -23 35 -66 39l49 70h-14c-50 0 -123 18 -156 46l30 68c37 -25 87 -43 143 -43c76 0 146 45 146 126c0 51 -28 88 -99 126c-86 47 -134 101 -134 173c0 121 104 198 228 198c66 0 115 -19 138 -35z" />
    <glyph glyph-name="Scircumflex" unicode="&#x15c;" horiz-adv-x="466" 
d="M12 36l30 68c37 -25 87 -43 143 -43c76 0 146 45 146 126c0 50 -28 88 -99 126c-86 47 -134 101 -134 173c0 121 104 198 228 198c66 0 115 -19 138 -35l-30 -68c-21 13 -63 32 -117 32c-83 0 -133 -55 -133 -110s34 -86 105 -125c83 -45 128 -98 128 -181
c0 -116 -91 -208 -243 -208c-67 1 -134 22 -162 47zM312 828h64l80 -118h-67l-49 72h-2l-73 -72h-73z" />
    <glyph glyph-name="Scommaaccent" unicode="&#x218;" horiz-adv-x="466" 
d="M12 36l30 68c37 -25 87 -43 143 -43c76 0 146 45 146 126c0 50 -28 88 -99 126c-86 47 -134 101 -134 173c0 121 104 198 228 198c66 0 115 -19 138 -35l-30 -68c-21 13 -63 32 -117 32c-83 0 -133 -55 -133 -110s34 -86 105 -125c83 -45 128 -98 128 -181
c0 -116 -91 -208 -243 -208c-67 1 -134 22 -162 47zM91 -221l-11 41c41 7 87 29 87 75c0 21 -11 39 -24 49l66 14c14 -10 28 -33 28 -59c0 -78 -77 -114 -146 -120z" />
    <glyph glyph-name="Tcaron" unicode="&#x164;" horiz-adv-x="474" 
d="M148 0l114 602h-197l14 72h478l-14 -72h-198l-114 -602h-83zM357 710h-65l-80 118h69l47 -73h3l72 73h74z" />
    <glyph glyph-name="Tcommaaccent" unicode="&#x162;" horiz-adv-x="474" 
d="M148 0l114 602h-196l14 72h477l-14 -72h-198l-114 -602h-83zM90 -221l-10 42c41 6 87 29 87 75c0 21 -11 38 -24 49l66 14c14 -10 28 -33 28 -59c0 -79 -77 -115 -147 -121z" />
    <glyph glyph-name="Ubreve" unicode="&#x16c;" horiz-adv-x="621" 
d="M158 674h83l-76 -399c-5 -28 -8 -57 -8 -85c0 -86 50 -130 125 -130c92 0 159 62 188 214l77 400h83l-77 -403c-39 -201 -139 -282 -282 -282c-111 0 -197 60 -197 199c0 29 3 62 9 93zM299 830h53c-1 -28 14 -54 61 -54c45 0 67 24 75 54h54c-9 -57 -51 -106 -133 -106
c-86 0 -117 49 -110 106z" />
    <glyph glyph-name="Uhungarumlaut" unicode="&#x170;" horiz-adv-x="621" 
d="M158 674h83l-76 -399c-5 -28 -8 -57 -8 -85c0 -86 50 -130 125 -130c92 0 159 62 188 214l77 400h83l-77 -403c-39 -201 -139 -282 -282 -282c-111 0 -197 60 -197 199c0 29 3 62 9 93zM376 828h95l-127 -113h-64zM523 828h96l-127 -113h-65z" />
    <glyph glyph-name="Umacron" unicode="&#x16a;" horiz-adv-x="621" 
d="M158 674h83l-76 -399c-5 -28 -8 -57 -8 -85c0 -86 50 -130 125 -130c92 0 159 62 188 214l77 400h83l-77 -403c-39 -201 -139 -282 -282 -282c-111 0 -197 60 -197 199c0 29 3 62 9 93zM300 787h231l-10 -54h-231z" />
    <glyph glyph-name="Uogonek" unicode="&#x172;" horiz-adv-x="621" 
d="M366 -125l10 -48c-22 -13 -48 -19 -76 -19c-50 0 -80 27 -80 72c0 39 29 80 63 111c-8 0 -17 -1 -25 -1c-103 4 -184 64 -184 198c0 29 3 62 9 93l75 393h83l-76 -399c-5 -28 -8 -57 -8 -85c0 -86 50 -130 126 -130c91 0 159 62 188 214l76 400h83l-77 -403
c-26 -136 -79 -217 -158 -255c-21 -10 -45 -25 -60 -38c-28 -23 -46 -53 -46 -78c0 -22 15 -33 34 -33c16 0 31 3 43 8z" />
    <glyph glyph-name="Uring" unicode="&#x16e;" horiz-adv-x="621" 
d="M158 674h83l-76 -399c-5 -28 -8 -57 -8 -85c0 -86 50 -130 126 -130c91 0 158 62 187 214l77 400h83l-77 -403c-39 -201 -139 -282 -282 -282c-111 0 -197 60 -197 199c0 29 3 62 9 93zM410 872c55 0 94 -34 94 -87c-1 -55 -47 -90 -103 -90c-54 0 -93 34 -94 83
c-1 54 42 94 103 94zM405 836c-28 0 -47 -24 -47 -56c0 -27 18 -49 45 -49c29 0 49 23 49 54c0 29 -17 51 -47 51z" />
    <glyph glyph-name="Utilde" unicode="&#x168;" horiz-adv-x="621" 
d="M158 674h83l-76 -399c-5 -28 -8 -57 -8 -85c0 -86 50 -130 125 -130c92 0 160 62 189 214l76 400h83l-77 -403c-38 -201 -139 -282 -282 -282c-111 0 -197 60 -197 199c0 29 3 62 9 93zM329 716h-47c10 59 41 100 82 100c27 0 42 -9 60 -21c15 -10 29 -18 44 -18
c17 0 27 13 35 40h46c-11 -62 -38 -96 -83 -96c-26 0 -40 8 -60 20c-17 10 -27 19 -43 18c-16 0 -27 -16 -34 -43z" />
    <glyph glyph-name="Wacute" unicode="&#x1e82;" horiz-adv-x="829" 
d="M219 0h-89l-33 674h84l14 -404c3 -87 1 -133 0 -176h2c16 44 33 88 70 171l187 409h88l14 -388c3 -88 3 -146 2 -190h2c20 58 40 112 66 173l181 405h87l-312 -674h-88l-17 383c-4 79 -3 117 2 194h-3c-22 -64 -40 -116 -68 -177zM552 828h109l-137 -118h-74z" />
    <glyph glyph-name="Wcircumflex" unicode="&#x174;" horiz-adv-x="829" 
d="M219 0h-89l-33 674h84l14 -404c3 -87 1 -133 0 -176h2c16 44 33 88 70 171l187 409h88l14 -388c3 -88 3 -146 2 -190h2c20 58 40 112 66 173l181 405h87l-312 -674h-88l-17 383c-4 79 -3 117 2 194h-3c-22 -64 -40 -116 -68 -177zM493 828h64l80 -118h-68l-49 72h-2
l-72 -72h-74z" />
    <glyph glyph-name="Wdieresis" unicode="&#x1e84;" horiz-adv-x="829" 
d="M219 0h-89l-33 674h84l14 -404c3 -87 1 -133 0 -176h2c16 44 33 88 70 171l187 409h88l14 -388c3 -88 3 -146 2 -190h2c20 58 40 112 66 173l181 405h87l-312 -674h-88l-17 383c-4 79 -3 117 2 194h-3c-22 -64 -40 -116 -68 -177zM421 720h-2c-25 0 -46 21 -46 48
c0 29 23 53 52 53s47 -24 47 -48c0 -29 -23 -53 -51 -53zM604 720c-25 0 -46 21 -46 48c0 29 23 53 52 53s47 -24 47 -48c0 -29 -23 -53 -53 -53z" />
    <glyph glyph-name="Wgrave" unicode="&#x1e80;" horiz-adv-x="829" 
d="M219 0h-89l-33 674h84l14 -404c3 -87 1 -133 0 -176h2c16 44 33 88 70 171l187 409h88l14 -388c3 -88 3 -146 2 -190h2c20 58 40 112 66 173l181 405h87l-312 -674h-88l-17 383c-4 79 -3 117 2 194h-3c-22 -64 -40 -116 -68 -177zM365 828h104l74 -117h-67z" />
    <glyph glyph-name="Ycircumflex" unicode="&#x176;" horiz-adv-x="517" 
d="M243 0h-82l53 280l-130 394h89l65 -218c17 -60 23 -87 28 -113h2c17 28 40 66 72 116l146 215h97l-287 -393zM322 828h64l80 -118h-68l-49 72h-2l-72 -72h-74z" />
    <glyph glyph-name="Ygrave" unicode="&#x1ef2;" horiz-adv-x="517" 
d="M243 0h-82l53 280l-130 394h89l65 -218c17 -60 23 -87 28 -113h2c17 28 40 66 72 116l146 215h97l-287 -393zM207 828h103l75 -117h-68z" />
    <glyph glyph-name="uni0232" unicode="&#x232;" horiz-adv-x="517" 
d="M243 0h-82l53 280l-130 394h89l65 -218c17 -60 23 -87 28 -113h2c17 28 40 66 72 116l146 215h97l-287 -393zM248 787h231l-10 -54h-231z" />
    <glyph glyph-name="Zacute" unicode="&#x179;" horiz-adv-x="523" 
d="M-20 0l9 51l458 549l-1 3h-320l14 71h432l-11 -54l-454 -546l1 -3h354l-13 -71h-469zM408 828h109l-137 -118h-74z" />
    <glyph glyph-name="Zdotaccent" unicode="&#x17b;" horiz-adv-x="523" 
d="M-20 0l9 51l458 549l-1 3h-320l14 71h432l-11 -54l-454 -546l1 -3h354l-13 -71h-469zM358 720c-26 0 -47 22 -47 49c0 28 23 53 52 53s48 -24 48 -49c0 -29 -23 -53 -53 -53z" />
    <glyph glyph-name="AEacute" unicode="&#x1fc;" horiz-adv-x="773" 
d="M37 0h-88l448 674h380l-14 -71h-251l-23 -218h238l-13 -70h-230l-26 -244h257l-13 -71h-329l24 238h-202zM238 307h165l21 195c3 32 7 75 12 109h-4c-18 -32 -41 -71 -64 -106zM587 828h109l-137 -118h-74z" />
    <glyph glyph-name="abreve" unicode="&#x103;" horiz-adv-x="522" 
d="M427 0h-78c0 29 5 75 11 125h-2c-52 -101 -119 -136 -188 -136c-86 0 -139 68 -139 160c0 169 124 346 335 346c47 0 97 -8 131 -18l-50 -253c-16 -84 -22 -170 -20 -224zM375 276l28 146c-11 4 -29 7 -57 7c-126 0 -229 -130 -229 -265c0 -54 19 -107 83 -107
c69 0 151 90 175 219zM229 683h50c-2 -37 17 -68 56 -68c48 0 71 35 80 68h52c-13 -73 -65 -121 -134 -121c-89 0 -112 60 -104 121z" />
    <glyph glyph-name="amacron" unicode="&#x101;" horiz-adv-x="522" 
d="M427 0h-78c0 29 5 75 11 125h-2c-52 -101 -119 -136 -188 -136c-86 0 -139 68 -139 160c0 169 124 346 335 346c47 0 97 -8 131 -18l-50 -253c-16 -84 -22 -170 -20 -224zM375 276l28 146c-11 4 -29 7 -57 7c-126 0 -229 -130 -229 -265c0 -54 19 -107 83 -107
c69 0 151 90 175 219zM236 646h219l-10 -53h-219z" />
    <glyph glyph-name="aogonek" unicode="&#x105;" horiz-adv-x="522" 
d="M497 477l-49 -253c-16 -84 -22 -170 -20 -224h-20c-32 -34 -58 -76 -58 -109c0 -23 15 -38 38 -38c16 0 32 4 45 10l9 -44c-22 -19 -53 -25 -80 -25c-51 0 -80 30 -80 77c0 53 50 110 68 133c1 30 5 74 11 121h-2c-53 -101 -120 -136 -188 -136c-86 0 -139 68 -139 160
c0 169 124 346 335 346c46 0 97 -8 130 -18zM376 276l27 146c-11 4 -29 7 -57 7c-125 0 -228 -130 -228 -265c0 -54 19 -107 83 -107c70 0 151 90 175 219z" />
    <glyph glyph-name="a.superior" horiz-adv-x="350" 
d="M325 267h-59c0 18 1 41 4 63h-2c-28 -45 -70 -69 -116 -69c-57 0 -94 46 -94 115c0 108 74 215 214 215c33 0 76 -9 97 -17l-36 -206c-7 -37 -8 -75 -8 -101zM280 422l20 112c-12 5 -26 7 -45 7c-71 0 -131 -68 -131 -155c0 -37 14 -73 55 -73c44 0 90 50 101 109z" />
    <glyph glyph-name="cacute" unicode="&#x107;" horiz-adv-x="423" 
d="M353 85l8 -65c-25 -13 -75 -30 -140 -30c-125 0 -186 84 -186 187c0 165 122 317 296 317c45 0 86 -13 101 -22l-24 -65c-19 9 -46 18 -82 18c-126 0 -205 -124 -205 -238c0 -78 41 -129 120 -129c50 0 87 15 112 27zM345 686h100l-134 -143h-65z" />
    <glyph glyph-name="ccaron" unicode="&#x10d;" horiz-adv-x="423" 
d="M353 85l8 -65c-25 -13 -75 -30 -140 -30c-125 0 -186 84 -186 187c0 165 122 317 296 317c45 0 86 -13 101 -22l-24 -65c-19 9 -46 18 -82 18c-126 0 -205 -124 -205 -238c0 -78 41 -129 120 -129c50 0 87 15 112 27zM331 543h-60l-70 143h63l43 -92h2l72 92h67z" />
    <glyph glyph-name="ccircumflex" unicode="&#x109;" horiz-adv-x="423" 
d="M353 85l8 -65c-25 -13 -75 -30 -140 -30c-125 0 -186 84 -186 187c0 165 122 317 296 317c45 0 86 -13 101 -22l-24 -65c-19 9 -46 18 -82 18c-126 0 -205 -124 -205 -238c0 -78 41 -129 120 -129c50 0 87 15 112 27zM286 686h59l69 -143h-62l-43 91h-2l-70 -91h-67z" />
    <glyph glyph-name="cdotaccent" unicode="&#x10b;" horiz-adv-x="423" 
d="M353 85l8 -65c-25 -13 -75 -30 -140 -30c-125 0 -186 84 -186 187c0 165 122 317 296 317c45 0 86 -13 100 -22l-23 -65c-20 9 -46 18 -82 18c-126 0 -205 -124 -205 -238c0 -78 41 -129 120 -129c50 0 87 15 112 27zM318 569c-26 0 -46 21 -46 49c0 31 23 54 52 54
s47 -22 47 -49c0 -31 -21 -54 -53 -54z" />
    <glyph glyph-name="dcaron" unicode="&#x10f;" horiz-adv-x="534" 
d="M460 710h83l-107 -556c-9 -51 -17 -107 -20 -154h-76l13 96h-2c-44 -69 -105 -107 -174 -107c-94 0 -145 77 -145 176c0 172 128 330 299 330c31 0 65 -7 86 -17zM371 239l32 169c-16 12 -44 21 -79 21c-116 0 -206 -124 -206 -253c0 -58 20 -119 91 -119
c64 0 141 73 162 182zM570 529l-25 37c29 16 57 45 57 88c0 20 -9 38 -20 49l63 14c13 -10 26 -36 26 -61c0 -67 -54 -111 -101 -127z" />
    <glyph glyph-name="ebreve" unicode="&#x115;" horiz-adv-x="453" 
d="M365 89l12 -62c-36 -20 -95 -38 -160 -38c-128 0 -184 88 -184 195c0 146 108 311 264 311c92 0 142 -55 142 -125c0 -127 -143 -160 -322 -157c-4 -21 -1 -66 10 -92c19 -44 58 -65 108 -65c57 0 100 17 130 33zM359 369c0 39 -30 61 -74 61c-79 0 -138 -77 -159 -153
c131 -2 233 16 233 92zM194 683h50c-2 -37 16 -68 55 -68c48 0 71 35 80 68h52c-13 -73 -64 -121 -133 -121c-89 0 -113 60 -104 121z" />
    <glyph glyph-name="ecaron" unicode="&#x11b;" horiz-adv-x="453" 
d="M365 89l12 -62c-36 -20 -95 -38 -160 -38c-128 0 -184 88 -184 195c0 146 108 311 264 311c92 0 142 -55 142 -125c0 -127 -143 -160 -322 -157c-4 -21 -1 -66 10 -92c19 -44 58 -65 108 -65c57 0 100 17 130 33zM359 369c0 39 -30 61 -74 61c-79 0 -138 -77 -159 -153
c131 -2 233 16 233 92zM319 543h-60l-69 143h62l43 -92h2l72 92h66z" />
    <glyph glyph-name="edotaccent" unicode="&#x117;" horiz-adv-x="453" 
d="M365 89l12 -62c-36 -20 -95 -38 -160 -38c-128 0 -184 88 -184 195c0 146 108 311 264 311c92 0 142 -55 142 -125c0 -127 -143 -160 -322 -157c-4 -21 -1 -66 10 -92c19 -44 58 -65 108 -65c57 0 100 17 130 33zM359 369c0 39 -30 61 -74 61c-79 0 -138 -77 -159 -153
c131 -2 233 16 233 92zM307 569c-26 0 -46 21 -46 49c0 31 23 54 52 54s47 -22 47 -49c0 -31 -21 -54 -53 -54z" />
    <glyph glyph-name="emacron" unicode="&#x113;" horiz-adv-x="453" 
d="M365 89l12 -62c-36 -20 -95 -38 -160 -38c-128 0 -184 88 -184 195c0 146 108 311 264 311c92 0 142 -55 142 -125c0 -127 -143 -160 -322 -157c-4 -21 -1 -66 10 -92c19 -44 58 -65 108 -65c57 0 100 17 130 33zM359 369c0 39 -30 61 -74 61c-79 0 -138 -77 -159 -153
c131 -2 233 16 233 92zM197 646h219l-10 -53h-219z" />
    <glyph glyph-name="eogonek" unicode="&#x119;" horiz-adv-x="453" 
d="M359 369c0 39 -30 61 -74 61c-79 0 -138 -77 -158 -153c130 -2 232 16 232 92zM313 -130l10 -46c-26 -15 -54 -21 -81 -21c-49 0 -75 29 -75 72c0 45 34 88 72 115v1c-9 -1 -19 -1 -29 -1c-124 3 -177 89 -177 194c0 146 108 311 264 311c92 0 142 -55 142 -125
c0 -127 -143 -160 -322 -157c-4 -21 -1 -66 10 -92c20 -44 58 -65 107 -65c58 0 101 17 131 33l12 -61c-8 -5 -18 -9 -36 -17c-49 -27 -105 -69 -105 -114c0 -22 12 -36 32 -36c16 0 31 3 45 9z" />
    <glyph glyph-name="gbreve" unicode="&#x11f;" horiz-adv-x="524" 
d="M10 -175l23 65c29 -19 78 -32 128 -32c82 0 146 41 174 172l16 73h-2c-43 -69 -102 -103 -168 -103c-98 0 -148 82 -148 168c0 164 120 327 307 327c56 0 118 -16 156 -34l-75 -400c-19 -103 -47 -173 -97 -217c-49 -41 -114 -53 -169 -53c-59 0 -115 14 -145 34z
M374 250l31 162c-16 7 -46 16 -80 16c-121 0 -205 -127 -205 -246c-1 -54 19 -116 93 -116c71 0 143 90 161 184zM230 683h51c-2 -37 16 -68 55 -68c48 0 71 35 79 68h52c-12 -73 -64 -121 -133 -121c-89 0 -112 60 -104 121z" />
    <glyph glyph-name="gcircumflex" unicode="&#x11d;" horiz-adv-x="524" 
d="M10 -175l23 65c29 -19 78 -32 128 -32c82 0 146 41 174 172l16 73h-2c-43 -69 -102 -103 -168 -103c-98 0 -148 82 -148 168c0 164 120 327 307 327c56 0 118 -16 156 -34l-75 -400c-19 -103 -47 -173 -97 -217c-49 -41 -114 -53 -169 -53c-59 0 -115 14 -145 34z
M374 250l31 162c-16 7 -46 16 -80 16c-121 0 -205 -127 -205 -246c-1 -54 19 -116 93 -116c71 0 143 90 161 184zM316 686h60l69 -143h-63l-42 91h-2l-70 -91h-67z" />
    <glyph glyph-name="gcommaaccent" unicode="&#x123;" horiz-adv-x="524" 
d="M10 -175l23 65c29 -19 78 -32 128 -32c82 0 146 41 174 172l16 73h-3c-42 -69 -100 -103 -167 -103c-98 0 -148 82 -148 168c0 164 120 327 307 327c56 0 117 -16 155 -34l-74 -400c-19 -103 -47 -173 -97 -217c-48 -41 -114 -53 -169 -53c-59 0 -115 14 -145 34z
M373 250l31 162c-15 7 -45 16 -79 16c-121 0 -205 -127 -205 -246c-1 -54 19 -116 93 -116c71 0 142 90 160 184zM426 710l10 -42c-42 -6 -88 -28 -88 -75c0 -21 11 -38 24 -49l-63 -14c-14 11 -28 33 -28 60c0 78 77 114 145 120z" />
    <glyph glyph-name="gdotaccent" unicode="&#x121;" horiz-adv-x="524" 
d="M10 -175l23 65c29 -19 78 -32 128 -32c82 0 146 41 174 172l16 73h-2c-42 -69 -101 -103 -168 -103c-98 0 -148 82 -148 168c0 164 120 327 307 327c56 0 117 -16 155 -34l-74 -400c-19 -103 -47 -173 -97 -217c-48 -41 -114 -53 -169 -53c-59 0 -115 14 -145 34z
M374 250l30 162c-15 7 -45 16 -79 16c-121 0 -205 -127 -205 -246c-1 -54 19 -116 93 -116c71 0 143 90 161 184zM336 569c-26 0 -46 21 -46 49c0 31 23 54 52 54s47 -22 47 -49c0 -31 -21 -54 -53 -54z" />
    <glyph glyph-name="g_tildecomb" unicode="&#xe005;" horiz-adv-x="524" 
d="M10 -175l23 65c29 -19 78 -32 128 -32c82 0 145 41 174 172l16 73h-2c-43 -69 -102 -103 -168 -103c-98 0 -148 82 -148 168c0 164 120 327 307 327c56 0 117 -16 155 -34l-74 -400c-19 -103 -47 -173 -97 -217c-49 -41 -114 -53 -169 -53c-59 0 -115 14 -145 34z
M374 250l31 162c-16 7 -46 16 -80 16c-121 0 -205 -127 -205 -246c-1 -54 19 -116 92 -116c72 0 144 90 162 184zM257 568h-48c7 58 34 100 77 100c26 0 40 -10 61 -22c15 -9 27 -17 40 -17c17 0 24 9 30 42h47c-8 -62 -30 -96 -77 -96c-23 0 -43 10 -59 20
c-14 9 -27 18 -42 18c-17 0 -24 -19 -29 -45z" />
    <glyph glyph-name="hcircumflex" unicode="&#x125;" horiz-adv-x="534" 
d="M111 0h-83l135 710h83l-60 -311h2c41 59 100 96 173 96c55 0 120 -33 120 -130c0 -25 -3 -57 -8 -81l-54 -284h-83l54 280c3 17 6 40 6 67c0 44 -21 79 -75 79c-64 0 -145 -75 -165 -183zM194 853h64l80 -118h-68l-49 72h-2l-72 -72h-74z" />
    <glyph glyph-name="ibreve" unicode="&#x12d;" horiz-adv-x="229" 
d="M111 0h-83l92 484h83zM82 683h50c-2 -37 16 -68 55 -68c48 0 71 35 80 68h52c-12 -73 -64 -121 -133 -121c-89 0 -113 60 -104 121z" />
    <glyph glyph-name="imacron" unicode="&#x12b;" horiz-adv-x="229" 
d="M112 0h-83l92 484h83zM86 646h219l-10 -53h-219z" />
    <glyph glyph-name="iogonek" unicode="&#x12f;" horiz-adv-x="229" 
d="M183 571c-29 0 -49 23 -49 54c1 33 26 59 57 59s52 -23 52 -54c-1 -35 -26 -59 -60 -59zM204 484l-93 -484h-28c-30 -34 -54 -75 -54 -107c0 -24 16 -40 40 -40c14 0 30 4 43 10l9 -44c-22 -19 -53 -25 -80 -25c-51 0 -80 30 -80 77c0 53 50 110 68 133l92 480h83z" />
    <glyph glyph-name="itilde" unicode="&#x129;" horiz-adv-x="229" 
d="M112 0h-83l92 484h83zM110 568h-48c7 58 34 100 77 100c26 0 40 -10 61 -22c15 -9 27 -17 40 -17c17 0 24 9 30 42h47c-8 -62 -30 -96 -77 -96c-23 0 -43 10 -59 20c-14 9 -27 18 -42 18c-17 0 -24 -19 -29 -45z" />
    <glyph glyph-name="jcircumflex" unicode="&#x135;" horiz-adv-x="227" 
d="M126 484h82l-91 -483c-15 -80 -33 -131 -62 -163c-28 -32 -69 -47 -111 -47c-21 0 -39 1 -55 6l10 65c9 -3 22 -4 38 -4c42 0 75 26 94 126zM166 686h58l69 -143h-62l-42 94h-2l-70 -94h-67z" />
    <glyph glyph-name="kcommaaccent" unicode="&#x137;" horiz-adv-x="456" 
d="M111 0h-82l134 710h83l-85 -445h2c15 17 32 36 45 49l170 170h103l-211 -199l144 -285h-91l-116 239l-61 -55zM85 -221l-10 42c41 6 87 29 87 75c0 21 -11 38 -24 49l66 14c14 -10 28 -33 28 -59c0 -79 -77 -115 -147 -121z" />
    <glyph glyph-name="lacute" unicode="&#x13a;" horiz-adv-x="229" 
d="M112 0h-83l135 710h83zM261 860h109l-137 -118h-73z" />
    <glyph glyph-name="lcaron" unicode="&#x13e;" horiz-adv-x="236" 
d="M111 0h-83l136 710h83zM276 529l-26 36c26 15 56 44 56 89c0 20 -9 38 -20 49l63 14c13 -10 26 -36 26 -61c0 -72 -56 -114 -99 -127z" />
    <glyph glyph-name="lcommaaccent" unicode="&#x13c;" horiz-adv-x="229" 
d="M112 0h-83l135 710h83zM-30 -221l-10 42c41 6 87 29 87 75c0 21 -11 38 -24 49l66 14c14 -10 28 -33 28 -59c0 -79 -77 -115 -147 -121z" />
    <glyph glyph-name="ldot" unicode="&#x140;" horiz-adv-x="265" 
d="M111 0h-82l135 710h83zM268 314c-26 0 -45 20 -45 48c0 30 23 53 50 53c28 0 46 -22 46 -48c0 -30 -20 -53 -51 -53z" />
    <glyph glyph-name="m_uni0302" unicode="&#xe006;" horiz-adv-x="808" 
d="M110 0h-81l64 343c10 54 17 101 22 141h73l-12 -91h2c45 68 106 102 170 102c74 0 109 -47 113 -108c43 70 105 107 177 108c56 0 118 -36 118 -127c0 -22 -3 -55 -8 -82l-54 -286h-81l52 279c4 19 7 43 7 63c0 51 -19 84 -73 84c-60 0 -132 -70 -152 -178l-46 -248h-80
l54 284c4 22 6 40 6 59c0 41 -11 83 -72 83c-60 0 -136 -80 -155 -183zM457 686h59l69 -143h-62l-43 91h-2l-70 -91h-67z" />
    <glyph glyph-name="nacute" unicode="&#x144;" horiz-adv-x="534" 
d="M111 0h-82l64 343c11 54 18 101 23 141h74l-12 -95h2c43 68 109 106 179 106c58 0 123 -33 123 -134c0 -22 -4 -52 -9 -78l-54 -283h-82l53 280c3 19 6 41 6 62c0 48 -19 84 -76 84c-59 0 -143 -71 -165 -191zM381 686h100l-134 -143h-65z" />
    <glyph glyph-name="ncaron" unicode="&#x148;" horiz-adv-x="534" 
d="M111 0h-82l64 343c11 54 18 101 23 141h74l-12 -95h2c43 68 109 106 179 106c58 0 123 -33 123 -134c0 -22 -4 -52 -9 -78l-54 -283h-82l53 280c3 19 6 41 6 62c0 48 -19 84 -76 84c-59 0 -143 -71 -165 -191zM342 543h-60l-70 143h63l43 -92h2l72 92h67z" />
    <glyph glyph-name="n_uni0302" unicode="&#xe007;" horiz-adv-x="534" 
d="M111 0h-82l64 343c11 54 18 101 23 141h74l-12 -95h2c43 68 109 106 179 106c58 0 123 -33 123 -134c0 -22 -4 -52 -9 -78l-54 -283h-82l53 280c3 19 6 41 6 62c0 48 -19 84 -76 84c-59 0 -143 -71 -165 -191zM320 686h59l69 -143h-62l-43 91h-2l-70 -91h-67z" />
    <glyph glyph-name="ncommaaccent" unicode="&#x146;" horiz-adv-x="534" 
d="M111 0h-82l64 343c11 54 18 101 23 141h74l-12 -95h2c43 68 109 106 179 106c58 0 123 -33 123 -134c0 -22 -4 -52 -9 -78l-54 -283h-82l53 280c3 19 6 41 6 62c0 48 -19 84 -76 84c-59 0 -143 -71 -165 -191zM125 -221l-10 42c41 6 87 29 87 75c0 21 -11 38 -24 49
l66 14c14 -10 28 -33 28 -59c0 -79 -77 -115 -147 -121z" />
    <glyph glyph-name="obreve" unicode="&#x14f;" horiz-adv-x="522" 
d="M224 -11c-121 0 -189 90 -189 199c0 160 111 307 268 307c131 0 190 -99 190 -201c0 -150 -106 -305 -269 -305zM235 55c98 0 172 126 172 239c0 56 -26 135 -113 135c-104 0 -173 -127 -173 -238c0 -79 44 -136 114 -136zM225 683h50c-2 -37 17 -68 56 -68
c47 0 71 35 79 68h52c-12 -73 -64 -121 -133 -121c-89 0 -112 60 -104 121z" />
    <glyph glyph-name="ohungarumlaut" unicode="&#x151;" horiz-adv-x="522" 
d="M224 -11c-121 0 -189 90 -189 199c0 160 111 307 268 307c131 0 190 -99 190 -201c0 -150 -106 -305 -269 -305zM235 55c98 0 172 126 172 239c0 56 -26 135 -113 135c-104 0 -173 -127 -173 -238c0 -79 44 -136 114 -136zM290 686h87l-125 -143h-56zM435 686h87
l-125 -143h-56z" />
    <glyph glyph-name="omacron" unicode="&#x14d;" horiz-adv-x="522" 
d="M224 -11c-121 0 -189 90 -189 199c0 160 111 307 268 307c131 0 190 -99 190 -201c0 -150 -106 -305 -269 -305zM235 55c98 0 172 126 172 239c0 56 -26 135 -113 135c-104 0 -173 -127 -173 -238c0 -79 44 -136 114 -136zM233 646h219l-10 -53h-219z" />
    <glyph glyph-name="oslashacute" unicode="&#x1ff;" horiz-adv-x="523" 
d="M52 -38l-30 30l56 65c-31 38 -43 85 -43 137c0 155 112 301 266 301c51 0 89 -14 116 -35l55 60l33 -28l-55 -63c31 -41 43 -91 43 -133c0 -169 -121 -307 -261 -307c-56 0 -94 14 -123 39zM139 125l230 277c-17 18 -42 29 -77 29c-106 0 -172 -129 -172 -227
c0 -33 4 -56 17 -79h2zM390 359l-232 -275c19 -20 46 -31 81 -31c88 0 168 115 169 228c0 29 -5 54 -15 78h-3zM367 686h99l-133 -143h-65z" />
    <glyph glyph-name="racute" unicode="&#x155;" horiz-adv-x="318" 
d="M111 0h-82l59 312c11 63 19 127 24 172h73c-4 -34 -8 -68 -13 -105h3c31 66 83 116 148 116c8 0 17 -1 24 -2l-16 -82c-6 1 -14 2 -23 2c-72 0 -136 -87 -157 -200zM279 686h100l-133 -143h-66z" />
    <glyph glyph-name="rcaron" unicode="&#x159;" horiz-adv-x="318" 
d="M111 0h-82l59 312c11 63 19 127 24 172h73c-4 -34 -8 -68 -13 -105h3c31 66 83 116 148 116c8 0 17 -1 24 -2l-16 -82c-6 1 -14 2 -23 2c-72 0 -136 -87 -157 -200zM258 543h-59l-70 143h62l43 -92h3l71 92h67z" />
    <glyph glyph-name="rcommaaccent" unicode="&#x157;" horiz-adv-x="318" 
d="M111 0h-82l59 312c11 63 19 127 24 172h73c-4 -34 -8 -68 -13 -105h3c31 66 83 116 148 116c8 0 17 -1 24 -2l-16 -82c-6 1 -14 2 -23 2c-72 0 -136 -87 -157 -200zM1 -221l-10 42c41 6 87 29 87 75c0 21 -11 38 -24 49l66 14c14 -10 28 -33 28 -59
c0 -79 -77 -115 -147 -121z" />
    <glyph glyph-name="sacute" unicode="&#x15b;" horiz-adv-x="373" 
d="M9 23l24 61c23 -14 64 -30 104 -30c56 0 92 36 92 79c0 38 -17 61 -68 89c-56 31 -87 74 -87 124c0 84 73 149 175 149c44 0 83 -12 101 -24l-23 -63c-17 10 -48 22 -84 22c-50 0 -86 -31 -86 -73c0 -35 23 -57 67 -81c54 -30 90 -73 90 -127c0 -102 -82 -159 -184 -159
c-52 1 -99 16 -121 33zM290 686h99l-132 -143h-66z" />
    <glyph glyph-name="scedilla" unicode="&#x15f;" horiz-adv-x="373" 
d="M350 471l-23 -63c-17 10 -48 22 -84 22c-50 0 -86 -31 -86 -73c0 -35 23 -57 67 -81c54 -30 90 -73 90 -127c0 -82 -54 -136 -129 -153l-34 -46c32 -7 54 -32 54 -64c0 -55 -52 -86 -109 -86c-27 0 -52 8 -65 17l18 42c15 -9 34 -14 52 -14c23 0 44 13 44 36
c0 22 -23 35 -65 39l49 70h-4c-45 0 -94 16 -116 33l24 61c23 -14 64 -30 104 -30c56 0 92 36 92 79c0 38 -17 61 -68 89c-56 31 -87 74 -87 124c0 84 73 149 175 149c44 0 83 -12 101 -24z" />
    <glyph glyph-name="scircumflex" unicode="&#x15d;" horiz-adv-x="373" 
d="M9 23l24 61c23 -14 64 -30 104 -30c56 0 92 36 92 79c0 38 -17 61 -68 89c-56 31 -87 74 -87 124c0 84 73 149 175 149c44 0 83 -12 101 -24l-23 -63c-17 10 -48 22 -84 22c-50 0 -86 -31 -86 -73c0 -35 23 -57 67 -81c54 -30 90 -73 90 -127c0 -102 -82 -159 -184 -159
c-52 1 -99 16 -121 33zM238 686h59l69 -143h-62l-43 91h-2l-69 -91h-68z" />
    <glyph glyph-name="scommaaccent" unicode="&#x219;" horiz-adv-x="373" 
d="M9 23l24 61c23 -14 64 -30 104 -30c56 0 92 36 92 79c0 38 -17 61 -68 89c-56 31 -87 74 -87 124c0 84 73 149 175 149c44 0 83 -12 101 -24l-23 -63c-17 10 -48 22 -84 22c-50 0 -86 -31 -86 -73c0 -35 23 -57 67 -81c54 -30 90 -73 90 -127c0 -102 -82 -159 -184 -159
c-52 1 -99 16 -121 33zM44 -220l-11 41c41 7 87 29 87 75c0 21 -11 39 -24 49l66 14c14 -10 28 -33 28 -59c0 -78 -77 -114 -146 -120z" />
    <glyph glyph-name="tcaron" unicode="&#x165;" horiz-adv-x="313" 
d="M155 573l87 27l-22 -116h116l-13 -65h-116l-44 -235c-6 -27 -10 -52 -10 -77c0 -29 14 -47 46 -47c15 0 28 1 39 4l-4 -65c-15 -6 -40 -9 -64 -9c-73 0 -102 44 -102 94c0 28 4 55 11 90l47 245h-69l12 65h69zM317 542l-18 40c26 10 51 33 51 71c0 20 -10 40 -22 52
l62 13c15 -10 29 -36 29 -62c0 -70 -60 -106 -102 -114z" />
    <glyph glyph-name="tcommaaccent" unicode="&#x163;" horiz-adv-x="313" 
d="M155 574l87 26l-22 -116h116l-13 -65h-116l-44 -235c-6 -27 -10 -52 -10 -77c0 -29 14 -47 46 -47c15 0 28 1 39 4l-4 -65c-15 -6 -40 -9 -64 -9c-73 0 -102 44 -102 94c0 28 4 55 11 90l47 245h-69l12 65h69zM21 -220l-10 41c41 7 87 29 87 75c0 21 -11 39 -24 49l66 14
c14 -10 28 -33 28 -59c0 -78 -77 -114 -147 -120z" />
    <glyph glyph-name="ubreve" unicode="&#x16d;" horiz-adv-x="526" 
d="M417 484h83l-65 -343c-11 -54 -17 -101 -22 -141h-74l12 91h-2c-43 -63 -106 -102 -170 -102c-62 0 -128 30 -128 140c0 23 3 50 9 82l53 273h82l-51 -270c-5 -27 -8 -50 -8 -71c0 -50 20 -84 77 -84c60 0 137 71 157 177zM215 683h50c-2 -37 16 -68 55 -68
c48 0 71 35 79 68h52c-12 -73 -64 -121 -132 -121c-89 0 -112 60 -104 121z" />
    <glyph glyph-name="uhungarumlaut" unicode="&#x171;" horiz-adv-x="526" 
d="M417 484h83l-65 -343c-11 -54 -17 -101 -22 -141h-74l12 91h-2c-43 -63 -106 -102 -170 -102c-62 0 -128 30 -128 140c0 23 3 50 9 82l53 273h82l-51 -270c-5 -27 -8 -50 -8 -71c0 -50 20 -84 77 -84c60 0 137 71 157 177zM295 686h87l-125 -143h-55zM439 686h88
l-125 -143h-56z" />
    <glyph glyph-name="umacron" unicode="&#x16b;" horiz-adv-x="526" 
d="M417 484h83l-65 -343c-11 -54 -17 -101 -22 -141h-74l12 91h-2c-43 -63 -106 -102 -170 -102c-62 0 -128 30 -128 140c0 23 3 50 9 82l53 273h82l-51 -270c-5 -27 -8 -50 -8 -71c0 -50 20 -84 77 -84c60 0 137 71 157 177zM227 646h218l-10 -53h-218z" />
    <glyph glyph-name="uogonek" unicode="&#x173;" horiz-adv-x="526" 
d="M500 484l-65 -343c-10 -54 -17 -101 -22 -141l-19 4c-30 -34 -54 -75 -54 -107c0 -24 16 -40 40 -40c14 0 30 4 43 10l9 -44c-22 -19 -53 -25 -80 -25c-51 0 -80 30 -80 77c0 53 50 110 68 133l11 83h-2c-43 -63 -106 -102 -170 -102c-62 0 -128 30 -128 140
c0 23 3 50 9 82l53 273h82l-51 -270c-5 -27 -8 -50 -8 -71c0 -50 20 -84 77 -84c60 0 137 71 157 177l47 248h83z" />
    <glyph glyph-name="uring" unicode="&#x16f;" horiz-adv-x="526" 
d="M417 484h83l-65 -343c-11 -54 -17 -101 -22 -141h-74l12 91h-2c-43 -63 -106 -102 -170 -102c-62 0 -128 30 -128 140c0 23 3 50 9 82l53 273h82l-51 -270c-5 -27 -8 -50 -8 -71c0 -50 20 -84 77 -84c60 0 137 71 157 177zM343 721c53 0 95 -35 95 -92
c-1 -58 -50 -95 -103 -95c-54 0 -95 36 -96 88c-1 58 44 99 104 99zM339 683c-29 0 -50 -25 -50 -58c0 -28 19 -53 47 -53c31 0 52 25 52 59c0 29 -18 52 -49 52z" />
    <glyph glyph-name="utilde" unicode="&#x169;" horiz-adv-x="526" 
d="M417 484h83l-65 -343c-11 -54 -17 -101 -22 -141h-74l12 91h-2c-43 -63 -106 -102 -170 -102c-62 0 -128 30 -128 140c0 23 3 50 9 82l53 273h82l-51 -270c-5 -27 -8 -50 -8 -71c0 -50 20 -84 77 -84c60 0 137 71 157 177zM259 568h-48c7 58 34 100 77 100
c26 0 40 -10 61 -22c15 -9 27 -17 40 -17c17 0 24 9 30 42h47c-8 -62 -30 -96 -77 -96c-23 0 -43 10 -59 20c-14 9 -27 18 -42 18c-17 0 -24 -19 -29 -45z" />
    <glyph glyph-name="wacute" unicode="&#x1e83;" horiz-adv-x="707" 
d="M61 484h82l17 -272c4 -60 3 -91 2 -130h3c11 31 29 73 53 121l143 281h73l30 -276c5 -53 8 -94 8 -126h2c13 39 26 76 46 123l131 279h84l-239 -484h-77l-32 263c-5 45 -7 86 -7 129h-2c-20 -47 -34 -84 -56 -126l-139 -266h-77zM457 686h100l-133 -143h-65z" />
    <glyph glyph-name="wcircumflex" unicode="&#x175;" horiz-adv-x="707" 
d="M61 484h82l17 -272c4 -60 3 -91 2 -130h2c12 31 30 73 54 121l144 281h72l31 -276c4 -53 8 -94 7 -126h3c12 39 26 76 45 123l131 279h84l-239 -484h-77l-32 263c-5 45 -7 86 -7 129h-2c-20 -47 -34 -84 -56 -126l-139 -266h-77zM404 686h60l68 -143h-62l-42 91h-2
l-70 -91h-68z" />
    <glyph glyph-name="wdieresis" unicode="&#x1e85;" horiz-adv-x="707" 
d="M61 484h82l17 -272c4 -60 3 -91 2 -130h2c12 31 29 73 53 121l144 281h73l31 -276c5 -53 8 -94 7 -126h3c13 39 26 76 45 123l131 279h85l-239 -484h-78l-32 263c-5 45 -7 86 -7 129h-2c-20 -47 -34 -84 -56 -126l-139 -266h-77zM328 570c-27 0 -47 21 -47 49
c0 30 23 53 52 53s48 -22 48 -49c0 -29 -22 -53 -53 -53zM511 570c-27 0 -46 21 -46 49c0 30 23 53 52 53s47 -22 47 -49c0 -29 -21 -53 -53 -53z" />
    <glyph glyph-name="wgrave" unicode="&#x1e81;" horiz-adv-x="707" 
d="M61 484h82l17 -272c4 -60 3 -91 2 -130h3c11 31 29 73 53 121l143 281h73l30 -276c5 -53 8 -94 8 -126h2c13 39 26 76 46 123l131 279h84l-239 -484h-77l-32 263c-5 45 -7 86 -7 129h-2c-20 -47 -34 -84 -56 -126l-139 -266h-77zM292 686h93l67 -143h-60z" />
    <glyph glyph-name="ycircumflex" unicode="&#x177;" horiz-adv-x="441" 
d="M48 484h86l48 -260c11 -56 17 -92 22 -128h2c13 31 27 65 52 119l124 269h88l-182 -368c-52 -104 -101 -189 -167 -254c-54 -55 -113 -78 -140 -84l-21 72c21 7 56 20 89 46c33 25 68 64 94 112c4 8 4 13 2 22zM264 686h60l68 -143h-62l-42 91h-2l-70 -91h-68z" />
    <glyph glyph-name="ygrave" unicode="&#x1ef3;" horiz-adv-x="441" 
d="M48 484h86l48 -260c11 -56 17 -92 22 -128h2c13 31 27 65 52 119l124 269h88l-182 -368c-52 -104 -101 -189 -167 -254c-54 -55 -113 -78 -140 -84l-21 72c21 7 56 20 89 46c33 25 68 64 94 112c4 8 4 13 2 22zM143 686h94l66 -143h-59z" />
    <glyph glyph-name="uni0233" unicode="&#x233;" horiz-adv-x="441" 
d="M48 484h86l48 -260c11 -56 17 -92 22 -128h2c13 31 27 65 52 119l124 269h88l-182 -368c-52 -104 -101 -189 -167 -254c-54 -55 -113 -78 -140 -84l-21 72c21 7 56 20 89 46c33 25 68 64 94 112c4 8 4 13 2 22zM191 646h219l-10 -53h-219z" />
    <glyph glyph-name="zacute" unicode="&#x17a;" horiz-adv-x="415" 
d="M-21 0l9 51l235 262c41 45 68 70 101 100v3h-248l14 68h347l-11 -55l-231 -258c-44 -47 -70 -72 -100 -100l-1 -3h269l-14 -68h-370zM319 686h100l-133 -143h-66z" />
    <glyph glyph-name="zdotaccent" unicode="&#x17c;" horiz-adv-x="415" 
d="M-21 0l9 51l235 262c41 45 68 70 101 100v3h-248l14 68h347l-11 -55l-231 -258c-43 -47 -69 -72 -100 -100v-3h267l-13 -68h-370zM277 569c-26 0 -46 21 -46 49c0 31 23 54 52 54s47 -22 47 -49c0 -31 -21 -54 -53 -54z" />
    <glyph glyph-name="aeacute" unicode="&#x1fd;" horiz-adv-x="718" 
d="M630 89l11 -60c-36 -22 -91 -40 -159 -40c-77 0 -137 39 -158 107h-2c-39 -67 -106 -107 -183 -107c-86 0 -132 56 -133 124c0 129 136 196 315 189l3 19c8 46 -10 111 -92 111c-49 0 -89 -15 -126 -40l-17 56c50 33 106 47 153 47c78 0 127 -37 138 -102h3
c41 68 113 102 183 102c94 0 139 -58 139 -116c0 -135 -150 -152 -321 -146c-7 -39 -9 -77 5 -112c18 -43 59 -65 110 -65c65 0 100 17 131 33zM301 189l10 54c-85 4 -221 -15 -221 -119c0 -43 28 -69 71 -69c60 0 123 45 140 134zM623 373c0 30 -25 58 -71 58
c-85 0 -141 -81 -157 -137c120 -4 228 1 228 79zM469 686h99l-133 -143h-65z" />
    <glyph glyph-name="space_uni0326" unicode="&#xf6c3;" 
d="M49 -221l-10 41c41 7 87 29 87 75c0 21 -11 38 -24 49l66 14c14 -10 28 -33 28 -59c0 -78 -77 -114 -147 -120z" />
    <glyph glyph-name="acute.cap" unicode="&#xf6c9;" 
d="M334 828h109l-137 -118h-74z" />
    <glyph glyph-name="breve.cap" unicode="&#xefee;" 
d="M182 835h52c0 -28 15 -54 61 -54s68 24 76 54h54c-10 -57 -52 -106 -133 -106c-87 0 -117 49 -110 106z" />
    <glyph glyph-name="caron.cap" unicode="&#xf6ca;" 
d="M317 710h-65l-80 118h69l47 -72h3l72 72h74z" />
    <glyph glyph-name="cedilla.cap" unicode="&#xeff2;" 
d="M133 2h53l-39 -53c33 -8 54 -32 54 -64c0 -58 -55 -86 -108 -86c-28 0 -53 8 -66 18l18 42c14 -9 32 -14 50 -14c23 0 44 11 44 35c0 21 -21 35 -65 39z" />
    <glyph glyph-name="circumflex.cap" unicode="&#xeff7;" 
d="M269 828h65l80 -118h-68l-49 72h-2l-72 -72h-74z" />
    <glyph glyph-name="space_uni0326.cap" unicode="&#xf634;" 
d="M49 -221l-10 41c41 7 87 29 87 75c0 21 -11 38 -24 49l66 14c14 -10 28 -33 28 -59c0 -78 -77 -114 -147 -120z" />
    <glyph glyph-name="dieresis.cap" unicode="&#xf6cb;" 
d="M198 720c-25 0 -46 21 -46 48c0 29 23 53 52 53s47 -24 47 -48c0 -29 -23 -53 -53 -53zM382 720c-25 0 -46 21 -46 48c0 29 23 53 52 53s47 -24 47 -48c0 -29 -23 -53 -53 -53z" />
    <glyph glyph-name="dotaccent.cap" unicode="&#xefed;" 
d="M291 720c-26 0 -47 22 -47 49c0 28 23 53 52 53s48 -24 48 -49c0 -29 -23 -53 -53 -53z" />
    <glyph glyph-name="grave.cap" unicode="&#xf6ce;" 
d="M152 828h103l75 -117h-68z" />
    <glyph glyph-name="hungarumlaut.cap" unicode="&#xf6cf;" 
d="M268 828h95l-127 -113h-64zM416 828h95l-127 -113h-64z" />
    <glyph glyph-name="macron.cap" unicode="&#xf6d0;" 
d="M181 787h231l-10 -54h-231z" />
    <glyph glyph-name="ogonek.cap" unicode="&#xeff1;" 
d="M137 1h62c-36 -28 -74 -74 -74 -111c0 -23 14 -37 38 -37c16 0 31 4 44 10l9 -45c-25 -17 -53 -24 -81 -24c-49 0 -78 29 -78 72c0 59 53 112 80 135z" />
    <glyph glyph-name="ring.cap" unicode="&#xeff3;" 
d="M299 873c55 0 94 -34 94 -87c-1 -56 -47 -91 -103 -91c-54 0 -93 34 -94 83c-1 55 42 95 103 95zM294 837c-28 0 -47 -24 -47 -56c0 -27 18 -50 45 -50c29 0 49 23 49 54c0 30 -17 52 -47 52z" />
    <glyph glyph-name="tilde.cap" unicode="&#xeff5;" 
d="M210 716h-47c10 59 41 100 82 100c27 0 42 -9 60 -21c15 -10 29 -18 44 -18c16 0 26 13 34 40h46c-11 -62 -38 -96 -83 -96c-25 0 -40 8 -59 20c-17 10 -27 19 -43 18c-16 0 -27 -16 -34 -43z" />
    <glyph glyph-name="Alpha" unicode="&#x391;" horiz-adv-x="568" 
d="M400 213h-232l-107 -213h-88l349 674h97l94 -674h-85zM198 279h196l-26 195c-4 35 -9 85 -12 124h-2c-18 -40 -35 -82 -55 -123z" />
    <glyph glyph-name="Beta" unicode="&#x392;" horiz-adv-x="518" 
d="M33 5l123 660c42 8 90 14 145 14c69 0 120 -14 155 -46c32 -26 49 -61 49 -105c0 -86 -69 -149 -144 -169v-2c60 -18 110 -69 110 -150c0 -69 -36 -124 -80 -157c-54 -40 -128 -55 -219 -55c-58 0 -108 4 -139 10zM228 607l-42 -219h62c97 0 171 50 171 132
c0 65 -49 93 -122 93c-31 0 -56 -2 -69 -6zM173 325l-47 -259c21 -3 45 -4 68 -4c98 0 190 41 190 149c0 79 -67 114 -143 114h-68z" />
    <glyph glyph-name="Gamma" unicode="&#x393;" horiz-adv-x="436" 
d="M159 674h347l-14 -71h-263l-114 -603h-84z" />
    <glyph glyph-name="uni0394" unicode="&#x394;" horiz-adv-x="596" 
d="M-22 0l8 50l346 624h96l116 -624l-9 -50h-557zM84 69h372l-67 368c-8 48 -18 114 -24 158h-3c-16 -35 -46 -91 -71 -140z" />
    <glyph glyph-name="Epsilon" unicode="&#x395;" horiz-adv-x="470" 
d="M433 387l-14 -70h-245l-46 -246h276l-14 -71h-359l128 674h344l-14 -71h-260l-41 -216h245z" />
    <glyph glyph-name="Zeta" unicode="&#x396;" horiz-adv-x="523" 
d="M-20 0l9 51l458 549l-1 3h-320l14 71h432l-11 -54l-454 -546l1 -3h354l-13 -71h-469z" />
    <glyph glyph-name="Eta" unicode="&#x397;" horiz-adv-x="627" 
d="M159 674h83l-54 -284h310l54 284h83l-128 -674h-83l59 317h-309l-60 -317h-83z" />
    <glyph glyph-name="Theta" unicode="&#x398;" horiz-adv-x="668" 
d="M303 -11c-174 0 -255 131 -255 274c0 117 45 242 122 323c59 61 144 99 232 99c182 0 255 -132 255 -276c0 -114 -41 -239 -116 -319c-60 -63 -142 -101 -238 -101zM316 59c143 0 254 183 254 346c0 96 -32 210 -179 210c-151 0 -256 -190 -256 -345
c0 -110 49 -211 181 -211zM225 382h269l-11 -68h-269z" />
    <glyph glyph-name="Iota" unicode="&#x399;" horiz-adv-x="233" 
d="M158 674h83l-128 -674h-83z" />
    <glyph glyph-name="Kappa" unicode="&#x39a;" horiz-adv-x="515" 
d="M31 0l128 674h82l-62 -328l4 1c24 28 46 52 67 75l237 252h104l-284 -290l173 -384h-90l-147 331l-81 -75l-49 -256h-82z" />
    <glyph glyph-name="Lambda" unicode="&#x39b;" horiz-adv-x="569" 
d="M514 0h-86l-62 464c-5 46 -8 87 -11 130h-2c-17 -44 -36 -85 -57 -129l-234 -465h-89l348 674h99z" />
    <glyph glyph-name="Mu" unicode="&#x39c;" horiz-adv-x="780" 
d="M676 0h-80l48 364c9 64 24 163 36 228h-3c-31 -68 -69 -148 -105 -217l-201 -371h-63l-50 363c-10 78 -17 156 -21 225h-3c-14 -62 -35 -164 -51 -228l-92 -364h-78l175 674h106l53 -386c7 -58 14 -119 16 -169h3c21 50 50 110 79 166l208 389h109z" />
    <glyph glyph-name="Nu" unicode="&#x39d;" horiz-adv-x="632" 
d="M109 0h-78l128 674h91l154 -382c30 -76 45 -130 59 -188l2 1c4 61 11 117 29 211l68 358h78l-128 -674h-82l-154 381c-32 83 -47 130 -62 194l-3 -1c-7 -63 -18 -130 -35 -222z" />
    <glyph glyph-name="Xi" unicode="&#x39e;" horiz-adv-x="534" 
d="M132 674h434l-12 -70h-434zM113 384h367l-12 -70h-367zM12 71h455l-12 -71h-455z" />
    <glyph glyph-name="Omicron" unicode="&#x39f;" horiz-adv-x="668" 
d="M303 -11c-174 0 -255 131 -255 274c0 116 45 242 122 324c58 60 144 98 232 98c182 0 255 -132 255 -276c0 -114 -41 -239 -116 -319c-60 -64 -142 -101 -238 -101zM316 59c143 0 254 183 254 346c0 96 -31 210 -179 210c-151 0 -256 -190 -256 -345
c0 -110 49 -211 181 -211z" />
    <glyph glyph-name="Pi" unicode="&#x3a0;" horiz-adv-x="621" 
d="M629 674l-127 -674h-83l114 604h-305l-114 -604h-83l128 674h470z" />
    <glyph glyph-name="Rho" unicode="&#x3a1;" horiz-adv-x="507" 
d="M31 0l127 664c37 9 91 15 146 15c65 0 127 -16 165 -52c32 -29 49 -69 49 -122c0 -75 -37 -139 -81 -176c-52 -44 -128 -64 -204 -64c-26 0 -48 2 -69 5l-51 -270h-82zM227 605l-50 -265c23 -5 43 -7 67 -7c114 0 190 71 190 166c0 81 -57 113 -134 113
c-33 0 -58 -3 -73 -7z" />
    <glyph glyph-name="Sigma" unicode="&#x3a3;" horiz-adv-x="534" 
d="M112 75v-4h373l-12 -71h-488l8 53l285 286l-170 276l9 59h443l-12 -70h-337l-1 -3l164 -267z" />
    <glyph glyph-name="Tau" unicode="&#x3a4;" horiz-adv-x="474" 
d="M148 0l114 602h-197l14 72h478l-14 -72h-198l-114 -602h-83z" />
    <glyph glyph-name="Upsilon" unicode="&#x3a5;" horiz-adv-x="544" 
d="M67 611l19 69c44 -4 105 -39 140 -90c39 -56 68 -142 62 -248h4c37 108 102 196 161 249c56 51 119 82 158 89l8 -72c-72 -28 -200 -123 -279 -297c-17 -40 -33 -81 -43 -138l-32 -173h-83l32 174c9 50 13 96 11 136c-7 184 -82 280 -158 301z" />
    <glyph glyph-name="Phi" unicode="&#x3a6;" horiz-adv-x="691" 
d="M256 -26l11 54c-119 12 -219 102 -219 253c0 237 190 370 336 369l11 50h78l-10 -50c119 -11 217 -103 217 -255c0 -227 -173 -364 -335 -367l-10 -54h-79zM279 91l93 496c-104 -1 -239 -118 -239 -302c0 -110 61 -183 146 -194zM450 587l-92 -496c136 6 238 142 238 303
c0 113 -63 184 -146 193z" />
    <glyph glyph-name="Chi" unicode="&#x3a7;" horiz-adv-x="521" 
d="M466 0h-88l-64 167c-18 45 -32 83 -43 118h-2c-21 -32 -45 -69 -79 -116l-121 -169h-99l263 343l-126 331h87l64 -173c15 -40 25 -71 34 -102h3c21 33 44 68 68 102l129 173h99l-260 -330z" />
    <glyph glyph-name="Psi" unicode="&#x3a8;" horiz-adv-x="647" 
d="M686 674l-39 -206c-31 -166 -131 -257 -291 -262l-38 -206h-80l39 206c-91 7 -200 54 -200 196c0 28 3 51 9 83l35 189h81l-35 -189c-5 -30 -8 -57 -8 -74c0 -87 41 -130 130 -138l75 401h79l-75 -401c99 5 172 57 200 208l37 193h81z" />
    <glyph glyph-name="uni03A9" unicode="&#x3a9;" horiz-adv-x="680" 
d="M145 66l1 4c-48 47 -91 132 -91 229c0 216 151 386 349 386c165 0 263 -120 263 -266c0 -164 -99 -289 -186 -349v-4h136l-12 -66h-245l9 55c96 56 210 185 210 355c0 105 -59 207 -183 207c-159 0 -255 -169 -255 -322c0 -115 46 -198 102 -240l-10 -55h-244l12 66h144z
" />
    <glyph glyph-name="Alphatonos" unicode="&#x386;" horiz-adv-x="568" 
d="M400 213h-232l-107 -213h-88l349 674h97l94 -674h-85zM198 279h196l-26 195c-4 35 -9 85 -12 124h-2c-18 -40 -35 -82 -55 -123zM103 674h78l-48 -155h-50z" />
    <glyph glyph-name="Epsilontonos" unicode="&#x388;" horiz-adv-x="491" 
d="M453 387l-14 -70h-245l-46 -246h276l-14 -71h-359l128 674h344l-14 -71h-260l-41 -216h245zM34 674h79l-48 -155h-50z" />
    <glyph glyph-name="Etatonos" unicode="&#x389;" horiz-adv-x="647" 
d="M179 674h83l-54 -284h310l54 284h83l-128 -674h-83l59 317h-309l-60 -317h-83zM34 674h78l-48 -155h-50z" />
    <glyph glyph-name="Iotatonos" unicode="&#x38a;" horiz-adv-x="254" 
d="M179 674h83l-128 -674h-83zM37 674h78l-48 -155h-49z" />
    <glyph glyph-name="Iotadieresis" unicode="&#x3aa;" horiz-adv-x="233" 
d="M113 711c-26 0 -46 20 -46 48c0 29 23 53 52 53s47 -22 47 -49c0 -29 -21 -52 -53 -52zM297 711c-26 0 -46 20 -46 48c0 29 23 53 52 53s47 -22 47 -49c0 -29 -21 -52 -53 -52zM158 674h83l-129 -674h-82z" />
    <glyph glyph-name="Omicrontonos" unicode="&#x38c;" horiz-adv-x="683" 
d="M318 -11c-174 0 -255 131 -255 274c0 116 45 242 122 324c58 60 144 98 232 98c182 0 255 -132 255 -276c0 -114 -41 -239 -116 -319c-60 -64 -142 -101 -238 -101zM331 59c143 0 254 183 254 346c0 96 -31 210 -179 210c-151 0 -256 -190 -256 -345
c0 -110 49 -211 181 -211zM32 674h78l-48 -155h-50z" />
    <glyph glyph-name="Upsilontonos" unicode="&#x38e;" horiz-adv-x="602" 
d="M124 611l19 69c44 -4 105 -39 140 -90c39 -56 68 -142 62 -248h4c37 108 102 196 161 249c56 51 119 82 158 89l8 -72c-72 -28 -200 -123 -279 -297c-17 -40 -33 -80 -43 -138l-32 -173h-83l32 174c9 50 13 96 11 136c-7 184 -82 280 -158 301zM18 674h79l-49 -155h-49z
" />
    <glyph glyph-name="Upsilondieresis" unicode="&#x3ab;" horiz-adv-x="544" 
d="M259 703c-26 0 -46 21 -46 48c0 30 23 53 52 53s47 -22 47 -48c0 -30 -21 -53 -53 -53zM443 703c-26 0 -46 21 -46 48c0 30 23 53 52 53s47 -22 47 -48c0 -30 -21 -53 -53 -53zM66 611l20 69c44 -4 105 -39 140 -90c39 -56 68 -142 62 -248h4c37 108 102 196 161 249
c55 51 119 82 158 89l8 -72c-72 -28 -200 -123 -279 -297c-17 -40 -33 -81 -43 -138l-32 -173h-83l32 174c9 50 13 96 11 136c-7 184 -82 280 -159 301z" />
    <glyph glyph-name="Omegatonos" unicode="&#x38f;" horiz-adv-x="697" 
d="M162 66l1 4c-48 47 -91 132 -91 229c0 216 151 386 349 386c165 0 263 -120 263 -266c0 -165 -98 -289 -186 -349v-4h136l-12 -66h-245l9 55c96 56 210 185 210 355c0 105 -59 207 -183 207c-159 0 -255 -169 -255 -322c0 -115 46 -198 102 -240l-10 -55h-244l12 66h144z
M36 674h78l-48 -155h-49z" />
    <glyph glyph-name="alpha" unicode="&#x3b1;" horiz-adv-x="541" 
d="M369 90h-3c-38 -60 -99 -101 -175 -101c-95 0 -158 69 -158 177c0 186 127 329 255 329c77 0 118 -43 132 -96h4c10 38 17 62 25 85h70c-7 -23 -18 -70 -28 -114c-16 -73 -33 -154 -45 -219c-14 -68 -6 -96 29 -96l-17 -63c-7 -2 -15 -3 -26 -3c-40 0 -68 30 -63 101z
M118 177c0 -69 35 -121 102 -121c64 0 121 66 146 130c9 21 13 40 18 68c4 19 6 40 6 58c0 61 -34 117 -100 117c-85 0 -172 -116 -172 -252z" />
    <glyph glyph-name="beta" unicode="&#x3b2;" horiz-adv-x="533" 
d="M84 -198h-78c-7 31 2 101 16 173l85 460c25 134 67 199 109 235c39 33 79 51 136 51c88 0 148 -62 148 -147c0 -88 -52 -158 -114 -185l-1 -5c61 -14 114 -76 114 -164c0 -153 -123 -231 -226 -231c-67 0 -118 23 -153 65h-2l-13 -71c-10 -56 -25 -139 -21 -181zM258 346
l10 58c6 0 13 0 19 1c82 7 133 74 133 154c0 57 -30 95 -80 95c-75 0 -124 -71 -149 -208l-58 -310c18 -38 63 -82 132 -82c74 0 149 63 149 161c0 78 -54 128 -130 131h-26z" />
    <glyph glyph-name="gamma" unicode="&#x3b3;" horiz-adv-x="439" 
d="M168 -198h-83c16 76 39 178 36 267c-4 140 -60 329 -97 415h92c31 -69 75 -229 77 -378h4c63 90 142 223 164 343c2 11 4 25 4 35h82c1 -9 0 -24 -3 -39c-22 -120 -108 -273 -230 -415c-8 -10 -10 -16 -12 -27c-9 -58 -22 -133 -34 -201z" />
    <glyph glyph-name="delta" unicode="&#x3b4;" horiz-adv-x="522" 
d="M491 649l-34 -50c-26 29 -75 59 -125 59c-42 0 -62 -22 -62 -46c0 -27 24 -48 58 -80l68 -64c58 -56 94 -118 94 -201c0 -137 -101 -278 -258 -278c-113 0 -200 80 -200 206c0 152 112 252 222 297v4l-19 21c-21 23 -49 53 -49 95c0 56 54 109 139 109
c87 0 140 -42 166 -72zM339 409l-42 41c-85 -38 -180 -123 -180 -250c0 -94 59 -148 126 -148c88 0 162 95 162 205c0 56 -14 103 -66 152z" />
    <glyph glyph-name="epsilon" unicode="&#x3b5;" horiz-adv-x="406" 
d="M321 227h-63c-79 0 -150 -31 -150 -98c0 -47 48 -74 113 -74c54 0 112 19 140 33l7 -61c-36 -22 -108 -38 -169 -38c-96 0 -180 37 -180 127c0 77 65 133 135 143v5c-54 13 -81 48 -81 91c0 69 75 139 203 139c56 0 107 -14 130 -34l-22 -54c-16 9 -55 26 -109 26
c-73 0 -118 -35 -118 -79c0 -45 50 -67 123 -67h51z" />
    <glyph glyph-name="zeta" unicode="&#x3b6;" horiz-adv-x="392" 
d="M451 708l3 -59c-147 -82 -329 -271 -329 -436c0 -77 34 -118 104 -143c31 -15 75 -22 122 -28c5 -1 7 -4 7 -9c0 -37 -50 -136 -89 -177l-54 18c16 22 46 82 53 111c-25 4 -60 10 -98 25c-74 29 -132 85 -132 189c0 162 153 350 301 443v3h-72c-45 0 -81 2 -108 12l17 56
c28 -5 71 -5 116 -5h159z" />
    <glyph glyph-name="eta" unicode="&#x3b7;" horiz-adv-x="534" 
d="M178 389h2c43 68 109 106 179 106c57 0 123 -33 123 -134c0 -22 -4 -53 -9 -78l-56 -298c-11 -58 -26 -143 -22 -183h-78c-8 22 4 113 16 180l57 298c3 18 6 41 6 62c0 48 -19 84 -76 84c-59 0 -143 -71 -165 -191l-43 -235h-84l65 343c10 54 18 106 13 141h74
c5 -21 5 -48 -2 -95z" />
    <glyph glyph-name="theta" unicode="&#x3b8;" horiz-adv-x="516" 
d="M222 -11c-108 0 -178 82 -178 238c0 45 6 106 21 174c38 172 129 320 273 320c110 0 172 -94 172 -226c0 -47 -5 -98 -14 -146c-40 -204 -124 -360 -274 -360zM149 398h271c7 39 8 72 8 103c0 90 -32 157 -100 157c-93 0 -154 -122 -179 -260zM408 335h-271
c-7 -45 -11 -84 -11 -118c0 -105 41 -165 104 -165c91 0 147 116 178 283z" />
    <glyph glyph-name="iota" unicode="&#x3b9;" horiz-adv-x="229" 
d="M200 484l-69 -367c-9 -45 -2 -62 33 -60l-16 -63c-8 -3 -21 -5 -35 -5c-40 0 -70 18 -71 78c1 24 9 60 18 110l58 307h82z" />
    <glyph glyph-name="kappa" unicode="&#x3ba;" horiz-adv-x="461" 
d="M243 261v-3c54 -16 83 -70 117 -136l60 -122h-91l-50 103c-35 66 -64 113 -116 113h-12l-40 -216h-82l70 377c7 39 13 89 9 107h78c5 -11 7 -43 -1 -85l-24 -130h5c95 87 169 158 231 215h96v-4c-72 -65 -149 -131 -250 -219z" />
    <glyph glyph-name="lambda" unicode="&#x3bb;" horiz-adv-x="437" 
d="M311 0l-48 282c-4 28 -10 63 -14 95l-5 1c-11 -26 -27 -63 -43 -95l-144 -283h-88l242 452c7 12 10 22 10 28c0 5 0 12 -2 21c-16 86 -38 150 -99 151h-14l16 64c9 2 20 3 31 2c90 -3 119 -81 148 -223l95 -495h-85z" />
    <glyph glyph-name="uni03BC" unicode="&#x3bc;" horiz-adv-x="525" 
d="M196 484l-54 -287c-16 -84 7 -138 81 -138c51 0 98 53 124 102c10 18 17 39 21 59l50 264h83l-65 -344c-12 -63 -3 -82 28 -84l-18 -64c-9 -2 -13 -3 -27 -3c-39 0 -67 24 -63 100h-3c-29 -52 -81 -98 -146 -98c-43 0 -81 19 -98 58l-11 -65c-10 -53 -24 -141 -21 -182
h-74c-6 28 1 100 16 179l95 503h82z" />
    <glyph glyph-name="nu" unicode="&#x3bd;" horiz-adv-x="440" 
d="M36 484h87c13 -87 27 -178 41 -267c6 -49 11 -87 17 -132h4c61 91 151 234 176 346c4 21 7 38 7 53h81c0 -11 0 -26 -3 -42c-23 -130 -129 -293 -247 -442h-79c-27 161 -56 325 -84 484z" />
    <glyph glyph-name="xi" unicode="&#x3be;" horiz-adv-x="418" 
d="M372 372h-28c-138 0 -224 -74 -224 -171c0 -71 44 -112 133 -136c43 -12 88 -20 126 -23c5 -1 7 -4 7 -10c0 -37 -56 -142 -89 -175l-55 18c16 22 47 83 54 111c-29 3 -73 12 -109 23c-75 25 -155 76 -155 179c0 119 97 200 185 221v5c-53 19 -92 67 -92 126
c0 92 84 181 222 181c55 0 100 -14 122 -31l-23 -55c-18 12 -54 24 -97 24c-87 0 -140 -54 -140 -122c0 -66 57 -100 135 -103c9 -1 22 -1 38 -1z" />
    <glyph glyph-name="omicron" unicode="&#x3bf;" horiz-adv-x="522" 
d="M223 -11c-121 0 -189 90 -189 199c0 160 111 307 268 307c131 0 190 -99 190 -201c0 -150 -106 -305 -269 -305zM234 55c98 0 172 126 172 239c0 56 -26 135 -113 135c-104 0 -173 -127 -173 -238c0 -79 44 -136 114 -136z" />
    <glyph glyph-name="rho" unicode="&#x3c1;" horiz-adv-x="537" 
d="M79 -198h-77c-4 28 3 92 19 177l40 221c24 126 60 187 104 229c44 43 96 66 165 66c111 0 178 -85 178 -193c0 -173 -117 -313 -252 -313c-58 0 -113 26 -135 73h-3l-14 -79c-11 -57 -26 -141 -25 -181zM149 226l-5 -27c-2 -11 -3 -24 -3 -38c0 -44 38 -106 112 -106
c89 0 170 106 170 242c0 68 -35 130 -109 130c-71 0 -138 -60 -165 -201z" />
    <glyph glyph-name="sigma" unicode="&#x3c3;" horiz-adv-x="538" 
d="M422 439l-1 -5c53 -33 69 -107 69 -148c0 -140 -104 -297 -265 -297c-123 0 -191 90 -191 199c0 160 112 307 268 307h111h54h93l-10 -65c-22 0 -69 2 -128 9zM234 55c98 0 172 127 172 239c0 57 -26 135 -112 135c-105 0 -174 -127 -174 -238c0 -78 44 -136 114 -136z
" />
    <glyph glyph-name="tau" unicode="&#x3c4;" horiz-adv-x="388" 
d="M264 58l-12 -62c-10 -4 -27 -7 -42 -7c-60 0 -93 34 -93 99c0 18 4 43 8 66l49 264h-48c-52 0 -78 -4 -101 -8v49c19 12 54 25 134 25h261l-17 -66h-147l-49 -271c-4 -19 -5 -32 -5 -43c0 -36 18 -47 42 -47c8 0 14 0 20 1z" />
    <glyph glyph-name="upsilon" unicode="&#x3c5;" horiz-adv-x="501" 
d="M382 484h78c7 -17 12 -50 12 -88c0 -178 -77 -407 -266 -407c-89 0 -158 55 -158 153c0 18 3 39 8 60l22 117c16 86 23 138 20 165h78c6 -10 7 -44 -2 -89l-34 -186c-4 -19 -7 -40 -7 -54c0 -66 45 -97 87 -97c103 0 170 163 170 344c0 39 -4 69 -8 82z" />
    <glyph glyph-name="phi" unicode="&#x3c6;" horiz-adv-x="613" 
d="M234 50l54 297c19 101 68 148 137 148c83 0 158 -76 158 -192c0 -192 -138 -311 -284 -314l-36 -187h-76l35 187c-95 12 -187 80 -187 209c0 178 132 275 200 297l29 -45c-52 -25 -147 -106 -147 -243c0 -76 36 -141 117 -157zM368 365l-58 -315c106 7 191 111 191 248
c0 71 -33 134 -82 134c-26 0 -43 -22 -51 -67z" />
    <glyph glyph-name="chi" unicode="&#x3c7;" horiz-adv-x="423" 
d="M47 484h87l47 -156c11 -36 21 -73 30 -110h5c20 34 39 67 66 109c32 52 65 104 98 157h86c-75 -112 -150 -224 -224 -335l111 -342l-79 -20l-50 159c-14 46 -27 90 -41 139h-5c-17 -28 -36 -61 -60 -100c-41 -65 -82 -133 -123 -198l-70 27c77 117 152 230 229 346z" />
    <glyph glyph-name="psi" unicode="&#x3c8;" horiz-adv-x="624" 
d="M505 484h77c8 -19 14 -49 14 -91c0 -230 -113 -397 -291 -404l-35 -187h-77l35 187c-96 7 -174 61 -174 180c0 22 2 49 8 77l23 127c8 42 14 87 12 111h76c5 -11 5 -43 -3 -87l-28 -149c-4 -28 -7 -52 -7 -76c2 -82 48 -117 105 -121l104 560h77l-104 -560
c91 1 198 114 198 345c0 45 -6 76 -10 88z" />
    <glyph glyph-name="omega" unicode="&#x3c9;" horiz-adv-x="676" 
d="M515 490h75c27 -29 52 -95 52 -170c0 -185 -100 -331 -219 -331c-62 0 -100 33 -113 87h-3c-28 -51 -68 -87 -134 -87c-73 0 -140 59 -140 182c0 149 82 276 133 319h83l-1 -2c-54 -49 -131 -169 -131 -310c0 -82 37 -119 76 -119c46 0 83 52 95 122l32 180h78l-32 -163
c-4 -23 -7 -42 -7 -57c0 -36 17 -82 67 -82c64 0 134 120 134 264c0 70 -18 132 -46 165z" />
    <glyph glyph-name="uni03C2" unicode="&#x3c2;" horiz-adv-x="410" 
d="M277 -143l-55 18c17 23 46 82 53 110c-24 4 -65 13 -96 24c-66 24 -145 81 -145 195c0 150 119 290 283 290c47 0 83 -10 106 -24l-24 -60c-23 11 -48 18 -83 18c-105 0 -196 -89 -196 -215c0 -81 47 -123 117 -146c40 -13 75 -20 118 -26c6 -1 8 -5 8 -11
c0 -42 -54 -139 -86 -173z" />
    <glyph glyph-name="alphatonos" unicode="&#x3ac;" horiz-adv-x="541" 
d="M363 686h99l-133 -143h-65zM369 90h-3c-38 -60 -99 -101 -175 -101c-95 0 -158 69 -158 177c0 186 127 329 255 329c77 0 118 -43 132 -96h4c10 38 17 62 25 85h70c-7 -23 -18 -70 -28 -114c-16 -73 -33 -154 -45 -219c-14 -68 -6 -96 29 -96l-17 -63
c-7 -2 -15 -3 -26 -3c-40 0 -68 30 -63 101zM118 177c0 -69 35 -121 102 -121c64 0 121 66 146 130c9 21 13 40 18 68c4 19 6 40 6 58c0 61 -34 117 -100 117c-85 0 -172 -116 -172 -252z" />
    <glyph glyph-name="epsilontonos" unicode="&#x3ad;" horiz-adv-x="406" 
d="M301 686h99l-133 -143h-65zM321 227h-63c-79 0 -150 -31 -150 -98c0 -47 48 -74 113 -74c54 0 112 19 140 33l7 -59c-36 -23 -110 -40 -169 -40c-96 0 -180 37 -180 127c0 77 65 133 135 143v5c-54 13 -81 48 -81 91c0 69 75 139 203 139c56 0 107 -14 130 -34l-22 -54
c-16 9 -55 26 -109 26c-73 0 -118 -35 -118 -79c0 -45 50 -67 123 -67h51z" />
    <glyph glyph-name="etatonos" unicode="&#x3ae;" horiz-adv-x="534" 
d="M371 686h99l-133 -143h-65zM178 389h2c43 68 109 106 179 106c57 0 123 -33 123 -134c0 -22 -4 -53 -9 -78l-56 -298c-11 -58 -26 -142 -22 -183h-78c-8 22 4 113 16 180l57 298c3 18 6 41 6 62c0 48 -19 84 -76 84c-59 0 -143 -71 -165 -191l-44 -235h-83l65 343
c10 54 18 106 13 141h74c5 -21 5 -48 -2 -95z" />
    <glyph glyph-name="iotatonos" unicode="&#x3af;" horiz-adv-x="229" 
d="M230 686h98l-133 -143h-64zM200 484l-70 -367c-8 -45 -2 -62 34 -60l-17 -63c-8 -3 -20 -5 -35 -5c-39 0 -70 18 -70 78c0 23 8 61 16 104l59 313h83z" />
    <glyph glyph-name="iotadieresis" unicode="&#x3ca;" horiz-adv-x="229" 
d="M79 557c-26 0 -46 21 -46 48c0 30 23 53 51 53c29 0 48 -22 48 -48c0 -30 -22 -53 -53 -53zM262 557c-26 0 -46 21 -46 48c0 30 23 53 52 53s47 -22 47 -48c0 -30 -21 -53 -53 -53zM200 484l-70 -367c-8 -44 -1 -62 34 -60l-17 -63c-7 -3 -20 -5 -34 -5
c-40 0 -71 19 -71 77c0 23 8 62 16 105l60 313h82z" />
    <glyph glyph-name="omicrontonos" unicode="&#x3cc;" horiz-adv-x="522" 
d="M354 686h99l-133 -143h-64zM223 -11c-121 0 -189 90 -189 199c0 160 111 307 268 307c131 0 190 -99 190 -201c0 -150 -106 -305 -269 -305zM234 55c98 0 172 126 172 239c0 56 -26 135 -113 135c-104 0 -173 -127 -173 -238c0 -79 44 -136 114 -136z" />
    <glyph glyph-name="upsilontonos" unicode="&#x3cd;" horiz-adv-x="501" 
d="M328 686h99l-133 -143h-65zM382 484h78c7 -17 12 -49 12 -87c0 -179 -79 -408 -268 -408c-89 0 -156 55 -156 154c0 17 4 38 8 59l22 117c16 85 23 138 20 165h78c6 -10 7 -44 -2 -89l-34 -186c-4 -22 -7 -40 -7 -54c0 -66 44 -97 86 -97c103 0 171 165 171 344
c0 39 -4 69 -8 82z" />
    <glyph glyph-name="upsilondieresis" unicode="&#x3cb;" horiz-adv-x="501" 
d="M199 557c-26 0 -46 21 -46 48c0 30 23 53 52 53s47 -22 47 -48c0 -30 -21 -53 -53 -53zM382 557c-26 0 -46 21 -46 48c0 30 23 53 52 53s47 -22 47 -48c0 -30 -21 -53 -53 -53zM381 484h79c7 -17 12 -49 12 -87c0 -179 -79 -408 -268 -408c-89 0 -156 54 -156 154
c0 17 3 37 8 59l22 117c16 85 23 138 20 165h78c6 -10 7 -44 -2 -89l-34 -186c-4 -21 -7 -41 -7 -54c0 -66 44 -97 86 -97c103 0 171 165 171 344c0 39 -4 69 -9 82z" />
    <glyph glyph-name="omegatonos" unicode="&#x3ce;" horiz-adv-x="676" 
d="M439 686h99l-133 -143h-64zM515 490h75c27 -29 52 -95 52 -170c0 -185 -100 -331 -219 -331c-62 0 -100 33 -113 87h-3c-28 -51 -68 -87 -134 -87c-73 0 -140 59 -140 182c0 149 82 276 133 319h83l-1 -2c-54 -49 -131 -169 -131 -310c0 -82 37 -119 76 -119
c46 0 83 52 95 122l32 180h78l-32 -163c-4 -23 -7 -42 -7 -57c0 -36 16 -82 67 -82c63 0 134 120 134 264c0 70 -18 132 -46 165z" />
    <glyph glyph-name="iotadieresistonos" unicode="&#x390;" horiz-adv-x="229" 
d="M200 484l-70 -368c-8 -44 -1 -61 34 -59l-17 -63c-7 -3 -20 -5 -34 -5c-40 0 -71 19 -71 78c0 24 8 61 17 105l59 312h82zM187 693h80l-96 -154h-48zM64 560c-24 0 -42 19 -42 44c0 27 21 48 47 48s42 -20 42 -44c0 -27 -19 -48 -47 -48zM306 560c-24 0 -42 19 -42 44
c0 27 21 48 47 48c27 0 43 -20 43 -44c0 -27 -19 -48 -48 -48z" />
    <glyph glyph-name="upsilondieresistonos" unicode="&#x3b0;" horiz-adv-x="501" 
d="M382 484h78c7 -17 12 -49 12 -87c0 -179 -79 -408 -268 -408c-89 0 -156 55 -156 154c0 16 4 38 8 59l22 117c16 85 23 138 20 165h78c6 -10 7 -44 -2 -89l-34 -186c-4 -20 -7 -40 -7 -54c0 -66 44 -97 86 -97c103 0 171 165 171 344c0 39 -4 69 -8 82zM296 693h80
l-96 -154h-49zM172 560c-24 0 -42 19 -42 44c0 27 21 48 47 48c27 0 43 -20 43 -44c0 -27 -19 -48 -48 -48zM415 560c-24 0 -42 19 -42 44c0 27 21 48 47 48c27 0 43 -20 43 -44c0 -27 -19 -48 -48 -48z" />
    <glyph glyph-name="uni037E" unicode="&#x37e;" horiz-adv-x="214" 
d="M32 -116l-64 -7c28 60 70 166 88 237l98 3c-32 -76 -90 -186 -122 -233zM143 324c-34 0 -57 27 -57 61c0 38 27 70 66 70c35 0 58 -27 58 -63c0 -37 -27 -68 -67 -68z" />
    <glyph glyph-name="anoteleia" unicode="&#x387;" horiz-adv-x="214" 
d="M116 255c-33 0 -56 27 -56 61c0 38 27 69 65 69c35 0 57 -26 57 -62c0 -38 -26 -68 -66 -68z" />
    <glyph glyph-name="tonos" unicode="&#x384;" horiz-adv-x="360" 
d="M300 686h99l-133 -143h-64z" />
    <glyph glyph-name="dieresistonos" unicode="&#x385;" horiz-adv-x="346" 
d="M231 702h81l-96 -154h-49zM108 569c-25 0 -43 19 -43 45c0 27 21 49 48 49s43 -21 43 -45c0 -27 -19 -49 -48 -49zM351 569c-25 0 -43 19 -43 45c0 27 21 49 48 49s43 -21 43 -45c0 -27 -19 -49 -48 -49z" />
    <glyph glyph-name="dieresis_acutecomb" unicode="&#xf6d7;" 
d="M147 575c-20 0 -42 13 -42 43c0 27 22 49 49 49c29 0 42 -20 42 -42c0 -32 -25 -50 -49 -50zM273 687h84l-112 -139h-54zM393 574c-20 0 -42 13 -42 43c0 28 22 50 49 50c29 0 42 -21 42 -43c0 -31 -25 -50 -49 -50z" />
    <glyph glyph-name="dieresis_gravecomb" unicode="&#xf6d8;" 
d="M134 575c-21 0 -42 13 -42 43c0 27 22 49 49 49c28 0 41 -21 41 -42c0 -32 -24 -50 -48 -50zM178 687h82l76 -139h-53zM377 574c-20 0 -42 13 -42 43c0 27 22 49 49 49c29 0 42 -21 42 -42c0 -31 -25 -50 -49 -50z" />
    <glyph glyph-name="space_uni030F" unicode="&#xf6d6;" 
d="M67 674h90l86 -136h-56zM224 674h90l86 -136h-56z" />
    <glyph glyph-name="dieresis_acutecomb.cap" unicode="&#xf6cc;" 
d="M182 724c-21 0 -42 13 -42 43c0 27 22 49 49 49c29 0 42 -21 42 -42c0 -32 -25 -50 -49 -50zM316 827h96l-122 -117h-67zM448 724c-21 0 -42 13 -42 43c0 27 22 49 49 49c29 0 42 -21 42 -42c0 -32 -25 -50 -49 -50z" />
    <glyph glyph-name="dieresis_gravecomb.cap" unicode="&#xf6cd;" 
d="M156 724c-20 0 -41 13 -41 43c0 27 22 49 49 49c29 0 42 -21 42 -42c0 -32 -25 -50 -50 -50zM201 827h97l91 -116h-64zM423 724c-20 0 -42 13 -42 43c0 27 22 49 49 49c29 0 42 -21 42 -42c0 -32 -25 -50 -49 -50z" />
    <glyph glyph-name="space_uni030F.cap" unicode="&#xf6d3;" horiz-adv-x="387" 
d="M103 823h96l94 -112h-63zM260 823h96l94 -112h-64z" />
    <glyph glyph-name="o.superior" horiz-adv-x="345" 
d="M231 591c91 0 136 -63 136 -136c0 -110 -78 -194 -181 -194c-87 0 -134 65 -134 133c0 113 81 197 179 197zM223 541c-58 0 -104 -70 -104 -146c0 -54 31 -85 73 -85c56 0 107 62 107 149c0 37 -15 82 -76 82z" />
    <glyph glyph-name="uni0401" unicode="&#x401;" horiz-adv-x="470" 
d="M433 387l-14 -70h-245l-47 -246h277l-14 -71h-359l128 674h344l-14 -71h-261l-41 -216h246zM252 720c-25 0 -46 21 -46 48c0 29 23 53 52 53s47 -24 47 -48c0 -29 -23 -53 -53 -53zM437 720c-25 0 -46 21 -46 48c0 29 23 53 52 53s47 -24 47 -48c0 -29 -23 -53 -53 -53z
" />
    <glyph glyph-name="uni0402" unicode="&#x402;" horiz-adv-x="635" 
d="M80 674h495l-15 -72h-231l-36 -190h2c29 19 77 37 125 37c108 0 173 -84 173 -209c0 -107 -38 -215 -105 -283c-57 -59 -123 -86 -177 -95l-15 69c45 11 91 33 127 73c52 57 82 142 82 232c0 80 -36 143 -115 143c-39 0 -77 -15 -110 -37l-64 -342h-83l114 602h-181z" />
    <glyph glyph-name="uni0403" unicode="&#x403;" horiz-adv-x="393" 
d="M160 674h316l-14 -73h-233l-114 -601h-83zM367 828h109l-137 -118h-73z" />
    <glyph glyph-name="uni0404" unicode="&#x404;" horiz-adv-x="548" 
d="M591 652l-26 -67c-23 13 -70 29 -131 28c-145 0 -258 -99 -285 -237h322l-12 -67h-319c-2 -9 -3 -25 -3 -39c0 -114 67 -211 206 -211c55 0 107 15 143 33l13 -66c-37 -19 -99 -37 -181 -37c-177 0 -269 122 -269 289c0 118 45 228 122 301c69 64 161 105 272 105
c80 0 128 -21 148 -32z" />
    <glyph glyph-name="uni0405" unicode="&#x405;" horiz-adv-x="466" 
d="M12 36l30 68c37 -25 87 -43 143 -43c76 0 146 45 146 126c0 50 -28 88 -99 126c-86 47 -134 101 -134 173c0 121 104 198 228 198c66 0 115 -19 138 -35l-30 -68c-21 13 -63 32 -117 32c-83 0 -133 -55 -133 -110s34 -86 105 -125c83 -45 128 -98 128 -181
c0 -116 -91 -208 -243 -208c-67 0 -134 22 -162 47z" />
    <glyph glyph-name="uni0406" unicode="&#x406;" horiz-adv-x="233" 
d="M158 674h83l-128 -674h-83z" />
    <glyph glyph-name="uni0407" unicode="&#x407;" horiz-adv-x="233" 
d="M158 674h84l-129 -674h-83zM120 720c-25 0 -46 21 -46 48c0 29 23 53 52 53s47 -24 47 -48c0 -29 -23 -53 -53 -53zM305 720c-25 0 -46 21 -46 48c0 29 23 53 52 53s47 -24 47 -48c0 -29 -23 -53 -53 -53z" />
    <glyph glyph-name="uni0408" unicode="&#x408;" horiz-adv-x="364" 
d="M210 220l86 454h83l-88 -464c-30 -157 -96 -221 -222 -221c-41 0 -83 9 -100 18l18 71c22 -10 49 -15 85 -15c71 0 115 37 138 157z" />
    <glyph glyph-name="uni0409" unicode="&#x409;" horiz-adv-x="864" 
d="M218 674h370l-49 -253c20 4 52 6 78 6c120 0 210 -61 210 -189c0 -69 -27 -125 -70 -164c-61 -57 -158 -80 -248 -80c-58 0 -105 4 -131 8l113 601h-207l-39 -206c-31 -166 -75 -291 -145 -352c-31 -30 -79 -53 -131 -54l-7 70c29 2 67 21 87 42c53 51 91 156 115 287z
M526 353l-54 -287c17 -3 36 -4 65 -4c99 0 203 56 203 167c0 94 -61 130 -145 130c-26 0 -50 -2 -69 -6z" />
    <glyph glyph-name="uni040A" unicode="&#x40a;" horiz-adv-x="871" 
d="M160 674h83l-53 -272h270l52 272h83l-50 -262c21 4 48 6 75 6c116 0 214 -59 214 -188c0 -65 -25 -118 -69 -159c-60 -56 -157 -77 -247 -77c-58 0 -106 4 -133 8l63 332h-271l-63 -334h-82zM532 345l-53 -280c17 -2 40 -3 67 -3c107 0 201 57 201 162
c0 86 -69 126 -149 126c-24 0 -47 -2 -66 -5z" />
    <glyph glyph-name="uni040B" unicode="&#x40b;" horiz-adv-x="650" 
d="M81 674h490l-14 -71h-230l-38 -198h2c28 20 85 45 152 46c100 0 146 -66 146 -149c0 -29 -5 -66 -12 -100l-37 -202h-82l38 198c6 31 10 63 10 85c0 51 -25 97 -103 97c-51 0 -102 -25 -128 -46l-63 -334h-81l114 603h-179z" />
    <glyph glyph-name="uni040C" unicode="&#x40c;" horiz-adv-x="523" 
d="M159 674h82l-58 -304h21l278 304h102l-304 -315c93 -17 130 -88 150 -193c11 -59 18 -118 34 -166h-86c-12 38 -21 104 -30 156c-20 104 -55 153 -157 153h-19l-59 -309h-82zM400 828h109l-136 -118h-74z" />
    <glyph glyph-name="uni040E" unicode="&#x40e;" horiz-adv-x="495" 
d="M87 674h90l83 -302c10 -36 20 -77 30 -118h2c25 53 44 97 64 140l130 280h93l-163 -325c-52 -104 -120 -239 -185 -302c-43 -43 -89 -58 -133 -58c-26 0 -50 5 -67 13l17 69c11 -5 29 -8 47 -8c60 0 103 57 129 107c7 12 9 22 3 40zM228 829h64c-1 -32 14 -60 55 -60
c42 0 63 23 72 60h66c-13 -61 -63 -105 -142 -105c-83 0 -116 45 -115 105z" />
    <glyph glyph-name="uni040F" unicode="&#x40f;" horiz-adv-x="609" 
d="M159 674h84l-115 -603h292l115 603h82l-128 -674h-185l-41 -173h-67l26 173h-191z" />
    <glyph glyph-name="uni0410" unicode="&#x410;" horiz-adv-x="568" 
d="M400 213h-232l-107 -213h-88l349 674h97l94 -674h-85zM198 279h196l-26 195c-4 35 -9 85 -12 124h-2c-18 -40 -35 -82 -55 -123z" />
    <glyph glyph-name="uni0411" unicode="&#x411;" horiz-adv-x="519" 
d="M159 674h340l-13 -71h-257l-35 -186c19 5 55 7 77 7c118 0 208 -61 208 -188c0 -76 -31 -133 -78 -172c-60 -50 -149 -70 -236 -70c-57 0 -106 4 -133 8zM181 352l-54 -287c17 -4 38 -5 67 -5c96 0 199 57 199 165c0 91 -58 133 -145 133c-19 0 -48 -3 -67 -6z" />
    <glyph glyph-name="uni0412" unicode="&#x412;" horiz-adv-x="520" 
d="M33 5l123 660c42 8 90 14 145 14c69 0 120 -14 155 -46c32 -26 49 -61 49 -105c0 -86 -69 -149 -144 -169v-2c60 -18 110 -69 110 -150c0 -69 -36 -124 -80 -157c-54 -40 -128 -55 -219 -55c-58 0 -108 4 -139 10zM228 607l-42 -219h62c97 0 171 50 171 132
c0 65 -49 93 -122 93c-31 0 -56 -2 -69 -6zM173 325l-47 -259c21 -3 45 -4 68 -4c98 0 190 41 190 149c0 79 -67 114 -143 114h-68z" />
    <glyph glyph-name="uni0413" unicode="&#x413;" horiz-adv-x="393" 
d="M159 674h317l-14 -73h-234l-114 -601h-83z" />
    <glyph glyph-name="uni0414" unicode="&#x414;" horiz-adv-x="601" 
d="M228 674h358l-114 -605l57 -2l-54 -229h-68l27 162h-399l-39 -162h-67l38 229l47 2c46 62 81 124 110 189c31 75 53 153 70 240zM291 603l-25 -134c-15 -75 -36 -154 -66 -227c-27 -62 -59 -122 -98 -172h287l100 533h-198z" />
    <glyph glyph-name="uni0415" unicode="&#x415;" horiz-adv-x="470" 
d="M433 387l-14 -70h-245l-46 -246h276l-14 -71h-359l128 674h344l-14 -71h-260l-41 -216h245z" />
    <glyph glyph-name="uni0416" unicode="&#x416;" horiz-adv-x="771" 
d="M106 674h88l153 -305h20l56 305h79l-57 -305h22l261 305h96l-290 -315c91 -15 124 -93 143 -185c11 -61 16 -119 33 -174h-83c-14 50 -20 108 -31 168c-17 93 -49 141 -139 141h-22l-58 -309h-80l57 309h-20c-91 0 -141 -49 -191 -152c-26 -54 -49 -105 -78 -157h-89
c32 50 61 117 92 178c60 115 108 168 214 182z" />
    <glyph glyph-name="uni0417" unicode="&#x417;" horiz-adv-x="449" 
d="M125 321l12 66h32c82 0 178 41 177 135c0 59 -42 95 -99 95c-49 0 -94 -18 -130 -39l-19 59c41 27 99 48 166 48c89 0 168 -49 168 -151c0 -94 -72 -156 -154 -176v-2c72 -16 125 -72 125 -156c0 -135 -112 -211 -247 -211c-65 0 -127 20 -169 47l28 64
c26 -16 85 -41 142 -41c87 0 160 51 160 144c0 83 -82 120 -154 119z" />
    <glyph glyph-name="uni0418" unicode="&#x418;" horiz-adv-x="629" 
d="M160 674h79l-57 -302c-19 -98 -36 -181 -58 -266l2 -1c46 74 95 141 155 220l270 349h87l-128 -674h-79l59 311c19 95 33 166 53 247l-2 1c-45 -74 -102 -151 -160 -227l-257 -332h-92z" />
    <glyph glyph-name="uni0419" unicode="&#x419;" horiz-adv-x="629" 
d="M159 674h80l-58 -302c-19 -98 -36 -181 -58 -266l2 -1c46 74 95 141 155 220l271 349h86l-127 -674h-79l59 311c18 95 33 166 53 247l-3 1c-45 -74 -101 -151 -160 -227l-257 -332h-92zM296 828h64c-1 -32 14 -60 55 -60c42 0 63 23 72 60h66c-13 -61 -63 -105 -142 -105
c-83 0 -116 45 -115 105z" />
    <glyph glyph-name="uni041A" unicode="&#x41a;" horiz-adv-x="523" 
d="M159 674h82l-58 -304h21l278 304h102l-304 -315c93 -17 130 -88 150 -193c11 -59 18 -118 34 -166h-86c-12 38 -21 104 -30 156c-20 104 -55 153 -157 153h-19l-59 -309h-82z" />
    <glyph glyph-name="uni041B" unicode="&#x41b;" horiz-adv-x="589" 
d="M217 674h380l-129 -674h-83l116 603h-217l-39 -207c-35 -182 -79 -291 -144 -350c-26 -27 -72 -54 -132 -56l-8 70c35 4 66 21 88 44c52 51 88 146 115 286z" />
    <glyph glyph-name="uni041C" unicode="&#x41c;" horiz-adv-x="780" 
d="M676 0h-80l48 364c9 64 24 163 36 228h-3c-31 -68 -69 -148 -105 -217l-201 -371h-63l-50 363c-10 78 -17 156 -21 225h-3c-14 -62 -35 -164 -51 -228l-92 -364h-78l175 674h106l53 -386c7 -58 14 -119 16 -169h3c21 50 50 110 79 166l208 389h109z" />
    <glyph glyph-name="uni041D" unicode="&#x41d;" horiz-adv-x="627" 
d="M159 674h83l-54 -284h310l54 284h83l-128 -674h-83l59 317h-309l-60 -317h-83z" />
    <glyph glyph-name="uni041E" unicode="&#x41e;" horiz-adv-x="668" 
d="M303 -11c-174 0 -255 131 -255 274c0 116 45 242 122 324c58 60 144 98 232 98c182 0 255 -132 255 -276c0 -114 -41 -239 -116 -319c-60 -64 -142 -101 -238 -101zM316 59c143 0 254 183 254 346c0 96 -31 210 -179 210c-151 0 -256 -190 -256 -345
c0 -110 49 -211 181 -211z" />
    <glyph glyph-name="uni041F" unicode="&#x41f;" horiz-adv-x="611" 
d="M159 674h460l-128 -674h-83l116 603h-295l-115 -603h-83z" />
    <glyph glyph-name="uni0420" unicode="&#x420;" horiz-adv-x="507" 
d="M31 0l127 664c37 9 91 15 146 15c65 0 127 -16 165 -52c32 -29 49 -69 49 -122c0 -75 -37 -139 -81 -176c-52 -44 -128 -64 -204 -64c-26 0 -48 2 -69 5l-51 -270h-82zM227 605l-50 -265c23 -5 43 -7 67 -7c114 0 190 71 190 166c0 81 -57 113 -134 113
c-33 0 -58 -3 -73 -7z" />
    <glyph glyph-name="uni0421" unicode="&#x421;" horiz-adv-x="555" 
d="M486 90l11 -68c-38 -17 -99 -32 -175 -32c-170 0 -273 107 -273 279c0 127 51 248 143 325c70 59 156 90 255 90c74 0 128 -19 146 -32l-27 -67c-25 15 -73 27 -133 27c-70 0 -141 -27 -193 -75c-63 -59 -103 -154 -103 -256c0 -121 55 -220 205 -220c51 0 107 10 144 29
z" />
    <glyph glyph-name="uni0422" unicode="&#x422;" horiz-adv-x="474" 
d="M148 0l114 602h-197l14 72h478l-14 -72h-198l-114 -602h-83z" />
    <glyph glyph-name="uni0423" unicode="&#x423;" horiz-adv-x="495" 
d="M87 674h90l83 -302c10 -36 20 -77 30 -118h2c25 53 43 97 63 140l131 280h93l-163 -325c-53 -104 -120 -239 -185 -302c-44 -43 -89 -58 -133 -58c-26 0 -51 5 -67 13l17 69c11 -5 29 -8 47 -8c60 0 103 57 129 107c7 12 9 22 3 40z" />
    <glyph glyph-name="uni0424" unicode="&#x424;" horiz-adv-x="702" 
d="M263 -26l11 59c-115 16 -219 103 -219 261c0 249 190 355 336 354l11 52h78l-10 -55c117 -16 217 -102 217 -269c0 -223 -157 -345 -335 -347l-10 -55h-79zM286 95l93 491c-108 -2 -239 -101 -239 -288c0 -115 62 -186 146 -203zM457 583l-92 -492c152 6 238 131 238 292
c0 119 -62 188 -146 200z" />
    <glyph glyph-name="uni0425" unicode="&#x425;" horiz-adv-x="521" 
d="M466 0h-88l-64 167c-18 45 -32 83 -43 118h-2c-21 -32 -45 -69 -79 -116l-121 -169h-99l263 343l-126 331h87l64 -173c15 -40 25 -71 34 -102h2c22 33 45 68 69 102l129 173h99l-260 -330z" />
    <glyph glyph-name="uni0426" unicode="&#x426;" horiz-adv-x="620" 
d="M160 674h83l-115 -603h293l115 603h82l-115 -605l57 -2l-54 -229h-68l27 162h-433z" />
    <glyph glyph-name="uni0427" unicode="&#x427;" horiz-adv-x="555" 
d="M136 674h83l-37 -194c-4 -18 -10 -51 -10 -76c0 -66 42 -97 112 -97c57 0 111 24 135 42l61 325h82l-128 -678h-82l53 280h-2c-30 -17 -87 -38 -150 -38c-104 0 -166 56 -166 148c0 30 6 62 12 94z" />
    <glyph glyph-name="uni0428" unicode="&#x428;" horiz-adv-x="810" 
d="M159 674h82l-115 -603h207l114 603h82l-115 -603h207l115 603h82l-129 -674h-658z" />
    <glyph glyph-name="uni0429" unicode="&#x429;" horiz-adv-x="820" 
d="M159 674h83l-116 -603h207l114 603h83l-116 -603h207l115 603h82l-116 -605l57 -2l-53 -229h-69l27 162h-633z" />
    <glyph glyph-name="uni042A" unicode="&#x42a;" horiz-adv-x="618" 
d="M79 674h267l-48 -253c20 3 47 6 76 6c121 0 210 -61 210 -189c0 -70 -26 -125 -68 -165c-60 -57 -153 -79 -250 -79c-57 0 -103 4 -130 7l114 601h-185zM284 352l-54 -286c17 -3 38 -4 67 -4c97 0 200 54 200 166c0 90 -58 131 -144 131c-26 0 -52 -4 -69 -7z" />
    <glyph glyph-name="uni042B" unicode="&#x42b;" horiz-adv-x="720" 
d="M159 674h83l-49 -253c20 4 51 6 77 6c116 0 206 -61 206 -189c-1 -70 -26 -124 -67 -164c-63 -60 -154 -80 -247 -80c-58 0 -104 4 -131 7zM179 352l-54 -285c16 -4 38 -5 67 -5c95 0 197 56 197 164c0 92 -57 133 -142 133c-23 0 -49 -3 -68 -7zM642 674h86l-129 -674
h-86z" />
    <glyph glyph-name="uni042C" unicode="&#x42c;" horiz-adv-x="518" 
d="M159 674h83l-49 -253c19 4 50 6 77 6c120 0 210 -61 210 -189c0 -71 -26 -125 -66 -163c-62 -58 -155 -81 -252 -81c-57 0 -103 4 -130 7zM180 352l-54 -285c17 -4 38 -5 67 -5c99 0 200 56 200 164c0 92 -58 133 -146 133c-25 0 -52 -3 -67 -7z" />
    <glyph glyph-name="uni042D" unicode="&#x42d;" horiz-adv-x="540" 
d="M125 308l13 68h304c1 10 1 19 1 34c-1 110 -68 204 -195 204c-45 0 -100 -11 -139 -29l-18 63c33 17 98 37 169 37c169 0 270 -113 270 -291c0 -109 -36 -226 -117 -309c-66 -64 -148 -96 -255 -96c-72 0 -136 19 -170 40l25 66c38 -21 93 -35 143 -35
c156 0 252 110 276 248h-307z" />
    <glyph glyph-name="uni042E" unicode="&#x42e;" horiz-adv-x="862" 
d="M160 674h83l-55 -285h102c18 74 52 145 99 197c56 61 137 99 221 99c171 0 242 -132 242 -277c0 -113 -40 -238 -110 -318c-57 -63 -134 -101 -224 -101c-165 0 -242 132 -242 266c0 20 2 42 5 63h-107l-60 -318h-83zM528 59c135 0 238 183 238 346
c0 95 -28 210 -167 210c-143 0 -241 -191 -241 -345c0 -110 45 -211 170 -211z" />
    <glyph glyph-name="uni042F" unicode="&#x42f;" horiz-adv-x="519" 
d="M527 664l-125 -664h-83l57 295h-53c-109 0 -149 -80 -191 -166c-20 -41 -42 -91 -65 -129h-91c28 42 55 105 78 153c36 72 78 148 155 170v3c-59 17 -112 62 -112 145c0 78 43 134 92 166c54 30 118 42 186 42c52 0 114 -7 152 -15zM388 358l46 248c-14 4 -40 7 -70 7
c-95 0 -181 -44 -181 -143c0 -76 65 -113 140 -113c26 0 54 0 65 1z" />
    <glyph glyph-name="uni0430" unicode="&#x430;" horiz-adv-x="522" 
d="M428 0h-78c0 29 5 75 11 125h-2c-53 -101 -120 -136 -188 -136c-86 0 -139 68 -139 160c0 169 124 346 335 346c46 0 97 -8 130 -18l-49 -253c-16 -84 -22 -170 -20 -224zM376 276l27 146c-11 4 -29 7 -57 7c-125 0 -228 -130 -228 -265c0 -54 19 -107 83 -107
c69 0 151 90 175 219z" />
    <glyph glyph-name="uni0431" unicode="&#x431;" horiz-adv-x="513" 
d="M537 720l-12 -73c-22 -8 -45 -12 -69 -16c-95 -14 -178 -27 -245 -108c-29 -36 -55 -89 -68 -141h3c39 61 101 102 177 102c104 0 161 -80 161 -185c0 -147 -94 -310 -261 -310c-118 0 -176 90 -176 226c0 133 42 262 113 348c82 100 178 122 296 138c29 4 57 10 81 19z
M234 53c109 0 164 139 164 238c0 68 -28 129 -99 129c-48 0 -95 -32 -127 -78c-25 -36 -42 -91 -42 -149c0 -71 31 -140 104 -140z" />
    <glyph glyph-name="uni0432" unicode="&#x432;" horiz-adv-x="476" 
d="M301 495c76 0 136 -35 136 -112c0 -66 -64 -105 -114 -121v-3c48 -6 100 -40 100 -108c0 -115 -119 -161 -218 -161c-97 0 -162 39 -162 140c0 88 40 258 126 322c36 27 77 43 132 43zM288 434c-86 0 -122 -93 -141 -165c54 7 119 16 160 39c27 16 50 38 50 68
c0 39 -30 58 -69 58zM237 226c-42 0 -79 -9 -101 -15c-4 -21 -9 -49 -9 -74c0 -55 28 -86 88 -86c65 0 124 35 124 97c0 56 -46 78 -102 78z" />
    <glyph glyph-name="uni0433" unicode="&#x433;" horiz-adv-x="367" 
d="M113 403l-14 58c30 17 75 33 127 33c86 -2 131 -49 131 -118c0 -82 -70 -121 -149 -157c-60 -28 -109 -55 -109 -104c0 -34 21 -60 71 -61c44 -1 90 18 116 33l13 -60c-34 -20 -92 -38 -145 -37c-86 2 -140 46 -140 124c0 89 74 127 150 163c51 24 112 49 112 97
c0 30 -21 54 -66 55c-35 1 -69 -12 -97 -26z" />
    <glyph glyph-name="uni0434" unicode="&#x434;" horiz-adv-x="502" 
d="M141 649l-3 71c34 -8 74 -9 104 -12c78 -8 131 -26 172 -70c50 -50 71 -136 71 -217c0 -165 -70 -432 -277 -432c-114 0 -175 76 -175 192c0 137 87 303 241 303c74 0 120 -40 138 -101h2c1 13 1 29 1 45c0 51 -14 119 -51 158c-34 35 -75 47 -141 53c-24 2 -51 4 -82 10
zM221 53c98 0 160 149 160 234c0 65 -32 132 -103 132c-109 0 -160 -140 -159 -237c0 -67 29 -129 102 -129z" />
    <glyph glyph-name="uni0435" unicode="&#x435;" horiz-adv-x="453" 
d="M365 89l12 -62c-36 -20 -95 -38 -160 -38c-128 0 -184 88 -184 195c0 146 108 311 264 311c92 0 142 -55 142 -125c0 -127 -143 -160 -322 -157c-4 -21 -1 -66 10 -92c19 -44 58 -65 108 -65c57 0 100 17 130 33zM359 369c0 39 -30 61 -74 61c-79 0 -138 -77 -159 -153
c131 -2 233 16 233 92z" />
    <glyph glyph-name="uni0436" unicode="&#x436;" horiz-adv-x="636" 
d="M65 484h91l112 -214h18l41 214h77l-42 -214h19l193 214h94l-216 -221c55 -9 84 -64 98 -130c10 -42 18 -99 31 -133h-79c-13 35 -20 80 -27 115c-15 72 -41 104 -108 104h-15l-42 -219h-78l44 219h-12c-73 0 -116 -31 -153 -101c-26 -47 -42 -86 -61 -118h-84
c21 34 39 74 64 124c41 80 92 134 171 139z" />
    <glyph glyph-name="uni0437" unicode="&#x437;" horiz-adv-x="400" 
d="M94 224l10 59h33c57 0 139 25 139 86c0 42 -36 63 -79 63c-37 0 -80 -12 -115 -34l-19 52c39 26 95 44 147 44c74 0 153 -30 153 -116c0 -69 -63 -109 -127 -122l-1 -1c53 -7 112 -48 112 -113c0 -114 -112 -152 -208 -152c-63 0 -118 15 -157 41l24 60
c35 -22 81 -37 128 -37c56 0 126 25 126 88s-68 82 -127 82h-39z" />
    <glyph glyph-name="uni0438" unicode="&#x438;" horiz-adv-x="526" 
d="M113 484h82l-51 -270c-5 -27 -8 -50 -8 -71c0 -50 20 -84 77 -84c60 0 137 71 157 177l47 248h83l-65 -343c-10 -54 -17 -101 -22 -141h-74l12 91h-2c-43 -63 -106 -102 -170 -102c-62 0 -128 30 -128 140c0 23 3 50 9 82z" />
    <glyph glyph-name="uni0439" unicode="&#x439;" horiz-adv-x="526" 
d="M113 484h82l-51 -270c-5 -27 -8 -50 -8 -71c0 -50 20 -84 77 -84c60 0 137 71 157 177l47 248h83l-65 -343c-10 -54 -17 -101 -22 -141h-74l12 91h-2c-43 -63 -106 -102 -170 -102c-62 0 -128 30 -128 140c0 23 3 50 9 82zM219 683h61c-4 -41 15 -74 51 -73
c41 0 62 38 72 73h63c-17 -76 -68 -121 -140 -121c-88 0 -113 59 -107 121z" />
    <glyph glyph-name="uni043A" unicode="&#x43a;" horiz-adv-x="456" 
d="M121 484h81l-40 -214h18l210 214h100l-236 -222c52 -14 82 -59 106 -136c17 -50 28 -97 42 -126h-81c-13 27 -23 73 -40 118c-28 76 -56 99 -115 99h-15l-41 -217h-81z" />
    <glyph glyph-name="uni043B" unicode="&#x43b;" horiz-adv-x="510" 
d="M160 484h326l-92 -484h-82l78 418h-165l-24 -124c-25 -131 -61 -223 -128 -266c-29 -22 -55 -32 -100 -33l-6 67c22 2 45 9 58 20c50 33 79 111 98 211z" />
    <glyph glyph-name="uni043C" unicode="&#x43c;" horiz-adv-x="667" 
d="M146 484h102l39 -245c5 -38 14 -95 18 -132h1c16 34 54 103 87 162l123 215h104l-62 -484h-78l32 231c7 53 17 117 25 169h-4c-13 -30 -50 -98 -79 -152l-139 -245h-64l-37 240c-6 47 -16 115 -19 158h-4c-12 -54 -26 -119 -40 -172l-59 -229h-76z" />
    <glyph glyph-name="uni043D" unicode="&#x43d;" horiz-adv-x="529" 
d="M121 484h82l-36 -196h218l37 196h83l-92 -484h-82l42 222h-219l-42 -222h-83z" />
    <glyph glyph-name="uni043E" unicode="&#x43e;" horiz-adv-x="521" 
d="M223 -11c-121 0 -189 90 -189 199c0 160 111 307 268 307c131 0 190 -99 190 -201c0 -150 -106 -305 -269 -305zM234 55c98 0 172 126 172 239c0 56 -26 135 -113 135c-104 0 -173 -127 -173 -238c0 -79 44 -136 114 -136z" />
    <glyph glyph-name="uni043F" unicode="&#x43f;" horiz-adv-x="534" 
d="M111 0h-82l64 343c10 54 18 101 23 141h74l-12 -95h2c43 68 109 106 179 106c58 0 123 -33 123 -134c0 -22 -4 -52 -9 -78l-54 -283h-82l53 280c3 19 6 41 6 62c0 48 -19 84 -76 84c-59 0 -143 -71 -165 -191z" />
    <glyph glyph-name="uni0440" unicode="&#x440;" horiz-adv-x="527" 
d="M68 -198h-83l97 510c11 59 21 124 27 173h76l-13 -92h2c43 64 107 102 174 102c104 0 148 -86 148 -175c0 -171 -122 -331 -283 -331c-51 0 -85 11 -104 22h-2zM146 216l-25 -135c22 -17 53 -27 93 -27c107 0 196 133 196 260c0 51 -22 112 -93 112
c-65 0 -147 -74 -171 -210z" />
    <glyph glyph-name="uni0441" unicode="&#x441;" horiz-adv-x="423" 
d="M352 85l8 -65c-25 -13 -75 -30 -140 -30c-125 0 -186 84 -186 187c0 165 122 317 296 317c45 0 86 -13 101 -21l-24 -66c-19 9 -46 18 -82 18c-126 0 -205 -124 -205 -238c0 -78 41 -129 120 -129c50 0 87 15 112 27z" />
    <glyph glyph-name="uni0442" unicode="&#x442;" horiz-adv-x="808" 
d="M110 0h-81l64 343c10 54 17 101 22 141h73l-12 -91h2c45 68 106 102 170 102c74 0 109 -47 113 -108c43 70 105 107 177 108c56 0 118 -36 118 -127c0 -22 -3 -55 -8 -82l-54 -286h-81l52 279c4 19 7 43 7 63c0 51 -19 84 -73 84c-60 0 -132 -70 -152 -178l-46 -248h-80
l54 284c4 22 6 40 6 59c0 41 -11 83 -72 83c-60 0 -136 -80 -155 -183z" />
    <glyph glyph-name="uni0443" unicode="&#x443;" horiz-adv-x="438" 
d="M47 484h87l48 -260c11 -56 19 -93 24 -130h2c14 32 30 66 53 120l118 270h88c-51 -110 -127 -273 -175 -370c-53 -104 -104 -187 -171 -252c-54 -55 -113 -78 -140 -84l-21 72c21 7 56 20 89 46c33 25 68 65 94 112c4 8 4 13 2 22z" />
    </font>
</defs>
</svg>
