<?xml version="1.0" standalone="no"?>
<!DOCTYPE svg PUBLIC "-//W3C//DTD SVG 1.1//EN" "http://www.w3.org/Graphics/SVG/1.1/DTD/svg11.dtd" >
<svg>
<metadata>
Created by FontForge 20120731 at Fri Jul 20 11:53:00 2018
 By www
Copyright 2004 Monotype Imaging Inc. All Rights Reserved. Neo Sans is designed by Sebastian Lester.
</metadata>
<defs>
<font id="NeoSansProCyrW04-Black" horiz-adv-x="666" >
  <font-face 
    font-family="NeoSansProCyrW04-Black"
    font-weight="900"
    font-stretch="normal"
    units-per-em="1000"
    panose-1="2 11 10 4 3 5 4 4 2 4"
    ascent="800"
    descent="-200"
    x-height="582"
    cap-height="743"
    bbox="-130 -216 1587 1025"
    underline-thickness="50"
    underline-position="-125"
    unicode-range="U+0020-FB04"
  />
<missing-glyph horiz-adv-x="500" 
d="M12 665h475v-665h-475v665zM250 375l161 243h-323zM60 91l7 10t18 27t25.5 39t29.5 45q35 54 81 121l-161 242v-484zM278 333l162 -243v485zM250 290l-162 -242h323z" />
    <glyph glyph-name="uniFB00" unicode="ff" horiz-adv-x="798" 
d="M765 460q0 -8 -6 -14t-14 -6h-76v-420q0 -8 -6 -14t-14 -6h-152q-8 0 -14 6t-6 14v420h-174v-420q0 -8 -6 -14t-14 -6h-152q-8 0 -14 6t-6 14v420l-66 15q-8 2 -14.5 7.5t-6.5 13.5v84q0 8 6 15t15 7h66v27q0 56 12.5 91.5t36 55.5t56 27.5t72.5 7.5q21 0 45 -2.5
t44 -6.5q9 -2 15 -7t6 -13v-94q0 -8 -6 -13.5t-15 -5.5h-42q-19 0 -25.5 -8.5t-6.5 -31.5v-27h174v27q0 56 12.5 91.5t36 55.5t56 27.5t72.5 7.5q21 0 45 -2.5t44 -6.5q9 -2 15 -7t6 -13v-94q0 -8 -6 -13.5t-15 -5.5h-42q-19 0 -25.5 -8.5t-6.5 -31.5v-27h76q8 0 14 -6
t6 -14v-102v0z" />
    <glyph glyph-name="uniFB01" unicode="fi" horiz-adv-x="730" 
d="M670 22q0 -8 -6.5 -15t-14.5 -7h-150q-8 0 -15 7t-7 15v418h-174v-420q0 -8 -6 -14t-14 -6h-152q-8 0 -14 6t-6 14v420l-66 15q-8 2 -14.5 7.5t-6.5 13.5v84q0 8 6 15t15 7h66v27q0 56 12.5 91.5t36 55.5t56 27.5t72.5 7.5q21 0 45 -2.5t44 -6.5q9 -2 15 -7t6 -13v-94
q0 -8 -6 -13.5t-15 -5.5h-42q-19 0 -25.5 -8.5t-6.5 -31.5v-27h346q8 0 14.5 -6.5t6.5 -14.5v-539zM675 657q0 -8 -7 -14t-15 -6h-158q-8 0 -15 6t-7 14v98q0 8 7 14t15 6h158q8 0 15 -6t7 -14v-98z" />
    <glyph glyph-name="uniFB02" unicode="fl" horiz-adv-x="725" 
d="M399 460q0 -8 -6 -14t-14 -6h-76v-420q0 -8 -6 -14t-14 -6h-152q-8 0 -14 6t-6 14v420l-66 15q-8 2 -14.5 7.5t-6.5 13.5v84q0 8 6 15t15 7h66v27q0 58 13.5 94t41 55.5t70.5 26t102 6.5q54 0 92 -5.5t69 -12.5h151q8 0 14 -6t6 -14v-731q0 -8 -6 -15t-14 -7h-151
q-8 0 -15 7t-7 15v627h-115q-35 0 -47 -6t-12 -34v-27h76q8 0 14 -6t6 -14v-102v0z" />
    <glyph glyph-name="uniFB03" unicode="ffi" horiz-adv-x="1111" 
d="M1051 22q0 -8 -7 -15t-15 -7h-149q-8 0 -15 7t-7 15v418h-189v-420q0 -8 -6 -14t-14 -6h-152q-8 0 -14 6t-6 14v420h-174v-420q0 -8 -6 -14t-14 -6h-152q-8 0 -14 6t-6 14v420l-66 15q-8 2 -14.5 7.5t-6.5 13.5v84q0 8 6 15t15 7h66v27q0 56 12.5 91.5t36 55.5t56 27.5
t72.5 7.5q21 0 45 -2.5t44 -6.5q9 -2 15 -7t6 -13v-94q0 -8 -6 -13.5t-15 -5.5h-42q-19 0 -25.5 -8.5t-6.5 -31.5v-27h174v27q0 56 12.5 91.5t36 55.5t56 27.5t72.5 7.5q21 0 45 -2.5t44 -6.5q9 -2 15 -7t6 -13v-94q0 -8 -6 -13.5t-15 -5.5h-42q-19 0 -25.5 -8.5t-6.5 -31.5
v-27h360q8 0 15 -6.5t7 -14.5v-539zM1056 657q0 -8 -7 -14t-15 -6h-158q-8 0 -15.5 6t-7.5 14v98q0 8 7.5 14t15.5 6h158q8 0 15 -6t7 -14v-98z" />
    <glyph glyph-name="uniFB04" unicode="ffl" horiz-adv-x="1091" 
d="M303 440v-420q0 -8 -6 -14t-14 -6h-152q-8 0 -14 6t-6 14v420l-66 15q-8 2 -14.5 7.5t-6.5 13.5v84q0 8 6 15t15 7h66v27q0 56 12.5 91.5t36 55.5t56 27.5t72.5 7.5q21 0 45 -2.5t44 -6.5q9 -2 15 -7t6 -13v-94q0 -8 -6 -13.5t-15 -5.5h-42q-19 0 -25.5 -8.5t-6.5 -31.5
v-27h174v27q0 58 13.5 94t41 55.5t70.5 26t102 6.5q54 0 92 -5.5t69 -12.5h151q8 0 14 -6t6 -14v-731q0 -8 -6 -15t-14 -7h-151q-8 0 -15 7t-7 15v627h-115q-35 0 -47 -6t-12 -34v-27h76q8 0 14 -6t6 -14v-102q0 -8 -6 -14t-14 -6h-76v-420q0 -8 -6 -14t-14 -6h-152
q-8 0 -14 6t-6 14v420h-174z" />
    <glyph glyph-name="f_b.liga" unicode="fb" horiz-adv-x="1038" 
d="M808 330q0 44 -14.5 73t-56.5 29q-18 0 -35.5 -1t-32.5 -3v-274q14 -2 29.5 -3.5t38.5 -1.5q42 0 56.5 29t14.5 74v78zM670 584q16 2 35.5 4.5t31.5 2.5q66 0 115.5 -18.5t82.5 -52.5t49 -82t16 -108v-78q0 -127 -69.5 -194t-193.5 -67q-68 0 -126.5 8.5t-97.5 16.5
q-23 5 -29.5 12t-6.5 20v601h-115q-35 0 -47 -6t-12 -34v-27h76q8 0 14 -6t6 -14v-102q0 -8 -6 -14t-14 -6h-76v-420q0 -8 -6 -14t-14 -6h-152q-8 0 -14 6t-6 14v420l-66 15q-8 2 -14.5 7.5t-6.5 13.5v84q0 8 6 15t15 7h66v27q0 58 13.5 94t41 55.5t70.5 26t102 6.5
q54 0 92 -5.5t69 -12.5h151q8 0 14 -6t6 -14v-169z" />
    <glyph glyph-name="f_f_b.liga" unicode="ffb" horiz-adv-x="1404" 
d="M1174 330q0 44 -14.5 73t-56.5 29q-18 0 -35.5 -1t-32.5 -3v-274q14 -2 29.5 -3.5t38.5 -1.5q42 0 56.5 29t14.5 74v78zM303 440v-420q0 -8 -6 -14t-14 -6h-152q-8 0 -14 6t-6 14v420l-66 15q-8 2 -14.5 7.5t-6.5 13.5v84q0 8 6 15t15 7h66v27q0 56 12.5 91.5t36 55.5
t56 27.5t72.5 7.5q21 0 45 -2.5t44 -6.5q9 -2 15 -7t6 -13v-94q0 -8 -6 -13.5t-15 -5.5h-42q-19 0 -25.5 -8.5t-6.5 -31.5v-27h174v27q0 58 13.5 94t41 55.5t70.5 26t102 6.5q54 0 92 -5.5t69 -12.5h150q8 0 14 -6t6 -14v-169l36 4.5t32 2.5q66 0 115.5 -18.5t82.5 -52.5
t49 -82t16 -108v-78q0 -127 -69.5 -194t-193.5 -67q-68 0 -126.5 8.5t-97.5 16.5q-23 5 -29.5 12t-6.5 20v601h-115q-35 0 -47 -6t-12 -34v-27h76q8 0 14 -6t6 -14v-102q0 -8 -6 -14t-14 -6h-76v-420q0 -8 -6 -14t-14 -6h-152q-8 0 -14 6t-6 14v420h-174z" />
    <glyph glyph-name="f_f_h.liga" unicode="ffh" horiz-adv-x="1421" 
d="M1035 552q32 23 67 30.5t81 7.5q54 0 89.5 -17.5t56 -48.5t29 -72t8.5 -87v-345q0 -8 -6 -14t-14 -6h-152q-8 0 -14 6t-6 14v345q0 40 -16 53t-47 13q-35 0 -76 -22v-387q0 -8 -5.5 -15t-14.5 -7h-150q-9 0 -15.5 7t-6.5 15v627h-115q-35 0 -47 -6t-12 -34v-27h76
q8 0 14 -6t6 -14v-102q0 -8 -6 -14t-14 -6h-76v-420q0 -8 -6 -14t-14 -6h-152q-8 0 -14 6t-6 14v420h-174v-420q0 -8 -6 -14t-14 -6h-152q-8 0 -14 6t-6 14v420l-66 15q-8 2 -14.5 7.5t-6.5 13.5v84q0 8 6 15t15 7h66v27q0 56 12.5 91.5t36 55.5t56 27.5t72.5 7.5
q21 0 45 -2.5t44 -6.5q9 -2 15 -7t6 -13v-94q0 -8 -6 -13.5t-15 -5.5h-42q-19 0 -25.5 -8.5t-6.5 -31.5v-27h174v27q0 58 13.5 94t41 55.5t70.5 26t102 6.5q54 0 92 -5.5t69 -12.5h150q8 0 14 -4.5t6 -14.5v-202z" />
    <glyph glyph-name="f_f_k.liga" unicode="ffk" horiz-adv-x="1415" 
d="M303 440v-420q0 -8 -6 -14t-14 -6h-152q-8 0 -14 6t-6 14v420l-66 15q-8 2 -14.5 7.5t-6.5 13.5v84q0 8 6 15t15 7h66v27q0 56 12.5 91.5t36 55.5t56 27.5t72.5 7.5q21 0 45 -2.5t44 -6.5q9 -2 15 -7t6 -13v-94q0 -8 -6 -13.5t-15 -5.5h-42q-19 0 -25.5 -8.5t-6.5 -31.5
v-27h174v27q0 58 13.5 94t41 55.5t70.5 26t102 6.5q54 0 92 -5.5t69 -12.5h150q8 0 14 -4.5t6 -14.5v-419l137 229q7 12 14 15t15 3h173q14 0 14 -12q0 -5 -3 -9l-173 -259l177 -280q2 -3 2 -8t-3.5 -9.5t-9.5 -4.5h-185q-19 0 -31 22l-127 228v-228q0 -8 -6 -15t-14 -7
h-150q-8 0 -15 7t-7 15v627h-115q-35 0 -47 -6t-12 -34v-27h76q8 0 14 -6t6 -14v-102q0 -8 -6 -14t-14 -6h-76v-420q0 -8 -6 -14t-14 -6h-152q-8 0 -14 6t-6 14v420h-174z" />
    <glyph glyph-name="f_h.liga" unicode="fh" horiz-adv-x="1055" 
d="M669 552q32 23 67 30.5t81 7.5q54 0 89.5 -17.5t56 -48.5t29 -72t8.5 -87v-345q0 -8 -6 -14t-14 -6h-152q-8 0 -14 6t-6 14v345q0 40 -16 53t-47 13q-35 0 -76 -22v-387q0 -8 -5.5 -15t-14.5 -7h-150q-9 0 -15.5 7t-6.5 15v627h-115q-35 0 -47 -6t-12 -34v-27h76
q8 0 14 -6t6 -14v-102q0 -8 -6 -14t-14 -6h-76v-420q0 -8 -6 -14t-14 -6h-152q-8 0 -14 6t-6 14v420l-66 15q-8 2 -14.5 7.5t-6.5 13.5v84q0 8 6 15t15 7h66v27q0 58 13.5 94t41 55.5t70.5 26t102 6.5q54 0 92 -5.5t69 -12.5h150q8 0 14 -6t6 -14v-201z" />
    <glyph glyph-name="f_j.liga" unicode="fj" horiz-adv-x="744" 
d="M685 -21q0 -54 -12.5 -89.5t-34.5 -57t-53.5 -30t-68.5 -8.5q-23 0 -45.5 2t-48.5 7q-20 3 -20 21v93q0 8 6 14t15 6h43q18 0 22 11t4 31v461h-189v-420q0 -8 -6 -14t-14 -6h-152q-8 0 -14 6t-6 14v420l-66 15q-8 2 -14.5 7.5t-6.5 13.5v84q0 8 6 15t15 7h66v27
q0 56 12.5 91.5t36 55.5t56 27.5t72.5 7.5q21 0 45 -2.5t44 -6.5q9 -2 15 -7t6 -13v-94q0 -8 -6 -13.5t-15 -5.5h-42q-19 0 -25.5 -8.5t-6.5 -31.5v-27h360q8 0 15 -6.5t7 -14.5v-582zM689 657q0 -8 -7 -14t-15 -6h-157q-8 0 -15 6t-7 14v98q0 8 7 14t15 6h157q8 0 15 -6
t7 -14v-98z" />
    <glyph glyph-name="f_f_j.liga" unicode="ffj" horiz-adv-x="1109" 
d="M1050 -21q0 -54 -12.5 -89.5t-34.5 -57t-53.5 -30t-68.5 -8.5q-23 0 -45.5 2t-48.5 7q-20 3 -20 21v93q0 8 6 14t15 6h43q18 0 22 11t4 31v461h-189v-420q0 -8 -6 -14t-14 -6h-152q-8 0 -14 6t-6 14v420h-173v-420q0 -8 -6 -14t-14 -6h-152q-8 0 -14 6t-6 14v420l-66 15
q-8 2 -14.5 7.5t-6.5 13.5v84q0 8 6 15t15 7h66v27q0 56 12.5 91.5t36 55.5t56 27.5t72.5 7.5q21 0 45 -2.5t44 -6.5q9 -2 15 -7t6 -13v-94q0 -8 -6 -13.5t-15 -5.5h-42q-19 0 -25.5 -8.5t-6.5 -31.5v-27h173v27q0 56 12.5 91.5t36 55.5t56 27.5t72.5 7.5q21 0 45 -2.5
t44 -6.5q9 -2 15 -7t6 -13v-94q0 -8 -6 -13.5t-15 -5.5h-42q-19 0 -25.5 -8.5t-6.5 -31.5v-27h360q8 0 15 -6.5t7 -14.5v-582zM1054 657q0 -8 -7 -14t-15 -6h-157q-8 0 -15 6t-7 14v98q0 8 7 14t15 6h157q8 0 15 -6t7 -14v-98z" />
    <glyph glyph-name="f_k.liga" unicode="fk" horiz-adv-x="1049" 
d="M669 335l137 229q7 12 14 15t15 3h173q14 0 14 -12q0 -5 -3 -9l-173 -259l177 -280q2 -3 2 -8t-3.5 -9.5t-9.5 -4.5h-185q-19 0 -31 22l-127 228v-228q0 -8 -6 -15t-14 -7h-150q-8 0 -15 7t-7 15v627h-115q-35 0 -47 -6t-12 -34v-27h76q8 0 14 -6t6 -14v-102q0 -8 -6 -14
t-14 -6h-76v-420q0 -8 -6 -14t-14 -6h-152q-8 0 -14 6t-6 14v420l-66 15q-8 2 -14.5 7.5t-6.5 13.5v84q0 8 6 15t15 7h66v27q0 58 13.5 94t41 55.5t70.5 26t102 6.5q54 0 92 -5.5t69 -12.5h150q8 0 14 -4.5t6 -14.5v-419z" />
    <glyph glyph-name=".notdef" horiz-adv-x="500" 
d="M12 665h475v-665h-475v665zM250 375l161 243h-323zM60 91l7 10t18 27t25.5 39t29.5 45q35 54 81 121l-161 242v-484zM278 333l162 -243v485zM250 290l-162 -242h323z" />
    <glyph glyph-name=".null" horiz-adv-x="0" 
 />
    <glyph glyph-name="nonmarkingreturn" horiz-adv-x="333" 
 />
    <glyph glyph-name="space" unicode=" " horiz-adv-x="252" 
 />
    <glyph glyph-name="exclam" unicode="!" horiz-adv-x="291" 
d="M245 753l-25 -491q-1 -8 -6.5 -14.5t-13.5 -6.5h-106q-8 0 -14.5 6.5t-7.5 14.5l-25 491v1q0 8 7 13.5t15 5.5h156q8 0 14 -5.5t6 -13.5v-1zM239 20q0 -8 -6 -14t-14 -6h-146q-8 0 -14 6t-6 14v139q0 8 6 14t14 6h146q8 0 14 -6t6 -14v-139z" />
    <glyph glyph-name="quotedbl" unicode="&#x22;" horiz-adv-x="504" 
d="M485 762q0 -2 -2 -8l-81 -230q-4 -10 -7.5 -14.5t-11.5 -4.5h-123q-9 0 -9 10v4.5t1 4.5l57 230q4 19 20 19h144q12 0 12 -11zM247 762q0 -2 -2 -8l-81 -230q-4 -10 -7.5 -14.5t-11.5 -4.5h-123q-9 0 -9 10v4.5t1 4.5l57 230q4 19 20 19h144q12 0 12 -11z" />
    <glyph glyph-name="numbersign" unicode="#" horiz-adv-x="715" 
d="M666 545l-11 -89q-2 -13 -18 -13h-78l-14 -145h79q7 0 12.5 -4.5t5.5 -10.5v-2l-11 -86q-1 -6 -6 -10.5t-12 -4.5h-78l-14 -161q-1 -8 -5.5 -13.5t-12.5 -5.5h-125q-8 0 -12 5t-4 12v2l13 161h-96l-14 -161q-1 -8 -5.5 -13.5t-12.5 -5.5h-127q-7 0 -11.5 5t-4.5 12v2
l14 161h-77q-16 0 -16 13v2l11 88q1 6 5.5 10.5t11.5 4.5h76l13 145h-77q-16 0 -16 13v2l11 89q2 14 18 14h74l14 163q1 8 6 13.5t13 5.5h127q7 0 11 -5t4 -12v-2l-15 -163h97l15 163q1 8 6 13.5t13 5.5h125q8 0 11.5 -5t3.5 -12v-2l-15 -163h81q7 0 12 -4t5 -10v-2z
M303 443l-14 -145h97l13 145h-96z" />
    <glyph glyph-name="dollar" unicode="$" 
d="M598 220q0 -35 -10.5 -70t-34 -65t-60 -52.5t-88.5 -33.5v-97q0 -8 -6 -14t-14 -6h-129q-8 0 -14 6t-6 14v93q-36 3 -66.5 8.5t-56.5 13.5q-8 2 -14 7t-6 13v123q0 8 5.5 14t13.5 6h2q16 -2 41.5 -4.5t54 -5t57 -4t49.5 -1.5q37 0 50 13.5t13 37.5q0 15 -9.5 25.5
t-37.5 27.5l-144 85q-35 21 -58 44t-36.5 48t-19 52t-5.5 56q0 34 8.5 64.5t28 55.5t51.5 43.5t79 27.5v88q0 8 6 14t14 6h129q8 0 14 -6t6 -14v-84q46 -4 88 -9.5t64 -11.5q8 -2 13.5 -7t5.5 -13v-124q0 -8 -5 -13.5t-13 -5.5h-2q-22 2 -50 4t-58.5 4t-61 3.5t-57.5 1.5
t-38 -8.5t-11 -25.5q0 -13 10 -23.5t42 -27.5l134 -72q73 -39 102.5 -88.5t29.5 -112.5z" />
    <glyph glyph-name="percent" unicode="%" horiz-adv-x="867" 
d="M831 170q0 -90 -39 -133t-113 -43t-113.5 43t-39.5 133v68q0 90 39.5 133t113.5 43t113 -43t39 -133v-68zM723 734q0 -3 -4 -11l-415 -701q-7 -11 -11.5 -16.5t-12.5 -5.5h-122q-13 0 -13 13q0 4 3 9l415 701q7 11 12.5 15.5t13.5 4.5h123q11 0 11 -9zM343 505
q0 -90 -39.5 -133t-113.5 -43t-113.5 43t-39.5 133v68q0 90 39.5 132.5t113.5 42.5t113.5 -42.5t39.5 -132.5v-68zM716 238q0 24 -2.5 39.5t-7.5 23.5t-11.5 11t-15.5 3t-16 -3t-12 -11t-7.5 -23.5t-2.5 -39.5v-68q0 -24 2.5 -39.5t7.5 -23.5t12 -11t16 -3t15.5 3t11.5 11
t7.5 23.5t2.5 39.5v68zM227 573q0 24 -2.5 39.5t-7.5 23.5t-11.5 11t-15.5 3t-16 -3t-12 -11t-7.5 -23.5t-2.5 -39.5v-68q0 -24 2.5 -39.5t7.5 -24t12 -11.5t16 -3q17 0 27 14.5t10 63.5v68z" />
    <glyph glyph-name="ampersand" unicode="&#x26;" horiz-adv-x="746" 
d="M742 13q0 -13 -14 -13h-171q-6 0 -9.5 2t-8.5 7l-24 24q-37 -20 -82 -31t-99 -11q-64 0 -117 11t-91.5 35t-60 62.5t-21.5 93.5v6q0 37 9.5 65.5t26.5 52t41 42.5t53 37l-9 10q-26 28 -42 50t-25 40t-12.5 34.5t-3.5 33.5v8q0 37 13.5 69.5t43 57.5t76 39.5t113.5 14.5
q61 0 106.5 -13.5t75.5 -37.5t44.5 -57t14.5 -73v-8q0 -34 -8.5 -59t-24 -45.5t-37 -37.5t-47.5 -35l-36 -25l104 -110q14 42 14 93v13q0 8 5.5 14t13.5 6h113q8 0 13.5 -6t5.5 -14v-13q0 -57 -14 -109t-42 -97l107 -113q6 -6 6 -13zM391 572q0 22 -15.5 36t-47.5 14
q-36 0 -52 -14t-16 -36v-8q0 -20 7.5 -37.5t33.5 -43.5l7 -7l24 16q35 24 47 37.5t12 34.5v8zM282 280q-26 -17 -34 -37.5t-8 -43.5v-6q0 -31 23.5 -49.5t70.5 -18.5q45 0 80 15z" />
    <glyph glyph-name="quotesingle" unicode="'" horiz-adv-x="233" 
d="M247 762q0 -2 -2 -8l-81 -230q-4 -10 -7.5 -14.5t-11.5 -4.5h-123q-9 0 -9 10v4.5t1 4.5l57 230q4 19 20 19h144q12 0 12 -11z" />
    <glyph glyph-name="parenleft" unicode="(" horiz-adv-x="389" 
d="M354 -185q0 -10 -12 -10h-130q-11 0 -19.5 3t-14.5 11q-32 45 -56.5 92.5t-41 101.5t-25 116t-8.5 135v19q0 145 33.5 251t97.5 195q6 8 14.5 11t19.5 3h130q12 0 12 -10q0 -6 -5 -16q-21 -38 -40.5 -83.5t-34.5 -99.5t-24 -116.5t-9 -134.5v-19q0 -72 9 -134.5t24 -116
t34.5 -99t40.5 -83.5q5 -10 5 -16z" />
    <glyph glyph-name="parenright" unicode=")" horiz-adv-x="389" 
d="M343 264q0 -73 -8.5 -135t-25 -116t-41 -101.5t-56.5 -92.5q-6 -8 -14.5 -11t-19.5 -3h-130q-12 0 -12 10q0 6 5 16q21 38 40.5 83.5t34.5 99t24 116t9 134.5v19q0 72 -9 134.5t-24 116.5t-34.5 99.5t-40.5 83.5q-5 10 -5 16q0 10 12 10h130q11 0 19.5 -3t14.5 -11
q64 -89 97.5 -195t33.5 -251v-19v0z" />
    <glyph glyph-name="asterisk" unicode="*" horiz-adv-x="485" 
d="M456 561q0 -12 -16 -17l-111 -32l70 -94q6 -8 6 -15q0 -8 -7 -12l-63 -46q-5 -3 -10 -3q-9 0 -16 10l-66 97l-66 -97q-7 -10 -16 -10q-6 0 -10 3l-64 46q-7 4 -7 12q0 7 6 15l70 94l-110 32q-7 2 -12 6.5t-5 10.5q0 3 1 5l25 76q3 10 13 10q3 0 5.5 -0.5t5.5 -1.5
l111 -37l-3 115v1q0 8 4 14t12 6h80q8 0 11.5 -6t3.5 -14v-1l-1 -115l109 37q3 1 5.5 1.5t5.5 0.5q10 0 13 -10l25 -76q1 -2 1 -5z" />
    <glyph glyph-name="plus" unicode="+" 
d="M580 336q0 -8 -6 -12t-14 -4h-156v-155q0 -8 -4 -14t-12 -6h-110q-8 0 -12 6t-4 14v155h-155q-8 0 -14 4t-6 12v110q0 8 6 12t14 4h155v156q0 8 4 14t12 6h110q8 0 12 -6t4 -14v-156h156q8 0 14 -4t6 -12v-110v0z" />
    <glyph glyph-name="comma" unicode="," horiz-adv-x="291" 
d="M265 165q0 -4 -1 -6l-104 -238q-4 -8 -9.5 -14t-13.5 -6h-104q-8 0 -13.5 4.5t-5.5 11.5q0 1 0.5 2t0.5 2l67 238q2 8 7.5 14t13.5 6h147q15 0 15 -14z" />
    <glyph glyph-name="hyphen" unicode="-" horiz-adv-x="282" 
d="M258 250q0 -8 -6 -13.5t-14 -5.5h-193q-8 0 -14 5.5t-6 13.5v102q0 8 6 13.5t14 5.5h193q8 0 14 -5.5t6 -13.5v-102v0z" />
    <glyph glyph-name="period" unicode="." horiz-adv-x="291" 
d="M239 20q0 -8 -6.5 -14t-14.5 -6h-145q-8 0 -14.5 6t-6.5 14v139q0 8 6.5 14t14.5 6h145q8 0 14.5 -6t6.5 -14v-139v0z" />
    <glyph glyph-name="slash" unicode="/" horiz-adv-x="425" 
d="M413 727q0 -1 -0.5 -2t-0.5 -2l-205 -701q-2 -8 -7.5 -15t-13.5 -7h-153q-8 0 -15 5.5t-7 12.5q0 2 0.5 2.5t0.5 1.5l206 701q2 8 8 14t14 6h153q8 0 14 -4.5t6 -11.5z" />
    <glyph glyph-name="zero" unicode="0" 
d="M611 323q0 -87 -18.5 -149.5t-54 -103t-87 -60t-118.5 -19.5q-134 0 -206 79.5t-72 252.5v97q0 173 72 253t206 80q133 0 205.5 -80t72.5 -253v-97zM407 420q0 51 -5.5 82.5t-15.5 49t-23.5 23.5t-29.5 6t-29.5 -6t-23.5 -23.5t-15.5 -49t-5.5 -82.5v-97q0 -51 5.5 -82.5
t15.5 -49t23.5 -23.5t29.5 -6t29.5 6t23.5 23.5t15.5 49t5.5 82.5v97z" />
    <glyph glyph-name="one" unicode="1" 
d="M232 171v370l-117 -42q-8 -3 -12 -3q-10 0 -10 12v142q0 12 12 17l172 72q9 4 23 4h115q19 0 19 -19v-553h119q8 0 14 -6t6 -14v-131q0 -8 -6 -14t-14 -6h-441q-8 0 -14 6t-6 14v131q0 8 6 14t14 6h120z" />
    <glyph glyph-name="two" unicode="2" 
d="M592 555q0 -59 -27 -104.5t-78 -78.5l-81 -54q-29 -19 -55.5 -36t-47 -34t-32.5 -35t-12 -39v-3h302q8 0 14 -6t6 -14v-131q0 -8 -6 -14t-14 -6h-466q-8 0 -14 6t-6 14v106q0 83 33 145t86 101l86 64q40 30 62.5 47t33.5 27.5t13.5 18t2.5 18.5q0 12 -3.5 20.5t-14 14
t-28.5 8t-48 2.5q-48 0 -98 -4t-97 -8h-2q-8 0 -13 6t-5 14v97q0 8 5.5 12t13.5 7q45 16 103.5 26.5t121.5 10.5q72 0 122.5 -12.5t82 -37t46 -62t14.5 -86.5z" />
    <glyph glyph-name="three" unicode="3" 
d="M590 216q0 -59 -19 -101t-54.5 -70t-86 -41t-113.5 -13q-31 0 -62.5 3t-61 7.5t-54.5 10.5t-43 13q-8 3 -14 7.5t-6 12.5v98q0 8 5 13.5t13 5.5h2q23 -2 50 -3.5t54.5 -3t54 -2.5t49.5 -1q46 0 65.5 17t19.5 47v16q0 14 -3 27t-11 22.5t-23.5 15.5t-40.5 6h-166
q-8 0 -14 6t-6 14v107q0 8 6 13.5t14 5.5h166q24 0 39 6.5t23.5 17t12 24t3.5 26.5v16q0 30 -19.5 41t-57.5 11q-52 0 -107 -3.5t-104 -7.5h-2q-8 0 -13.5 5.5t-5.5 13.5v98q0 8 6.5 12.5t14.5 7.5q18 7 41.5 13.5t51 11.5t57.5 8t61 3q63 0 114 -10.5t87 -34t55.5 -62
t19.5 -94.5v-14q0 -42 -22 -86t-69 -73q42 -22 67.5 -59t25.5 -88v-16v0z" />
    <glyph glyph-name="four" unicode="4" 
d="M623 175q0 -8 -6 -14t-14 -6h-58v-135q0 -8 -6 -14t-14 -6h-164q-8 0 -13.5 6t-5.5 14v135h-279q-8 0 -14 6t-6 14v113q0 16 11 30l324 416q5 6 10.5 7.5t13.5 1.5h123q8 0 14 -6t6 -14v-414h58q8 0 14 -6t6 -14v-114zM350 499q0 4 -2 4q-1 0 -3 -2l-138 -183
q-3 -5 -3 -6q0 -3 5 -3h141v190z" />
    <glyph glyph-name="five" unicode="5" 
d="M587 238q0 -62 -20 -108.5t-56.5 -77.5t-89 -46t-118.5 -15q-52 0 -104.5 8.5t-97.5 24.5q-8 3 -14.5 7t-6.5 14v99q0 8 5.5 13.5t13.5 5.5h2q18 -2 42.5 -4t49 -3.5t45 -2.5t30.5 -1q36 0 58 5t34 15.5t16 26.5t4 39v10q0 37 -22 53t-84 16h-175q-17 0 -17 16v2l31 389
q1 8 6.5 13.5t13.5 5.5h414q8 0 14 -5.5t6 -13.5v-124q0 -8 -6 -13.5t-14 -5.5h-272l-10 -110h41q146 0 213.5 -55.5t67.5 -167.5v-10v0z" />
    <glyph glyph-name="six" unicode="6" 
d="M606 248q0 -59 -17 -106t-51 -81t-85 -52t-118 -18q-131 0 -202.5 71t-71.5 208v206q0 75 21.5 127.5t59.5 86t88.5 48.5t109.5 15q70 0 121.5 -8t87.5 -18q14 -4 18 -9.5t4 -14.5v-105q0 -21 -18 -21h-5q-18 3 -39.5 5.5t-45.5 4.5t-48 3t-46 1q-33 0 -54.5 -5
t-33.5 -18t-16.5 -35.5t-4.5 -56.5v-6q7 1 20 3t27.5 3.5t29 2.5t25.5 1q61 0 107 -11t76.5 -36.5t45.5 -68t15 -105.5v-11zM407 259q0 26 -5 42t-14.5 25t-24 12t-33.5 3q-18 0 -37.5 -2t-32.5 -4v-65q0 -39 4 -63.5t13 -38t23 -18.5t35 -5q16 0 29 4t22.5 15.5t15 31.5
t5.5 52v11z" />
    <glyph glyph-name="seven" unicode="7" 
d="M582 625q0 -12 -4.5 -23t-9.5 -22l-256 -560q-4 -9 -9 -14.5t-14 -5.5h-178q-10 0 -12.5 7t1.5 15l257 544q5 9 2.5 12t-10.5 3h-244q-8 0 -14.5 5.5t-6.5 13.5v124q0 8 6.5 13.5t14.5 5.5h450q11 0 19 -7.5t8 -18.5v-92v0z" />
    <glyph glyph-name="eight" unicode="8" 
d="M613 212q0 -50 -17.5 -90.5t-52 -69.5t-86 -45t-118.5 -16h-12q-67 0 -118.5 16t-86 45t-52 69.5t-17.5 90.5v16q0 49 21.5 89t58.5 68q-35 25 -55.5 59.5t-20.5 84.5v18q0 99 67 152.5t203 53.5h12q135 0 202.5 -53.5t67.5 -152.5v-18q0 -50 -20.5 -84.5t-55.5 -59.5
q37 -28 58.5 -68t21.5 -89v-16zM417 529q0 29 -17 52.5t-61 23.5h-12q-44 0 -61 -23t-17 -53v-6q0 -33 19 -52t54 -19h22q35 0 54 19t19 52v6zM417 232q0 33 -17 57.5t-56 24.5h-22q-39 0 -56 -24t-17 -58v-11q0 -36 20 -59t58 -23h12q38 0 58 23t20 59v11z" />
    <glyph glyph-name="nine" unicode="9" 
d="M606 268q0 -75 -21.5 -127.5t-59.5 -86t-89 -48.5t-109 -15q-70 0 -121.5 8t-87.5 18q-14 4 -18 9.5t-4 14.5v105q0 14 5 18.5t18 2.5q37 -5 85.5 -9.5t93.5 -4.5q33 0 54.5 5t33.5 18t16.5 35t4.5 57v6q-7 -2 -20 -3.5t-27.5 -3t-29 -2.5t-25.5 -1q-62 0 -107.5 11
t-76 36.5t-45.5 68t-15 105.5v11q0 58 17 105.5t51 81.5t85 52t118 18q131 0 202.5 -71t71.5 -208v-206zM407 474q0 39 -4 63.5t-13 38t-23 18.5t-35 5q-16 0 -29 -4t-22.5 -15.5t-15 -31.5t-5.5 -52v-11q0 -26 5 -42t14.5 -25t24 -12t33.5 -3q18 0 37.5 2t32.5 4v65z" />
    <glyph glyph-name="colon" unicode=":" horiz-adv-x="291" 
d="M239 391q0 -8 -6.5 -14t-14.5 -6h-145q-8 0 -14.5 6t-6.5 14v139q0 8 6.5 14t14.5 6h145q8 0 14.5 -6t6.5 -14v-139zM239 20q0 -8 -6.5 -14t-14.5 -6h-145q-8 0 -14.5 6t-6.5 14v139q0 8 6.5 14t14.5 6h145q8 0 14.5 -6t6.5 -14v-139z" />
    <glyph glyph-name="semicolon" unicode=";" horiz-adv-x="291" 
d="M239 391q0 -8 -6.5 -14t-14.5 -6h-146q-8 0 -14 6t-6 14v139q0 8 6 14t14 6h146q8 0 14.5 -6t6.5 -14v-139zM223 178q8 0 11.5 -6t-0.5 -14l-103 -238q-4 -8 -8 -14t-12 -6h-108q-8 0 -14.5 4.5t-3.5 15.5l67 238q2 8 6 14t15 6h150z" />
    <glyph glyph-name="less" unicode="&#x3c;" 
d="M562 148q0 -12 -12 -12h-168q-16 0 -26 10l-234 213q-18 16 -18 32q0 18 18 33l234 212q6 5 12 8t14 3h168q12 0 12 -12q0 -6 -6 -12l-257 -232l257 -231q6 -6 6 -12z" />
    <glyph glyph-name="equal" unicode="=" 
d="M569 471q0 -8 -6 -12t-14 -4h-432q-8 0 -14 4t-6 12v110q0 8 6 12t14 4h432q8 0 14 -4t6 -12v-110zM569 201q0 -8 -6 -12t-14 -4h-432q-8 0 -14 4t-6 12v110q0 8 6 12t14 4h432q8 0 14 -4t6 -12v-110z" />
    <glyph glyph-name="greater" unicode="&#x3e;" 
d="M562 391q0 -16 -18 -32l-234 -213q-10 -10 -26 -10h-168q-12 0 -12 12q0 6 6 12l258 231l-258 232q-6 6 -6 12q0 12 12 12h168q8 0 14 -3t12 -8l234 -212q18 -15 18 -33z" />
    <glyph glyph-name="question" unicode="?" horiz-adv-x="492" 
d="M456 601q0 -64 -51 -137l-106 -153q-11 -15 -15 -25t-6 -26q-1 -6 -6 -10t-10 -4h-139q-10 0 -10 13v35q0 36 6 59.5t23 53.5l81 138q5 8 8 15t3 15q0 15 -10 21t-35 6q-10 0 -28 -1.5t-38 -3t-38 -3.5l-27 -3q-20 -3 -20 20v117q0 17 19 23q33 11 76.5 18t89.5 7
q55 0 98.5 -8.5t73.5 -28t45.5 -51t15.5 -78.5v-9zM288 20q0 -8 -6.5 -14t-14.5 -6h-146q-8 0 -14 6t-6 14v139q0 8 6 14t14 6h146q8 0 14.5 -6t6.5 -14v-139z" />
    <glyph glyph-name="at" unicode="@" horiz-adv-x="778" 
d="M749 358q0 -88 -29 -148t-80 -97.5t-119.5 -54t-146.5 -16.5q-38 0 -71.5 8t-58 25t-38.5 43.5t-14 63.5q0 11 1 27t2 26l7 88q4 47 21 80t44 53.5t63 30t78 9.5q32 0 67.5 -4t68.5 -12q14 -3 21.5 -9t5.5 -25l-28 -293q28 6 50 23.5t36.5 44.5t22 61.5t7.5 75.5
q0 44 -13 85t-41.5 73t-73 51t-107.5 19q-263 0 -286 -242l-15 -165q-1 -9 -1 -18v-17q0 -45 13.5 -80t43 -59t76.5 -36.5t114 -12.5q38 0 78 2.5t75 5.5q7 1 8.5 -1t1.5 -10v-45q0 -11 -10 -12q-33 -4 -71 -7.5t-82 -3.5q-72 0 -134 15.5t-107.5 47.5t-71.5 80.5t-26 115.5
v17.5t1 17.5l17 171q7 74 35.5 132.5t76 99t114 62t150.5 21.5q83 0 144 -26t101.5 -68.5t60 -98t19.5 -114.5zM433 383q-11 2 -18.5 3t-16.5 1q-33 0 -47 -13.5t-18 -54.5l-11 -110q-1 -5 -1 -8.5v-7.5q0 -26 14 -34.5t48 -8.5h11.5t17.5 1z" />
    <glyph glyph-name="A" unicode="A" horiz-adv-x="692" 
d="M483 0q-11 0 -14.5 5.5t-5.5 13.5l-28 139h-178l-28 -139q-2 -8 -5.5 -13.5t-14.5 -5.5h-173q-11 0 -14.5 6.5t-1.5 14.5l134 612q8 37 26 60.5t43 36.5t56 17.5t67 4.5t67 -4.5t56 -17.5t43 -36.5t26 -60.5l134 -612q2 -9 -1 -15t-14 -6h-174zM357 572l-3 10.5t-8 3.5
t-8 -3.5l-3 -10.5l-49 -254h120z" />
    <glyph glyph-name="B" unicode="B" horiz-adv-x="689" 
d="M646 222q0 -72 -28.5 -117.5t-74.5 -70.5t-104.5 -34t-118.5 -9q-19 0 -45 0.5t-52.5 2t-51.5 4t-43 5.5t-30 7.5t-19.5 13t-10.5 22t-3 33.5v587q0 40 13.5 55t48.5 20q16 3 40.5 5t51.5 3.5t53 2.5t45 1q74 0 134 -10t102.5 -34t65.5 -65.5t23 -104.5v-17
q0 -48 -21.5 -85.5t-55.5 -56.5q34 -20 57.5 -58.5t23.5 -86.5v-13zM446 524q0 34 -19 49t-72 15h-21t-28.5 -0.5t-26 -0.5h-14.5v-142h97q49 0 66.5 18.5t17.5 44.5v16zM450 237q0 30 -19 51t-69 21h-97v-153h82q59 0 81 20t22 52v9z" />
    <glyph glyph-name="C" unicode="C" horiz-adv-x="555" 
d="M517 31q0 -10 -5 -14t-17 -8q-20 -7 -56 -12.5t-84 -5.5q-69 0 -126 19t-97.5 59.5t-62.5 102.5t-22 148v103q0 86 22 148t62.5 102.5t97.5 59.5t126 19q48 0 84 -5.5t56 -12.5q12 -4 17 -7.5t5 -14.5v-128q0 -11 -4 -16t-17 -3q-31 3 -64 6t-76 3q-20 0 -39 -5.5
t-33 -22t-22.5 -46t-8.5 -77.5v-103q0 -47 8.5 -76.5t22.5 -46t32.5 -22.5t39.5 -6q43 0 75 2.5t65 6.5q14 2 17.5 -4t3.5 -15v-128v0z" />
    <glyph glyph-name="D" unicode="D" horiz-adv-x="696" 
d="M651 317q0 -84 -23 -145.5t-65 -101.5t-102 -59.5t-135 -19.5q-72 0 -131 5t-98 12q-17 3 -24.5 11t-7.5 28v650q0 20 7.5 28t24.5 11q39 7 98 12t131 5q74 0 134 -19.5t102.5 -59.5t65.5 -101.5t23 -145.5v-110zM446 427q0 45 -7.5 74.5t-22.5 46.5t-37.5 24t-52.5 7
h-22t-35 -1v-413q3 0 10 -0.5t16 -0.5h17.5h13.5q30 0 52.5 7t37.5 24t22.5 47t7.5 75v110z" />
    <glyph glyph-name="E" unicode="E" horiz-adv-x="585" 
d="M532 23q0 -17 -20 -20q-29 -4 -76.5 -8t-120.5 -4q-48 0 -94 7.5t-82 31.5t-58 68t-22 117v314q0 72 22 116t58 68t82 32t94 8q73 0 120.5 -4t76.5 -8q20 -3 20 -20v-122q0 -8 -6 -14t-14 -6h-202q-27 0 -37.5 -10.5t-10.5 -39.5v-73h246q8 0 14 -6t6 -14v-118
q0 -8 -6 -14t-14 -6h-246v-83q0 -29 10.5 -39.5t37.5 -10.5h202q8 0 14 -6t6 -14v-122v0z" />
    <glyph glyph-name="F" unicode="F" horiz-adv-x="580" 
d="M527 598q0 -8 -6 -14t-14 -6h-202q-27 0 -37.5 -10.5t-10.5 -39.5v-72h246q8 0 14 -6t6 -14v-118q0 -8 -6 -14t-14 -6h-246v-278q0 -8 -6 -14t-14 -6h-163q-8 0 -14 6t-6 14v508q0 72 22 116t58 68t82 32t94 8q73 0 120.5 -4t76.5 -8q20 -3 20 -20v-122v0z" />
    <glyph glyph-name="G" unicode="G" horiz-adv-x="657" 
d="M599 38q0 -11 -4.5 -16t-16.5 -7q-43 -9 -100.5 -16.5t-130.5 -7.5q-30 0 -64 5.5t-67.5 19.5t-64.5 37.5t-54.5 60t-37.5 87t-14 118.5v105q0 103 30 167t76 100t102 49t108 13q78 0 133 -9.5t86 -17.5q11 -3 15 -6t4 -13v-126q0 -11 -4 -14t-13 -2q-29 2 -83 5.5
t-110 3.5q-36 0 -62 -6.5t-43 -23t-25 -46t-8 -74.5v-106q0 -50 9.5 -80.5t24 -46.5t31 -21t31.5 -5q29 0 55 3v205q0 8 5.5 14t13.5 6h158q8 0 14 -6t6 -14v-335v0z" />
    <glyph glyph-name="H" unicode="H" horiz-adv-x="746" 
d="M681 20q0 -8 -6 -14t-14 -6h-163q-8 0 -14 6t-6 14v272h-209v-272q0 -8 -6 -14t-14 -6h-163q-8 0 -14.5 6t-6.5 14v704q0 8 6.5 13.5t14.5 5.5h163q8 0 14 -5.5t6 -13.5v-256h209v256q0 8 6 13.5t14 5.5h163q8 0 14 -5.5t6 -13.5v-704v0z" />
    <glyph glyph-name="I" unicode="I" horiz-adv-x="334" 
d="M269 20q0 -8 -6 -14t-14 -6h-164q-8 0 -14 6t-6 14v704q0 8 6 13.5t14 5.5h164q8 0 14 -5.5t6 -13.5v-704v0z" />
    <glyph glyph-name="J" unicode="J" horiz-adv-x="334" 
d="M269 2q0 -58 -13 -95.5t-36 -59.5t-56 -30.5t-72 -8.5q-21 0 -44 1.5t-47 5.5q-12 2 -16 7t-4 13v109q0 8 6 14t14 6h37q17 0 22 9.5t5 28.5v721q0 8 6.5 14t14.5 6h163q8 0 14 -6t6 -14v-721v0z" />
    <glyph glyph-name="K" unicode="K" horiz-adv-x="713" 
d="M689 11q0 -11 -13 -11h-210q-9 0 -13 5t-8 12l-176 319v-316q0 -8 -6 -14t-14 -6h-163q-8 0 -14.5 6t-6.5 14v704q0 8 6.5 13.5t14.5 5.5h163q8 0 14 -5.5t6 -13.5v-317l192 320q4 7 9 11.5t13 4.5h192q14 0 14 -11q0 -6 -4 -11l-218 -344l219 -356q3 -5 3 -10z" />
    <glyph glyph-name="L" unicode="L" horiz-adv-x="522" 
d="M499 23q0 -17 -20 -20q-14 -3 -32.5 -5t-39.5 -3.5t-43 -2.5t-42 -1q-48 0 -94 7.5t-82.5 31.5t-58.5 68t-22 117v508q0 8 6.5 14t14.5 6h163q8 0 14 -6t6 -14v-508q0 -29 10.5 -39.5t37.5 -10.5h162q8 0 14 -6t6 -14v-122v0z" />
    <glyph glyph-name="M" unicode="M" horiz-adv-x="841" 
d="M484 249q-12 -19 -29 -19h-69q-17 0 -29 19l-82 137q-5 7 -6.5 9t-4.5 2q-4 0 -4 -10v-370q0 -6 -4 -11.5t-10 -5.5h-165q-6 0 -11 2.5t-5 14.5v689q0 15 11 26t26 11h111q19 0 31 -8t20 -22l145 -253q7 -12 11 -12q5 0 12 12l145 253q8 14 20 22t31 8h111q15 0 26 -11
t11 -26v-689q0 -8 -5.5 -12.5t-11.5 -4.5h-164q-6 0 -10.5 3t-4.5 14v370q0 10 -4 10q-3 0 -4 -2t-6 -9z" />
    <glyph glyph-name="N" unicode="N" horiz-adv-x="746" 
d="M681 37q0 -15 -11 -26t-26 -11h-134q-26 0 -42 27l-197 335q-5 8 -10 8t-5 -9v-341q0 -8 -6 -14t-14 -6h-150q-8 0 -14.5 6t-6.5 14v686q0 15 11 26t26 11h132q14 0 23 -7.5t17 -21.5l203 -345q5 -9 9 -9q2 0 3.5 1.5t1.5 7.5v354q0 8 6 14t14 6h150q8 0 14 -6t6 -14
v-686v0z" />
    <glyph glyph-name="O" unicode="O" horiz-adv-x="708" 
d="M661 320q0 -92 -24.5 -154.5t-66.5 -101.5t-98 -56t-118 -17t-118 17t-98 56t-66.5 101.5t-24.5 154.5v103q0 91 24.5 154t66.5 102t98 56.5t118 17.5t118 -17.5t98 -56.5t66.5 -102t24.5 -154v-103zM455 423q0 81 -24 116t-77 35t-77 -35t-24 -116v-103q0 -81 24 -115.5
t77 -34.5t77 34.5t24 115.5v103z" />
    <glyph glyph-name="P" unicode="P" horiz-adv-x="677" 
d="M646 494q0 -74 -28 -122.5t-72.5 -77.5t-99.5 -40.5t-109 -11.5q-17 0 -34 1t-37 2v-225q0 -8 -6 -14t-14 -6h-160q-8 0 -14.5 5t-6.5 13v656q0 36 13 48.5t45 17.5q19 3 44 5.5t53.5 4t57.5 2.5t56 1q56 0 111.5 -11t100 -39.5t72.5 -77t28 -123.5v-8zM444 502
q0 44 -28 62.5t-79 18.5h-13.5t-22.5 -0.5t-22.5 -0.5h-12.5v-170q2 0 12.5 -0.5t22.5 -0.5h23h13q107 0 107 83v8z" />
    <glyph glyph-name="Q" unicode="Q" horiz-adv-x="707" 
d="M660 320q0 -72 -16 -126.5t-44 -93.5t-66.5 -63t-83.5 -35v-19q0 -13 4 -16t14 -3h83q11 0 18 -4t7 -12v-102q0 -17 -24 -23q-26 -7 -57.5 -11t-66.5 -4q-33 0 -63.5 8t-54 28t-37.5 53.5t-14 84.5v20q-46 11 -84.5 34.5t-67 62t-44.5 93.5t-16 128v103q0 91 24.5 154
t66.5 102t98 56t118 17t117.5 -17t97.5 -56t66.5 -102t24.5 -154v-103zM455 423q0 81 -24 116t-77 35t-77.5 -35t-24.5 -116v-103q0 -81 24.5 -116t77.5 -35t77 35t24 116v103z" />
    <glyph glyph-name="R" unicode="R" horiz-adv-x="708" 
d="M673 15q0 -15 -17 -15h-184q-8 0 -12 6t-8 14l-127 244h-22.5t-34.5 1v-245q0 -8 -6 -14t-14 -6h-162q-8 0 -14.5 6t-6.5 14v654q0 36 13 48.5t45 17.5q15 2 40 4.5t54 4.5t59.5 3t57.5 1q70 0 127.5 -12t98.5 -40.5t64 -74.5t23 -115v-16q0 -40 -10 -72t-27 -56.5
t-39 -41.5t-46 -27l145 -272q3 -6 3 -11zM445 511q0 71 -100 71h-11h-19t-23.5 -0.5t-23.5 -1.5v-159q2 0 12.5 -0.5t23.5 -0.5h24h13q58 0 81 19.5t23 54.5v17z" />
    <glyph glyph-name="S" unicode="S" horiz-adv-x="607" 
d="M568 220q0 -42 -15.5 -83t-49 -73.5t-87.5 -52.5t-131 -20q-62 0 -112 7.5t-90 18.5q-8 2 -14.5 7t-6.5 13v123q0 21 21 20q16 -2 42.5 -4.5t55.5 -4.5t57 -4t48 -2q37 0 50 13.5t13 37.5q0 15 -9.5 25.5t-37.5 27.5l-144 85q-35 21 -58 44t-36.5 48t-19 52t-5.5 56
q0 41 12.5 77t42.5 63t80.5 43t126.5 16q30 0 63 -2t64.5 -6t58 -8.5t41.5 -8.5q7 -2 12.5 -6.5t5.5 -12.5v-125q0 -8 -4 -14t-16 -5q-15 1 -42.5 3t-59.5 4.5t-65 4t-60 1.5q-28 0 -39 -9t-11 -25q0 -14 10 -24t42 -27l135 -72q73 -39 102.5 -88.5t29.5 -112.5z" />
    <glyph glyph-name="T" unicode="T" horiz-adv-x="594" 
d="M570 596q0 -8 -6.5 -13.5t-14.5 -5.5h-149v-557q0 -8 -6 -14t-14 -6h-163q-8 0 -14 6t-6 14v557h-152q-8 0 -14 5.5t-6 13.5v128q0 8 6 13.5t14 5.5h504q8 0 14.5 -5.5t6.5 -13.5v-128v0z" />
    <glyph glyph-name="U" unicode="U" horiz-adv-x="731" 
d="M668 282q0 -91 -25.5 -147.5t-67.5 -88.5t-96.5 -43.5t-113.5 -11.5t-113.5 11.5t-96.5 43.5t-67 88.5t-25 147.5v441q0 8 6.5 14t14.5 6h162q8 0 14 -6t6 -14v-441q0 -68 23 -94t76 -26t76.5 26t23.5 94v441q0 8 6 14t14 6h162q8 0 14.5 -6t6.5 -14v-441v0z" />
    <glyph glyph-name="V" unicode="V" horiz-adv-x="716" 
d="M669 743q11 0 14 -6t1 -14l-134 -612q-8 -37 -25.5 -60.5t-42.5 -36.5t-56.5 -18t-67.5 -5t-67.5 5t-56.5 18t-42.5 36.5t-25.5 60.5l-134 612q-2 8 1.5 14t14.5 6h173q11 0 15 -5.5t6 -13.5l105 -553q2 -7 3.5 -10.5t7.5 -3.5t8 3.5t4 10.5l105 553q2 8 7 13.5t13 5.5
h174v0z" />
    <glyph glyph-name="W" unicode="W" horiz-adv-x="917" 
d="M880 743q17 0 16 -13l-88 -645q-4 -26 -10.5 -42.5t-16.5 -26t-23.5 -13t-29.5 -3.5h-103q-33 0 -50.5 17t-30.5 60l-74 252q-2 6 -3 7.5t-5 1.5t-5.5 -1.5t-3.5 -7.5l-74 -252q-13 -43 -30.5 -60t-50.5 -17h-103q-17 0 -30 3.5t-23 13t-16.5 26t-10.5 42.5l-88 645
q-1 8 3.5 10.5t12.5 2.5h170q8 0 11 -5.5t4 -13.5l49 -443q2 -13 7 -13t8 13l58 202q7 25 21.5 34t37.5 9h105q23 0 37.5 -9t21.5 -34l58 -202q3 -13 8 -13t7 13l49 443q1 8 4 13.5t11 5.5h170v0z" />
    <glyph glyph-name="X" unicode="X" horiz-adv-x="736" 
d="M705 11q0 -11 -13 -11h-203q-9 0 -14.5 5t-10.5 13l-108 178l-96 -176q-5 -8 -10.5 -14t-13.5 -6h-187q-6 0 -9.5 3.5t-3.5 8.5q0 2 2 8l204 368l-202 336q-2 4 -2 7q0 12 13 12h204q8 0 13.5 -6t10.5 -13l103 -170l88 170q4 7 10 13t14 6h188q13 0 13 -12q0 -3 -2 -7
l-201 -354l210 -350q3 -5 3 -9z" />
    <glyph glyph-name="Y" unicode="Y" horiz-adv-x="682" 
d="M662 730q0 -2 -2 -8l-147 -345q-16 -37 -33.5 -57.5t-37.5 -28.5v-271q0 -8 -6 -14t-14 -6h-163q-8 0 -13.5 6t-5.5 14v271q-20 8 -37.5 28.5t-33.5 57.5l-147 345q-2 6 -2 8q0 13 14 13h174q15 0 19.5 -5.5t7.5 -13.5l96 -265q4 -10 10 -10t10 10l96 265q3 8 7 13.5
t20 5.5h174q14 0 14 -13z" />
    <glyph glyph-name="Z" unicode="Z" horiz-adv-x="632" 
d="M577 20q0 -8 -6 -14t-14 -6h-471q-13 0 -22 6.5t-9 19.5v105q0 11 4 22t14 27l239 369q4 7 4 12q0 7 -11 7h-219q-8 0 -14 6t-6 14v136q0 8 6 13.5t14 5.5h456q10 0 18 -3t8 -13v-126q0 -8 -5.5 -24.5t-26.5 -48.5l-218 -334q-4 -5 -4 -11q0 -8 12 -8h231q8 0 14 -5.5
t6 -13.5v-136v0z" />
    <glyph glyph-name="bracketleft" unicode="[" horiz-adv-x="394" 
d="M361 -176q0 -18 -19 -18h-268q-8 0 -12.5 5.5t-4.5 13.5v899q0 8 4.5 13.5t12.5 5.5h267q8 0 14 -5t6 -13v-113q0 -8 -6 -13t-14 -5h-90v-639h91q19 0 19 -18v-113v0z" />
    <glyph glyph-name="backslash" unicode="\" horiz-adv-x="425" 
d="M414 15q0 -7 -7 -12t-15 -5h-153q-8 0 -13 6.5t-7 14.5l-207 704q0 1 -0.5 2t-0.5 2q0 7 6.5 11.5t14.5 4.5h153q8 0 14 -6t8 -14l206 -704q0 -1 0.5 -1.5t0.5 -2.5z" />
    <glyph glyph-name="bracketright" unicode="]" horiz-adv-x="394" 
d="M337 -175q0 -8 -4.5 -13.5t-12.5 -5.5h-268q-19 0 -19 18v113q0 18 19 18h91v639h-90q-8 0 -14 5t-6 13v113q0 8 6 13t14 5h267q8 0 12.5 -5.5t4.5 -13.5v-899v0z" />
    <glyph glyph-name="asciicircum" unicode="^" 
d="M607 576q0 -10 -12 -10h-159q-14 0 -19.5 3t-12.5 11l-71 77l-71 -77q-7 -8 -12.5 -11t-19.5 -3h-158q-12 0 -12 10q0 5 5 12l109 147q8 11 14.5 14.5t21.5 3.5h246q15 0 21.5 -3.5t14.5 -14.5l110 -147q5 -7 5 -12z" />
    <glyph glyph-name="underscore" unicode="_" horiz-adv-x="561" 
d="M593 -108q0 -8 -6 -12t-14 -4h-584q-8 0 -14 4t-6 12v58q0 8 6 12t14 4h584q8 0 14 -4t6 -12v-58v0z" />
    <glyph glyph-name="grave" unicode="`" horiz-adv-x="472" 
d="M314 640q0 -7 -9 -7h-129q-11 0 -14.5 3t-9.5 8l-126 120q-4 4 -4 8q0 7 11 7h158q11 0 16 -3.5t12 -11.5l91 -114q4 -4 4 -10z" />
    <glyph glyph-name="a" unicode="a" horiz-adv-x="575" 
d="M525 20q0 -8 -6 -14t-14 -6h-139q-8 0 -14 6t-6 14v21q-29 -21 -65 -35.5t-78 -14.5q-30 0 -60 9t-55 30t-40.5 55t-15.5 85v12q0 90 66.5 126.5t191.5 36.5h43v29q0 37 -14 47.5t-52 10.5q-21 0 -47 -1t-50.5 -2t-45.5 -2t-31 -2q-13 -1 -17.5 5t-4.5 15v97q0 11 5.5 16
t14.5 8q12 4 33.5 8t46.5 7.5t52 6t51 2.5q54 0 100 -10.5t79.5 -36t52.5 -67t19 -102.5v-354zM339 241h-49q-38 0 -54 -13t-16 -45v-10q0 -26 15 -35t36 -9q18 0 36.5 4.5t31.5 10.5v97z" />
    <glyph glyph-name="b" unicode="b" horiz-adv-x="616" 
d="M578 252q0 -127 -69.5 -194t-193.5 -67q-68 0 -126.5 8.5t-97.5 16.5q-23 5 -29.5 12t-6.5 20v705q0 8 7 14t15 6h150q8 0 14 -6t6 -14v-169l36 4.5t32 2.5q66 0 115.5 -18.5t82.5 -52.5t49 -82t16 -108v-78zM386 330q0 44 -14.5 73t-56.5 29q-18 0 -35.5 -1t-32.5 -3
v-274q14 -2 29.5 -3.5t38.5 -1.5q42 0 56.5 29t14.5 74v78z" />
    <glyph glyph-name="c" unicode="c" horiz-adv-x="474" 
d="M436 28q0 -10 -5 -14.5t-15 -6.5q-26 -6 -59 -11t-78 -5q-115 0 -177 69t-62 193v75q0 123 62 193t177 70q45 0 80.5 -5.5t56.5 -10.5q10 -2 15 -6.5t5 -14.5v-113q0 -9 -5 -15t-16 -4q-26 2 -52 4.5t-63 2.5q-32 0 -50 -22.5t-18 -78.5v-75q0 -56 18 -78t50 -22
q37 0 63 1.5t52 4.5q21 3 21 -19v-112v0z" />
    <glyph glyph-name="d" unicode="d" horiz-adv-x="616" 
d="M561 48q0 -13 -6 -20t-29 -12q-39 -8 -97.5 -16.5t-126.5 -8.5q-124 0 -193.5 66.5t-69.5 194.5v78q0 60 16 108t49 82t82.5 52.5t115.5 18.5q12 0 32 -2.5l36 -4.5v169q0 8 6 14t14 6h149q8 0 15 -6t7 -14v-705zM370 428q-15 2 -32.5 3t-35.5 1q-42 0 -57 -28.5
t-15 -73.5v-78q0 -45 15 -74t57 -29q22 0 38 1.5t30 3.5v274z" />
    <glyph glyph-name="e" unicode="e" horiz-adv-x="602" 
d="M562 259q0 -10 -6 -16t-15 -6h-311v-2q0 -40 20 -63t75 -23q20 0 46.5 1t53.5 2t51 2.5t39 2.5q12 1 17 -2.5t5 -14.5v-90q0 -12 -4 -18t-16 -10q-48 -16 -101 -23.5t-116 -7.5q-51 0 -98 14t-83 45.5t-57.5 81t-21.5 121.5v66q0 132 71.5 202t194.5 70q66 0 114 -20
t79.5 -56t47 -86t15.5 -110v-60zM378 346q0 45 -18 70.5t-56 25.5q-36 0 -55 -25.5t-19 -70.5v-3h148v3z" />
    <glyph glyph-name="f" unicode="f" horiz-adv-x="432" 
d="M399 460q0 -8 -6 -14t-14 -6h-76v-420q0 -8 -6 -14t-14 -6h-152q-8 0 -14 6t-6 14v420l-66 15q-8 2 -14.5 7.5t-6.5 13.5v84q0 8 6 15t15 7h66v27q0 56 12.5 91.5t35.5 55.5t54.5 27.5t70.5 7.5q50 0 93 -8q9 -2 15 -7t6 -13v-95q0 -8 -6 -13.5t-15 -5.5h-42
q-19 0 -25.5 -8.5t-6.5 -31.5v-27h76q8 0 14 -6t6 -14v-102v0z" />
    <glyph glyph-name="g" unicode="g" horiz-adv-x="614" 
d="M598 487q0 -17 -20 -22l-28 -8q8 -14 13 -33t5 -33v-11q0 -101 -68.5 -146t-189.5 -45q-30 0 -56.5 3.5t-41.5 8.5q-13 -9 -13 -21q0 -8 4.5 -13.5t18.5 -8.5l112 -23q48 -10 92.5 -21t78.5 -28.5t54.5 -45t20.5 -69.5v-7q0 -88 -70.5 -128.5t-208.5 -40.5
q-128 0 -194 45.5t-66 123.5v7q0 22 13.5 53t42.5 54q-19 14 -33 33t-14 55q0 35 14.5 54.5t32.5 36.5q-17 15 -26.5 31.5t-14 33t-6 31.5t-1.5 27v11q0 94 64 142.5t197 48.5h265q10 0 16.5 -7t6.5 -17v-71zM382 391q0 26 -15 42.5t-57 16.5t-57 -16.5t-15 -42.5v-11
q0 -12 3 -22.5t10.5 -18.5t21.5 -12.5t37 -4.5q42 0 57 16t15 42v11zM380 -29q0 7 -2.5 12.5t-11.5 11t-26 11t-46 11.5l-60 13q-7 -9 -11 -25t-4 -34v-7q0 -20 18.5 -32t63.5 -12q25 0 41 3.5t24 9.5t11 14t3 17v7z" />
    <glyph glyph-name="h" unicode="h" horiz-adv-x="632" 
d="M578 20q0 -8 -6 -14t-14 -6h-152q-8 0 -14 6t-6 14v345q0 40 -16 53t-47 13q-35 0 -76 -22v-387q0 -8 -5.5 -15t-14.5 -7h-150q-9 0 -15.5 7t-6.5 15v731q0 8 6 14t14 6h152q8 0 14 -6t6 -14v-201q32 23 67 30.5t81 7.5q54 0 89.5 -17.5t56 -48.5t29 -72t8.5 -87v-345v0z
" />
    <glyph glyph-name="i" unicode="i" horiz-adv-x="313" 
d="M258 657q0 -8 -7 -14t-15 -6h-158q-8 0 -15.5 6t-7.5 14v98q0 8 7.5 14t15.5 6h158q8 0 15 -6t7 -14v-98zM253 22q0 -8 -7 -15t-15 -7h-149q-8 0 -15 7t-7 15v539q0 8 7 14.5t15 6.5h149q8 0 15 -6.5t7 -14.5v-539z" />
    <glyph glyph-name="j" unicode="j" horiz-adv-x="312" 
d="M253 -21q0 -54 -12.5 -89.5t-34.5 -57t-53.5 -30t-68.5 -8.5q-23 0 -45.5 2t-48.5 7q-20 3 -20 21v93q0 8 6 14t15 6h43q18 0 22 11t4 31v582q0 8 7 14.5t15 6.5h149q8 0 15 -6.5t7 -14.5v-582zM258 657q0 -8 -7 -14t-15 -6h-158q-8 0 -15.5 6t-7.5 14v98q0 8 7.5 14
t15.5 6h158q8 0 15 -6t7 -14v-98z" />
    <glyph glyph-name="k" unicode="k" horiz-adv-x="627" 
d="M603 14q0 -5 -3.5 -9.5t-9.5 -4.5h-185q-19 0 -31 22l-127 228v-228q0 -8 -6 -15t-14 -7h-150q-8 0 -15 7t-7 15v731q0 8 7 14t15 6h150q8 0 14 -6t6 -14v-418l137 229q7 12 14 15t15 3h173q14 0 14 -12q0 -5 -3 -9l-173 -259l177 -280q2 -3 2 -8z" />
    <glyph glyph-name="l" unicode="l" horiz-adv-x="303" 
d="M248 22q0 -8 -6 -15t-14 -7h-151q-8 0 -15 7t-7 15v731q0 8 7 14t15 6h151q8 0 14 -6t6 -14v-731v0z" />
    <glyph glyph-name="m" unicode="m" horiz-adv-x="901" 
d="M846 22q0 -8 -5.5 -15t-14.5 -7h-150q-9 0 -15.5 7t-6.5 15v341q0 38 -11.5 49.5t-37.5 11.5q-11 0 -27.5 -2.5t-33.5 -9.5q2 -13 2.5 -23.5t0.5 -25.5v-341q0 -8 -6 -15t-15 -7h-150q-9 0 -15 7t-6 15v341q0 38 -11 49.5t-37 11.5q-12 0 -28 -3.5t-32 -11.5v-387
q0 -8 -5.5 -15t-14.5 -7h-150q-9 0 -15.5 7t-6.5 15v540q0 8 6 14t14 6h139q8 0 14 -6t6 -14v-23q38 29 74.5 40t79.5 11q37 0 67 -12t50 -39q39 32 78.5 41.5t85.5 9.5q95 0 136 -59t41 -168v-341v0z" />
    <glyph glyph-name="n" unicode="n" horiz-adv-x="631" 
d="M576 22q0 -8 -5.5 -15t-14.5 -7h-150q-9 0 -15.5 7t-6.5 15v339q0 40 -14 55t-48 15q-17 0 -37.5 -6t-37.5 -15v-388q0 -8 -5.5 -15t-14.5 -7h-150q-9 0 -15.5 7t-6.5 15v540q0 8 6 14t14 6h139q8 0 14 -6t6 -14v-23q40 30 81.5 40.5t83.5 10.5q59 0 94 -19t53.5 -51
t24 -73t5.5 -86v-339v0z" />
    <glyph glyph-name="o" unicode="o" horiz-adv-x="605" 
d="M565 262q0 -133 -68 -202t-194 -69t-194.5 69t-68.5 202v58q0 133 68.5 202t194.5 69t194 -69t68 -202v-58zM374 320q0 60 -18 85t-53 25t-53.5 -25t-18.5 -85v-58q0 -60 18.5 -85.5t53.5 -25.5t53 25.5t18 85.5v58z" />
    <glyph glyph-name="p" unicode="p" horiz-adv-x="616" 
d="M578 252q0 -60 -16 -108t-49 -82t-82.5 -52.5t-115.5 -18.5q-12 0 -32 2t-36 4v-168q0 -8 -6 -14.5t-14 -6.5h-150q-8 0 -15 6.5t-7 14.5v705q0 13 6.5 20t29.5 12q39 8 97.5 16.5t126.5 8.5q124 0 193.5 -66.5t69.5 -194.5v-78zM386 330q0 45 -14.5 73.5t-56.5 28.5
q-22 0 -38 -1t-30 -3v-274q15 -2 32.5 -3.5t35.5 -1.5q42 0 56.5 29t14.5 74v78z" />
    <glyph glyph-name="q" unicode="q" horiz-adv-x="616" 
d="M561 -171q0 -8 -7 -14.5t-15 -6.5h-149q-8 0 -14 6.5t-6 14.5v168q-16 -2 -36 -4t-32 -2q-66 0 -115.5 18.5t-82.5 52.5t-49 82t-16 108v78q0 127 69.5 194t193.5 67q68 0 126.5 -8.5t97.5 -16.5q23 -5 29 -12t6 -20v-705zM370 428q-14 2 -29.5 3t-38.5 1
q-42 0 -57 -28.5t-15 -73.5v-78q0 -44 15 -73.5t57 -29.5q18 0 35.5 1.5t32.5 3.5v274z" />
    <glyph glyph-name="r" unicode="r" horiz-adv-x="417" 
d="M393 448q0 -9 -3.5 -12t-13.5 -3h-14q-32 0 -62 -5t-53 -18v-388q0 -8 -5.5 -15t-14.5 -7h-150q-9 0 -15.5 7t-6.5 15v540q0 8 4.5 14t15.5 6h144q20 0 20 -20v-24q17 18 32.5 28t31.5 15.5t33 7t37 1.5q13 0 16.5 -4t3.5 -16v-122v0z" />
    <glyph glyph-name="s" unicode="s" horiz-adv-x="517" 
d="M478 170q0 -38 -13.5 -70.5t-42 -56.5t-72 -38t-104.5 -14q-54 0 -102 7t-83 17q-19 5 -19 22v103q0 11 5.5 17t19.5 4q23 -3 48 -6t48.5 -5t43.5 -3.5t32 -1.5q30 0 38.5 7t8.5 21q0 9 -6 16.5t-24 17.5l-122 66q-95 51 -95 158q0 77 54 118.5t166 41.5q57 0 102.5 -7.5
t81.5 -17.5q20 -5 20 -22v-105q0 -10 -3.5 -16t-16.5 -4q-11 1 -33 4t-47 5l-50 4t-42 2q-37 0 -37 -20q0 -9 5.5 -14t16.5 -11l117 -63q61 -33 83 -73.5t22 -82.5z" />
    <glyph glyph-name="t" unicode="t" horiz-adv-x="432" 
d="M399 460q0 -8 -6 -14t-14 -6h-76v-269q0 -23 4.5 -30.5t23.5 -7.5h46q9 0 15 -5.5t6 -13.5v-94q0 -8 -6 -13t-15 -7q-25 -5 -47.5 -7t-41.5 -2q-40 0 -72.5 7.5t-56 27.5t-36 55.5t-12.5 91.5v267l-66 15q-8 2 -14.5 8t-6.5 14v84q0 8 6 14.5t15 6.5h66v81q0 8 6.5 13.5
t14.5 7.5l149 26q14 2 18 -4.5t4 -14.5v-109h76q8 0 14 -6t6 -14v-102v0z" />
    <glyph glyph-name="u" unicode="u" horiz-adv-x="631" 
d="M576 20q0 -8 -6 -14t-14 -6h-139q-8 0 -14 6t-6 14v23q-27 -20 -64.5 -36t-93.5 -16t-91.5 19t-56 51t-28.5 73.5t-8 86.5v339q0 8 5.5 15t14.5 7h150q9 0 15.5 -7t6.5 -15v-339q0 -40 12 -55.5t50 -15.5q17 0 37.5 6.5t37.5 15.5v388q0 8 5.5 15t14.5 7h150q9 0 15.5 -7
t6.5 -15v-540v0z" />
    <glyph glyph-name="v" unicode="v" horiz-adv-x="620" 
d="M584 582q23 0 17 -22l-126 -454q-11 -39 -28.5 -62t-39.5 -35t-47 -15t-50 -3t-50 3t-46.5 15t-39 35t-28.5 62l-125 454q-6 22 16 22h164q11 0 15.5 -6t6.5 -15l75 -365q3 -18 12 -18q10 0 13 18l75 365q2 9 6 15t16 6h164z" />
    <glyph glyph-name="w" unicode="w" horiz-adv-x="871" 
d="M831 582q7 0 12 -4.5t3 -13.5l-88 -475q-9 -49 -30 -69t-55 -20h-91q-34 0 -53.5 22.5t-31.5 63.5l-54 183q-1 7 -7 7t-7 -7l-54 -183q-12 -41 -31 -63.5t-54 -22.5h-91q-34 0 -55 20t-30 69l-88 475q-2 10 3 14t12 4h160q14 0 17 -17l49 -343q1 -8 7 -8q5 0 8 8l58 205
q5 18 16 29.5t40 11.5h80q29 0 40 -11.5t16 -29.5l58 -205q3 -8 8 -8q6 0 7 8l49 343q3 17 17 17h160z" />
    <glyph glyph-name="x" unicode="x" horiz-adv-x="647" 
d="M421 0q-9 0 -14.5 5.5t-13.5 16.5l-85 134l-78 -135q-5 -10 -9.5 -15.5t-15.5 -5.5h-164q-12 0 -12 13q0 4 2 8l171 285l-170 255q-4 6 -1.5 13.5t12.5 7.5h185q8 0 14.5 -6t11.5 -15l77 -121l69 121q11 21 25 21h162q14 0 15.5 -7.5t-1.5 -13.5l-164 -272l178 -264
q6 -10 2.5 -17.5t-12.5 -7.5h-184v0z" />
    <glyph glyph-name="y" unicode="y" horiz-adv-x="621" 
d="M586 582q7 0 14 -4t3 -18l-170 -594q-11 -40 -27 -71.5t-42 -53t-65.5 -33t-98.5 -11.5q-15 0 -34 1.5t-38 4t-36 5.5t-27 7q-8 3 -15.5 7.5t-7.5 11.5v97q0 8 3.5 15.5t19.5 5.5q14 -1 31.5 -2.5t36.5 -2.5t37 -2t32 -1q21 0 35 8t19 30l8 33h-13q-17 0 -31 2.5t-26 13
t-22.5 31t-21.5 57.5l-132 441q-6 22 21 22h163q11 0 14.5 -6t5.5 -14l79 -344q4 -17 11 -17h8l79 362q2 8 5.5 13.5t15.5 5.5h166v0z" />
    <glyph glyph-name="z" unicode="z" horiz-adv-x="542" 
d="M495 20q0 -8 -6 -14t-14 -6h-401q-11 0 -19 8t-8 19v84q0 13 3 22.5t12 21.5l191 259q4 5 4 9q0 6 -9 6h-178q-16 0 -16 16v117q0 8 6 14t14 6h393q11 0 18.5 -8t7.5 -19v-91q0 -17 -4 -25.5t-13 -20.5l-182 -247q-4 -6 -4 -9q0 -6 9 -6h178q8 0 13 -4t5 -12v-120v0z" />
    <glyph glyph-name="braceleft" unicode="{" horiz-adv-x="417" 
d="M402 -179q0 -8 -6 -13t-14 -5h-62q-67 0 -110 9.5t-68 33t-34.5 63t-9.5 98.5v116q0 32 -15 55t-40 39v112q25 16 40 39t15 55v116q0 59 9.5 98.5t34.5 63t68 33t110 9.5h62q8 0 14 -5t6 -13v-113q0 -8 -6 -13t-14 -5h-52q-25 0 -32 -11.5t-7 -43.5v-116
q0 -51 -20.5 -89.5t-67.5 -60.5q47 -22 67.5 -60.5t20.5 -89.5v-116q0 -32 7 -43.5t32 -11.5h52q8 0 14 -5t6 -13v-113v0z" />
    <glyph glyph-name="bar" unicode="|" horiz-adv-x="308" 
d="M251 -172q0 -8 -6.5 -15t-14.5 -7h-151q-8 0 -15 7t-7 15v895q0 8 7 14t15 6h151q8 0 14.5 -6t6.5 -14v-895v0z" />
    <glyph glyph-name="braceright" unicode="}" horiz-adv-x="417" 
d="M374 217q-25 -16 -40 -39t-15 -55v-116q0 -59 -9.5 -98.5t-34.5 -63t-68 -33t-110 -9.5h-62q-8 0 -14 5t-6 13v113q0 8 6 13t14 5h52q25 0 32 11.5t7 43.5v116q0 51 20.5 89.5t67.5 60.5q-47 22 -67.5 60.5t-20.5 89.5v116q0 32 -7 43.5t-32 11.5h-52q-8 0 -14 5t-6 13
v113q0 8 6 13t14 5h62q67 0 110 -9.5t68 -33t34.5 -63t9.5 -98.5v-116q0 -32 15 -55t40 -39v-112v0z" />
    <glyph glyph-name="asciitilde" unicode="~" 
d="M603 485q0 -89 -42.5 -125.5t-122.5 -36.5q-23 0 -49 8t-45 19l-60 35q-16 9 -27 11.5t-19 2.5q-14 0 -19.5 -7.5t-5.5 -21.5v-19q0 -21 -20 -21h-108q-22 0 -22 21v19q0 46 11.5 78t33.5 51.5t52.5 28t68.5 8.5q16 0 41 -4.5t43 -15.5l70 -40q16 -9 27.5 -12.5
t19.5 -3.5q23 0 23 26v23q0 21 21 21h107q22 0 22 -21v-24v0z" />
    <glyph glyph-name="uni00A0" unicode="&#xa0;" horiz-adv-x="252" 
 />
    <glyph glyph-name="exclamdown" unicode="&#xa1;" horiz-adv-x="291" 
d="M238 423q0 -8 -6 -14t-14 -6h-146q-8 0 -14 6t-6 14v139q0 8 6 14t14 6h146q8 0 14 -6t6 -14v-139zM244 -172q0 -8 -7 -13.5t-15 -5.5h-156q-8 0 -14 5.5t-6 13.5v1l25 491q1 8 6.5 14.5t13.5 6.5h106q8 0 14.5 -6.5t7.5 -14.5l25 -491v-1z" />
    <glyph glyph-name="cent" unicode="&#xa2;" 
d="M531 28q0 -10 -5 -14.5t-15 -6.5q-15 -4 -33.5 -7.5t-40.5 -5.5v-67q0 -8 -6 -14t-14 -6h-121q-8 0 -14 6t-6 14v80q-69 26 -105 89t-36 157v75q0 94 36 157t105 89v78q0 8 6 14t14 6h121q8 0 14 -6t6 -14v-65q23 -2 42 -5.5t32 -6.5q10 -2 15 -6.5t5 -14.5v-113
q0 -8 -5.5 -13.5t-13.5 -5.5h-2q-26 2 -52 4.5t-63 2.5q-32 0 -50 -22.5t-18 -78.5v-75q0 -56 18 -78t50 -22q37 0 63 2l52 4h2q8 0 13.5 -5.5t5.5 -13.5v-112v0z" />
    <glyph glyph-name="sterling" unicode="&#xa3;" 
d="M596 580q0 -18 -17 -18h-3q-31 3 -77 7t-90 4q-42 0 -58 -13t-16 -57v-50h152q8 0 14 -5.5t6 -13.5v-119q0 -8 -5.5 -14t-13.5 -6h-153v-74q0 -19 -5 -35.5t-11 -27.5h256q8 0 14 -5.5t6 -13.5v-119q0 -8 -6 -14t-14 -6h-457q-10 0 -15 7t-5 15v90q0 10 3 15t7 10
q5 6 10.5 15.5t10 21t7.5 24t3 23.5v74h-49q-8 0 -13.5 6t-5.5 14v119q0 8 6 13.5t14 5.5h48v48q0 67 16 114t49 76.5t84 42.5t121 13q24 0 48.5 -2t47 -5t41.5 -6t30 -5q14 -3 17 -7.5t3 -13.5v-128v0z" />
    <glyph glyph-name="currency" unicode="&#xa4;" 
d="M598 552q0 -8 -7 -15l-86 -86q19 -40 19 -80q0 -45 -21 -85l84 -85q7 -7 7 -15q0 -6 -5 -11l-65 -66q-5 -5 -11 -5q-8 0 -15 7l-87 87q-35 -16 -76 -16q-44 0 -81 19l-86 -86q-3 -3 -7 -5.5t-9 -2.5t-10 5l-65 66q-5 5 -5 12q0 8 7 15l86 85q-20 38 -20 81q0 39 17 76
l-87 87q-7 7 -7 15q0 6 5 11l66 65q5 5 11 5q8 0 15 -7l84 -84q40 21 86 21q44 0 81 -19l85 86q7 7 15 7q6 0 11 -5l66 -66q5 -5 5 -11zM413 375q0 32 -21.5 53.5t-53.5 21.5t-54 -21.5t-22 -53.5t22 -54.5t54 -22.5t53.5 22.5t21.5 54.5z" />
    <glyph glyph-name="yen" unicode="&#xa5;" 
d="M649 730q0 -2 -2 -8l-107 -221h80q8 0 14 -5.5t6 -13.5v-86q0 -19 -19 -19h-141l-42 -86l-3 -9h185q8 0 14 -5.5t6 -13.5v-86q0 -19 -19 -19h-186v-138q0 -8 -6.5 -14t-14.5 -6h-164q-8 0 -13.5 6t-5.5 14v138h-185q-8 0 -14 5.5t-6 13.5v86q0 8 6 13.5t14 5.5h185l-3 9
l-40 86h-142q-8 0 -14 5.5t-6 13.5v86q0 8 6 13.5t14 5.5h81l-108 221q-2 6 -2 8q0 13 15 13h181q8 0 12.5 -5t7.5 -13l100 -245l100 245q3 8 7.5 13t12.5 5h181q15 0 15 -13z" />
    <glyph glyph-name="brokenbar" unicode="&#xa6;" horiz-adv-x="308" 
d="M251 364q0 -8 -6 -15t-14 -7h-152q-8 0 -15 7t-7 15v344q0 8 7 14t15 6h152q8 0 14 -6t6 -14v-344zM251 -189q0 -8 -6 -15t-14 -7h-152q-8 0 -15 7t-7 15v344q0 8 7 14t15 6h152q8 0 14 -6t6 -14v-344z" />
    <glyph glyph-name="section" unicode="&#xa7;" horiz-adv-x="607" 
d="M569 12q0 -42 -15 -82.5t-48.5 -73t-87 -52.5t-131.5 -20q-62 0 -113.5 7.5t-91.5 18.5q-8 2 -14.5 7t-6.5 13v125q0 8 6 13.5t14 5.5h2q20 -2 44.5 -4.5t51.5 -5t54 -4t51 -1.5h3q37 0 51 12t14 38q0 15 -10 26t-39 27l-142 80q-37 21 -61 44t-37.5 48.5t-19 54
t-5.5 60.5q0 23 7 51.5t19 49.5q-12 20 -19 46t-7 55q0 41 12.5 77.5t42.5 64.5t80.5 44t126.5 16q30 0 63 -2t64.5 -6t58 -8.5t41.5 -8.5q8 -2 14 -7t6 -13v-125q0 -7 -4.5 -12t-11.5 -5h-1q-47 4 -110.5 7.5t-119.5 3.5q-29 0 -40.5 -6.5t-11.5 -26.5q0 -13 11 -23.5
t43 -27.5l135 -72q73 -39 102.5 -88t29.5 -112q0 -27 -7 -55t-18 -50q14 -23 19.5 -49t5.5 -55zM402 226q0 15 -3.5 26.5t-13 22.5t-26 22.5t-42.5 25.5l-66 36q-16 8 -25.5 14.5t-17.5 13.5q-16 -16 -16 -47q0 -13 3 -23t11 -20t23.5 -20t39.5 -23l64 -35
q20 -11 35.5 -21.5t23.5 -18.5q10 19 10 47z" />
    <glyph glyph-name="dieresis" unicode="&#xa8;" horiz-adv-x="472" 
d="M434 657q0 -8 -7.5 -14t-15.5 -6h-116q-8 0 -15 6t-7 14v98q0 8 7 14t15 6h116q8 0 15.5 -6t7.5 -14v-98zM200 657q0 -8 -7 -14t-15 -6h-116q-8 0 -15.5 6t-7.5 14v98q0 8 7.5 14t15.5 6h116q8 0 15 -6t7 -14v-98z" />
    <glyph glyph-name="copyright" unicode="&#xa9;" horiz-adv-x="750" 
d="M712 374q0 -70 -26.5 -131t-72.5 -106.5t-107.5 -71.5t-131.5 -26t-131 26t-106.5 71.5t-71.5 106.5t-26 131t26 131.5t71.5 107.5t106.5 73t131 27t131.5 -27t107.5 -73t72.5 -107.5t26.5 -131.5zM656 374q0 58 -22.5 109.5t-60.5 90t-89.5 61t-109.5 22.5t-109 -22.5
t-89 -61t-60 -90t-22 -109.5t22 -109t60 -89t89 -60t109 -22t109.5 22t89.5 60t60.5 89t22.5 109zM478 183q0 -6 -3 -8.5t-10 -4.5q-14 -4 -33 -7t-45 -3q-87 0 -132 47.5t-45 143.5v52q0 97 45 144t132 47q26 0 46 -3t32 -7q7 -2 10 -4t3 -8v-77q0 -11 -11 -11h-2
q-18 2 -33 3.5t-45 1.5q-11 0 -21 -3.5t-18 -12.5t-13 -26t-5 -44v-52q0 -28 5 -45t13 -26t18 -12t21 -3q26 0 43 1.5t35 3.5h2q11 0 11 -11v-76z" />
    <glyph glyph-name="ordfeminine" unicode="&#xaa;" horiz-adv-x="379" 
d="M343 405q0 -6 -1 -9.5t-6 -5.5q-68 -18 -140 -18q-81 0 -121.5 28.5t-40.5 88.5v7q0 28 12 47.5t34 31.5t52.5 17t67.5 5h19v13q0 23 -10 30.5t-28 7.5q-13 0 -28.5 -0.5t-30.5 -1.5t-27.5 -1.5t-19.5 -1.5h-1q-13 0 -13 14v62q0 12 14 16q15 4 46 10.5t60 6.5
q34 0 64 -6.5t51.5 -22.5t34 -43.5t12.5 -69.5v-205zM221 531h-21q-22 0 -34.5 -7.5t-12.5 -27.5v-7q0 -19 11.5 -25t31.5 -6q8 0 14 1t11 2v70z" />
    <glyph glyph-name="guillemotleft" unicode="&#xab;" horiz-adv-x="747" 
d="M718 71q0 -11 -13 -11h-148q-10 0 -17 2t-12 9l-158 192q-12 15 -12 27q0 13 12 28l158 191q5 7 12 9t17 2h148q13 0 13 -10q0 -4 -5 -11l-171 -209l171 -208q5 -7 5 -11zM396 71q0 -11 -13 -11h-148q-10 0 -17 2t-12 9l-158 192q-5 7 -9 13.5t-4 13.5t4 14t9 14l158 191
q5 7 12 9t17 2h148q13 0 13 -10q0 -4 -5 -11l-171 -209l171 -208q5 -7 5 -11z" />
    <glyph glyph-name="logicalnot" unicode="&#xac;" 
d="M569 193q0 -8 -5 -14t-13 -6h-107q-8 0 -12.5 6t-4.5 14v263h-310q-8 0 -14 4t-6 12v109q0 8 6 12t14 4h432q8 0 14 -4t6 -12v-388v0z" />
    <glyph glyph-name="uni00AD" unicode="&#xad;" horiz-adv-x="282" 
d="M258 250q0 -8 -6 -13.5t-14 -5.5h-193q-8 0 -14 5.5t-6 13.5v102q0 8 6 13.5t14 5.5h193q8 0 14 -5.5t6 -13.5v-102v0z" />
    <glyph glyph-name="registered" unicode="&#xae;" horiz-adv-x="598" 
d="M583 484q0 -59 -22.5 -110.5t-61 -90t-90.5 -60.5t-110 -22q-59 0 -110.5 22t-89.5 60.5t-60.5 90t-22.5 110.5q0 58 22.5 110t60.5 90t89.5 60.5t110.5 22.5q58 0 110 -22.5t90.5 -60.5t61 -90t22.5 -110zM529 484q0 47 -18 89t-49.5 73t-73.5 49t-89 18t-88.5 -18
t-72.5 -49t-49 -73t-18 -89t18 -89t49 -73t72.5 -49t88.5 -18t89 18t73.5 49t49.5 73t18 89zM442 330q0 -9 -9 -9h-82q-6 0 -10 8q-8 14 -18 33.5t-19 36.5q-11 20 -21 42h-24v-110q0 -10 -10 -10h-74q-10 0 -10 10v290q0 19 5.5 25.5t22.5 8.5q6 1 17 1.5t24.5 1.5
t27.5 1.5t25 0.5q67 0 105 -24t38 -86v-9q0 -34 -16 -54t-39 -31l65 -120q2 -4 2 -6zM340 550q0 17 -10.5 25t-34.5 8h-39v-75h39q24 0 34.5 9t10.5 24v9z" />
    <glyph glyph-name="macron" unicode="&#xaf;" horiz-adv-x="472" 
d="M426 664q0 -8 -6 -14t-14 -6h-339q-8 0 -14 6t-6 14v88q0 8 6 13.5t14 5.5h339q8 0 14 -5.5t6 -13.5v-88v0z" />
    <glyph glyph-name="degree" unicode="&#xb0;" horiz-adv-x="368" 
d="M343 594q0 -33 -12.5 -61.5t-34 -50t-50 -34t-61.5 -12.5t-61.5 12.5t-50.5 34t-34.5 50t-12.5 61.5t12.5 61.5t34.5 50.5t50.5 34.5t61.5 12.5t61.5 -12.5t50 -34.5t34 -50.5t12.5 -61.5zM251 594q0 27 -19.5 47t-46.5 20t-46.5 -20t-19.5 -47t19.5 -46t46.5 -19
t46.5 19t19.5 46z" />
    <glyph glyph-name="plusminus" unicode="&#xb1;" 
d="M572 336q0 -8 -6 -12t-14 -4h-149v-147q0 -8 -4 -14t-12 -6h-110q-8 0 -12 6t-4 14v147h-147q-8 0 -14 4t-6 12v110q0 8 6 12t14 4h147v149q0 8 4 14t12 6h110q8 0 12 -6t4 -14v-149h149q8 0 14 -4t6 -12v-110zM572 -9q0 -8 -6 -12t-14 -4h-438q-8 0 -14 4t-6 12v86
q0 8 6 12t14 4h438q8 0 14 -4t6 -12v-86z" />
    <glyph glyph-name="uni00B2" unicode="&#xb2;" horiz-adv-x="371" 
d="M331 640q0 -33 -16 -59t-43 -44l-62 -41q-24 -16 -41.5 -28.5t-18.5 -30.5h159q16 0 16 -16v-71q0 -16 -16 -16h-253q-16 0 -16 16v57q0 46 19 80.5t48 57.5l55 41q17 12 27 19.5t15.5 13t7 9t1.5 8.5q0 10 -9 14.5t-38 4.5q-22 0 -45 -2t-45 -4q-9 -1 -20 0t-11 15v53
q0 6 4 9.5t9 5.5q24 8 56.5 14t67.5 6q81 0 115 -27.5t34 -84.5z" />
    <glyph glyph-name="uni00B3" unicode="&#xb3;" horiz-adv-x="365" 
d="M325 452q0 -63 -41 -93.5t-113 -30.5q-15 0 -33 2t-35 5t-31.5 7t-21.5 8q-10 4 -10 12v56q0 14 14 14h1q9 -1 22 -2t27.5 -1.5t28.5 -1t26 -0.5q26 0 37.5 5.5t11.5 22.5v8q0 17 -9.5 24.5t-32.5 7.5h-85q-6 0 -10.5 4.5t-4.5 10.5v60q0 6 4.5 10.5t10.5 4.5h85
q43 0 43 28v9q0 14 -9.5 20t-39.5 6q-23 0 -53 -1.5t-49 -3.5h-1q-14 0 -14 14v58q0 6 4.5 9t9.5 5q25 8 54.5 13t61.5 5q70 0 111 -24t41 -86v-7q0 -32 -13 -53.5t-32 -34.5q24 -14 34.5 -36.5t10.5 -48.5v-5v0z" />
    <glyph glyph-name="acute" unicode="&#xb4;" horiz-adv-x="472" 
d="M450 772q0 -4 -4 -8l-126 -120q-6 -5 -9.5 -8t-14.5 -3h-129q-9 0 -9 7q0 6 4 10l91 114q7 8 12 11.5t16 3.5h158q11 0 11 -7z" />
    <glyph glyph-name="mu" unicode="&#xb5;" horiz-adv-x="632" 
d="M577 48q0 -12 -6.5 -19.5t-28.5 -13.5q-35 -10 -90 -17t-133 -7q-38 0 -71 6v-169q0 -8 -6 -14t-14 -6h-153q-8 0 -14 6t-6 14v732q0 8 6.5 15t14.5 7h150q8 0 14.5 -7t6.5 -15v-346q0 -35 17.5 -51t53.5 -16q20 0 37 1t30 4v408q0 8 6 15t14 7h150q8 0 15 -7t7 -15v-512
v0z" />
    <glyph glyph-name="paragraph" unicode="&#xb6;" horiz-adv-x="674" 
d="M621 -176q0 -8 -4.5 -13.5t-12.5 -5.5h-52q-8 0 -12.5 5.5t-4.5 13.5v834h-64v-834q0 -8 -4.5 -13.5t-12.5 -5.5h-52q-8 0 -12.5 5.5t-4.5 13.5v410h-92q-52 0 -97 14.5t-78.5 43t-53 70t-19.5 95.5v63q0 54 19.5 95.5t53 70t78.5 43t97 14.5h312q16 0 16 -19v-900v0z
" />
    <glyph glyph-name="periodcentered" unicode="&#xb7;" horiz-adv-x="291" 
d="M239 308q0 -8 -6.5 -14t-14.5 -6h-145q-8 0 -14.5 6t-6.5 14v139q0 8 6.5 14t14.5 6h145q8 0 14.5 -6t6.5 -14v-139v0z" />
    <glyph glyph-name="cedilla" unicode="&#xb8;" horiz-adv-x="451" 
d="M352 -43q0 -4 -4 -8l-126 -120q-6 -5 -10 -8t-15 -3h-128q-9 0 -9 7q0 6 4 10l91 114q7 8 12 11.5t16 3.5h158q11 0 11 -7z" />
    <glyph glyph-name="uni00B9" unicode="&#xb9;" horiz-adv-x="290" 
d="M128 744q6 3 14 3h62q16 0 16 -16v-381q0 -16 -16 -16h-88q-16 0 -16 16v275l-51 -21q-6 -2 -12.5 0t-6.5 10v78q0 9 9 14z" />
    <glyph glyph-name="ordmasculine" unicode="&#xba;" horiz-adv-x="404" 
d="M370 546q0 -89 -44 -131.5t-123 -42.5t-123.5 42.5t-44.5 131.5v31q0 89 44.5 132t123.5 43t123 -43t44 -132v-31zM244 577q0 40 -10 55t-31 15t-32 -15t-11 -55v-31q0 -40 11 -55t32 -15t31 15t10 55v31z" />
    <glyph glyph-name="guillemotright" unicode="&#xbb;" horiz-adv-x="747" 
d="M717 290q0 -7 -4 -13.5t-9 -13.5l-158 -192q-5 -7 -11.5 -9t-16.5 -2h-148q-13 0 -13 11q0 4 5 11l171 208l-171 209q-5 7 -5 11q0 10 13 10h148q10 0 16.5 -2t11.5 -9l158 -191q5 -7 9 -14t4 -14zM395 290q0 -7 -4 -13.5t-9 -13.5l-158 -192q-5 -7 -12 -9t-17 -2h-148
q-13 0 -13 11q0 4 5 11l171 208l-171 209q-5 7 -5 11q0 10 13 10h148q10 0 17 -2t12 -9l158 -191q5 -7 9 -14t4 -14z" />
    <glyph glyph-name="onequarter" unicode="&#xbc;" horiz-adv-x="814" 
d="M675 733q0 -4 -3 -10l-417 -707q-6 -10 -9.5 -13t-11.5 -3h-123q-12 0 -12 12q0 5 3 10l417 706q5 10 10 12.5t13 2.5h122q11 0 11 -10zM138 744q6 3 14 3h62q16 0 16 -16v-381q0 -16 -16 -16h-88q-16 0 -16 16v275l-51 -21q-19 -8 -19 10v78q0 9 9 14zM774 100
q0 -16 -16 -16h-27v-68q0 -7 -4.5 -11.5t-10.5 -4.5h-89q-16 0 -16 16v68h-146q-16 0 -16 16v61q0 10 7 19l176 226q7 7 16 7h68q6 0 10.5 -4.5t4.5 -11.5v-220h27q16 0 16 -15v-62zM616 266l-67 -89h67v89z" />
    <glyph glyph-name="onehalf" unicode="&#xbd;" horiz-adv-x="854" 
d="M675 733q0 -4 -3 -10l-417 -707q-6 -10 -9.5 -13t-11.5 -3h-123q-12 0 -12 12q0 5 3 10l417 706q5 10 10 12.5t13 2.5h122q11 0 11 -10zM138 744q6 3 14 3h62q16 0 16 -16v-381q0 -16 -16 -16h-88q-16 0 -16 16v275l-51 -21q-19 -8 -19 10v78q0 9 9 14zM814 306
q0 -33 -16 -59t-43 -44l-62 -41q-24 -16 -41.5 -28.5t-18.5 -30.5h159q16 0 16 -16v-71q0 -16 -16 -16h-253q-16 0 -16 16v57q0 46 19 80.5t48 57.5l55 41q17 12 27 19.5t15.5 13t7 9t1.5 8.5q0 10 -9 14.5t-38 4.5q-22 0 -45 -2t-45 -4q-9 -1 -20 0t-11 15v53q0 6 4 9.5
t9 5.5q24 8 56.5 14t67.5 6q81 0 115 -27.5t34 -84.5z" />
    <glyph glyph-name="threequarters" unicode="&#xbe;" horiz-adv-x="877" 
d="M837 97q0 -6 -5 -10.5t-11 -4.5h-25v-66q0 -6 -4.5 -11t-10.5 -5h-90q-6 0 -10 5t-4 11v66h-142q-7 0 -10.5 4.5t-3.5 9.5v66q0 12 6 19l170 221q6 7 16 7h65q7 0 12.5 -5t5.5 -13v-215h25q6 0 11 -4t5 -10v-65zM744 733q0 -4 -3 -10l-417 -707q-6 -10 -9.5 -13t-11.5 -3
h-123q-12 0 -12 12q0 5 3 10l417 706q5 10 10 12.5t13 2.5h122q11 0 11 -10zM325 458q0 -63 -41 -93.5t-113 -30.5q-15 0 -33 2t-35 5t-31.5 7t-21.5 8q-10 4 -10 12v56q0 14 14 14h1q9 -1 22 -2t27.5 -1.5t28.5 -1t26 -0.5q26 0 37.5 5.5t11.5 22.5v8q0 17 -9.5 24.5
t-32.5 7.5h-85q-6 0 -10.5 4.5t-4.5 10.5v60q0 6 4.5 10.5t10.5 4.5h85q43 0 43 28v9q0 14 -9.5 20t-39.5 6q-23 0 -53 -1.5t-49 -3.5h-1q-14 0 -14 14v58q0 6 4.5 9t9.5 5q25 8 54.5 13t61.5 5q70 0 111 -24t41 -86v-7q0 -32 -13 -53.5t-32 -34.5q24 -14 34.5 -36.5
t10.5 -48.5v-5zM682 261q0 7 -2 7q-1 0 -2 -1l-63 -82q-3 -5 -3 -7t2 -2h68v85z" />
    <glyph glyph-name="questiondown" unicode="&#xbf;" horiz-adv-x="492" 
d="M395 423q0 -8 -6 -14t-14 -6h-146q-8 0 -14.5 6t-6.5 14v139q0 8 6.5 14t14.5 6h146q8 0 14 -6t6 -14v-139zM458 -146q0 -17 -19 -23q-33 -11 -76.5 -18t-89.5 -7q-56 0 -99 8.5t-73 28t-45.5 51t-15.5 78.5v9q0 64 51 137l106 153q11 15 15 25t6 26q1 6 6 10t10 4h139
q10 0 10 -13v-35q0 -36 -6 -59.5t-23 -53.5l-81 -138q-5 -8 -8 -15t-3 -15q0 -15 10 -21t35 -6q10 0 28 1.5t38 3t38 3.5l27 3h3q17 0 17 -20v-117z" />
    <glyph glyph-name="Agrave" unicode="&#xc0;" horiz-adv-x="692" 
d="M673 16q0 -16 -16 -16h-174q-8 0 -13 5.5t-7 13.5l-28 139h-178l-28 -139q-2 -8 -7 -13.5t-13 -5.5h-173q-17 0 -17 16q0 2 0.5 2.5t0.5 2.5l134 612q8 37 26 60.5t43 36.5t56 17.5t67 4.5t67 -4.5t56 -17.5t43 -36.5t26 -60.5l134 -612q0 -2 0.5 -3t0.5 -2zM357 572
l-3 10.5t-8 3.5t-8 -3.5l-3 -10.5l-49 -254h120zM473 802q0 -7 -9 -7h-129q-11 0 -14.5 3t-9.5 8l-126 120q-4 4 -4 8q0 7 11 7h158q11 0 16 -3.5t12 -11.5l91 -114q4 -4 4 -10z" />
    <glyph glyph-name="Aacute" unicode="&#xc1;" horiz-adv-x="692" 
d="M673 16q0 -16 -16 -16h-174q-8 0 -13 5.5t-7 13.5l-28 139h-178l-28 -139q-2 -8 -7 -13.5t-13 -5.5h-173q-17 0 -17 16q0 2 0.5 2.5t0.5 2.5l134 612q8 37 26 60.5t43 36.5t56 17.5t67 4.5t67 -4.5t56 -17.5t43 -36.5t26 -60.5l134 -612q0 -2 0.5 -3t0.5 -2zM357 572
l-3 10.5t-8 3.5t-8 -3.5l-3 -10.5l-49 -254h120zM543 934q0 -4 -4 -8l-126 -120q-6 -5 -9.5 -8t-14.5 -3h-129q-9 0 -9 7q0 6 4 10l91 114q7 8 12 11.5t16 3.5h158q11 0 11 -7z" />
    <glyph glyph-name="Acircumflex" unicode="&#xc2;" horiz-adv-x="692" 
d="M673 16q0 -16 -16 -16h-174q-8 0 -13 5.5t-7 13.5l-28 139h-178l-28 -139q-2 -8 -7 -13.5t-13 -5.5h-173q-17 0 -17 16q0 2 0.5 2.5t0.5 2.5l134 612q8 37 26 60.5t43 36.5t56 17.5t67 4.5t67 -4.5t56 -17.5t43 -36.5t26 -60.5l134 -612q0 -2 0.5 -3t0.5 -2zM357 572
l-3 10.5t-8 3.5t-8 -3.5l-3 -10.5l-49 -254h120zM559 802q0 -7 -9 -7h-124q-11 0 -14.5 2.5t-9.5 8.5l-56 59l-56 -59q-6 -6 -9.5 -8.5t-14.5 -2.5h-124q-9 0 -9 7q0 5 4 10l86 114q7 8 12 11.5t16 3.5h190q11 0 16 -3t12 -12l86 -114q4 -5 4 -10z" />
    <glyph glyph-name="Atilde" unicode="&#xc3;" horiz-adv-x="692" 
d="M673 16q0 -16 -16 -16h-174q-8 0 -13 5.5t-7 13.5l-28 139h-178l-28 -139q-2 -8 -7 -13.5t-13 -5.5h-173q-17 0 -17 16q0 2 0.5 2.5t0.5 2.5l134 612q8 37 26 60.5t43 36.5t56 17.5t67 4.5t67 -4.5t56 -17.5t43 -36.5t26 -60.5l134 -612q0 -2 0.5 -3t0.5 -2zM357 572
l-3 10.5t-8 3.5t-8 -3.5l-3 -10.5l-49 -254h120zM559 915q0 -71 -36 -99t-97 -28q-14 0 -35.5 5.5t-37.5 15.5l-40 24q-25 15 -39 15q-8 0 -13.5 -4t-5.5 -16v-17q0 -17 -16 -17h-84q-17 0 -17 17v17q0 69 36 98t98 29q14 0 34.5 -5t37.5 -15l41 -24q14 -8 22.5 -12t16.5 -4
q10 0 14 4.5t4 16.5v17q0 17 17 17h83q17 0 17 -17v-18z" />
    <glyph glyph-name="Adieresis" unicode="&#xc4;" horiz-adv-x="692" 
d="M673 16q0 -16 -16 -16h-174q-8 0 -13 5.5t-7 13.5l-28 139h-178l-28 -139q-2 -8 -7 -13.5t-13 -5.5h-173q-17 0 -17 16q0 2 0.5 2.5t0.5 2.5l134 612q8 37 26 60.5t43 36.5t56 17.5t67 4.5t67 -4.5t56 -17.5t43 -36.5t26 -60.5l134 -612q0 -2 0.5 -3t0.5 -2zM357 572
l-3 10.5t-8 3.5t-8 -3.5l-3 -10.5l-49 -254h120zM543 818q0 -8 -7.5 -14t-15.5 -6h-116q-8 0 -15 6t-7 14v98q0 8 7 14t15 6h116q8 0 15.5 -6t7.5 -14v-98zM309 818q0 -8 -7 -14t-15 -6h-116q-8 0 -15.5 6t-7.5 14v98q0 8 7.5 14t15.5 6h116q8 0 15 -6t7 -14v-98z" />
    <glyph glyph-name="Aring" unicode="&#xc5;" horiz-adv-x="692" 
d="M673 16q0 -16 -16 -16h-174q-8 0 -13 5.5t-7 13.5l-28 139h-178l-28 -139q-2 -8 -7 -13.5t-13 -5.5h-173q-17 0 -17 16q0 2 0.5 2.5t0.5 2.5l134 612q8 37 26 60.5t43 36.5t56 17.5t67 4.5t67 -4.5t56 -17.5t43 -36.5t26 -60.5l134 -612q0 -2 0.5 -3t0.5 -2zM357 572
l-3 10.5t-8 3.5t-8 -3.5l-3 -10.5l-49 -254h120zM469 903q0 -25 -9.5 -47.5t-26 -39t-39 -26t-47.5 -9.5t-47 9.5t-38 26t-25 39t-9 47.5t9 47.5t25 39t38 26t47 9.5t47.5 -9.5t39 -26t26 -39t9.5 -47.5zM389 904q0 17 -12 29t-29 12t-28.5 -12t-11.5 -29t11.5 -30t28.5 -13
t29 13t12 30z" />
    <glyph glyph-name="AE" unicode="&#xc6;" horiz-adv-x="943" 
d="M890 23q0 -17 -20 -20q-14 -2 -29.5 -4t-36 -4t-47 -3t-62.5 -1q-43 0 -84 6t-74.5 24t-57.5 50.5t-33 85.5h-188l-28 -138q-2 -8 -7 -13.5t-13 -5.5h-174q-17 0 -17 16q0 2 0.5 2.5t0.5 2.5l134 607q8 37 26 59.5t43 35t56.5 16.5t67.5 4h523q20 0 20 -20v-129
q0 -8 -6 -14t-14 -6h-228v-118h224q8 0 14 -6t6 -14v-118q0 -8 -6 -14t-14 -6h-224v-83q0 -29 11 -39.5t38 -10.5h179q8 0 14 -6t6 -14v-122zM439 576h-89q-8 0 -10.5 -4t-4.5 -14l-48 -240h152v258z" />
    <glyph glyph-name="Ccedilla" unicode="&#xc7;" horiz-adv-x="555" 
d="M517 31q0 -10 -5 -14t-17 -8q-20 -7 -56 -12.5t-84 -5.5q-69 0 -126 19t-97.5 59.5t-62.5 102.5t-22 148v103q0 86 22 148t62.5 102.5t97.5 59.5t126 19q48 0 84 -5.5t56 -12.5q12 -4 17 -7.5t5 -14.5v-128q0 -19 -18 -19h-3q-31 3 -64 6t-76 3q-20 0 -39 -5.5t-33 -22
t-22.5 -46t-8.5 -77.5v-103q0 -47 8.5 -76.5t22.5 -46t32.5 -22.5t39.5 -6q43 0 76 3t64 6h3q18 0 18 -19v-128zM440 -43q0 -4 -4 -8l-126 -120q-6 -5 -10 -8t-15 -3h-128q-9 0 -9 7q0 6 4 10l91 114q7 8 12 11.5t16 3.5h158q11 0 11 -7z" />
    <glyph glyph-name="Egrave" unicode="&#xc8;" horiz-adv-x="585" 
d="M532 23q0 -17 -20 -20q-29 -4 -76.5 -8t-120.5 -4q-48 0 -94 7.5t-82 31.5t-58 68t-22 117v314q0 72 22 116t58 68t82 32t94 8q73 0 120.5 -4t76.5 -8q20 -3 20 -20v-122q0 -8 -6 -14t-14 -6h-202q-27 0 -37.5 -10.5t-10.5 -39.5v-73h246q8 0 14 -6t6 -14v-118
q0 -8 -6 -14t-14 -6h-246v-83q0 -29 10.5 -39.5t37.5 -10.5h202q8 0 14 -6t6 -14v-122zM406 802q0 -7 -9 -7h-129q-11 0 -14.5 3t-9.5 8l-126 120q-4 4 -4 8q0 7 11 7h158q11 0 16 -3.5t12 -11.5l91 -114q4 -4 4 -10z" />
    <glyph glyph-name="Eacute" unicode="&#xc9;" horiz-adv-x="585" 
d="M532 23q0 -17 -20 -20q-29 -4 -76.5 -8t-120.5 -4q-48 0 -94 7.5t-82 31.5t-58 68t-22 117v314q0 72 22 116t58 68t82 32t94 8q73 0 120.5 -4t76.5 -8q20 -3 20 -20v-122q0 -8 -6 -14t-14 -6h-202q-27 0 -37.5 -10.5t-10.5 -39.5v-73h246q8 0 14 -6t6 -14v-118
q0 -8 -6 -14t-14 -6h-246v-83q0 -29 10.5 -39.5t37.5 -10.5h202q8 0 14 -6t6 -14v-122zM487 934q0 -4 -4 -8l-126 -120q-6 -5 -9.5 -8t-14.5 -3h-129q-9 0 -9 7q0 6 4 10l91 114q7 8 12 11.5t16 3.5h158q11 0 11 -7z" />
    <glyph glyph-name="Ecircumflex" unicode="&#xca;" horiz-adv-x="585" 
d="M532 23q0 -17 -20 -20q-29 -4 -76.5 -8t-120.5 -4q-48 0 -94 7.5t-82 31.5t-58 68t-22 117v314q0 72 22 116t58 68t82 32t94 8q73 0 120.5 -4t76.5 -8q20 -3 20 -20v-122q0 -8 -6 -14t-14 -6h-202q-27 0 -37.5 -10.5t-10.5 -39.5v-73h246q8 0 14 -6t6 -14v-118
q0 -8 -6 -14t-14 -6h-246v-83q0 -29 10.5 -39.5t37.5 -10.5h202q8 0 14 -6t6 -14v-122zM515 802q0 -7 -9 -7h-124q-11 0 -14.5 2.5t-9.5 8.5l-56 59l-56 -59q-6 -6 -9.5 -8.5t-14.5 -2.5h-124q-9 0 -9 7q0 5 4 10l86 114q7 8 12 11.5t16 3.5h190q11 0 16 -3t12 -12l86 -114
q4 -5 4 -10z" />
    <glyph glyph-name="Edieresis" unicode="&#xcb;" horiz-adv-x="585" 
d="M532 23q0 -17 -20 -20q-29 -4 -76.5 -8t-120.5 -4q-48 0 -94 7.5t-82 31.5t-58 68t-22 117v314q0 72 22 116t58 68t82 32t94 8q73 0 120.5 -4t76.5 -8q20 -3 20 -20v-122q0 -8 -6 -14t-14 -6h-202q-27 0 -37.5 -10.5t-10.5 -39.5v-73h246q8 0 14 -6t6 -14v-118
q0 -8 -6 -14t-14 -6h-246v-83q0 -29 10.5 -39.5t37.5 -10.5h202q8 0 14 -6t6 -14v-122zM494 818q0 -8 -7.5 -14t-15.5 -6h-116q-8 0 -15 6t-7 14v98q0 8 7 14t15 6h116q8 0 15.5 -6t7.5 -14v-98zM260 818q0 -8 -7 -14t-15 -6h-116q-8 0 -15.5 6t-7.5 14v98q0 8 7.5 14
t15.5 6h116q8 0 15 -6t7 -14v-98z" />
    <glyph glyph-name="Igrave" unicode="&#xcc;" horiz-adv-x="334" 
d="M269 20q0 -8 -6 -14t-14 -6h-164q-8 0 -14 6t-6 14v704q0 8 6 13.5t14 5.5h164q8 0 14 -5.5t6 -13.5v-704zM279 802q0 -7 -9 -7h-129q-11 0 -14.5 3t-9.5 8l-126 120q-4 4 -4 8q0 7 11 7h158q11 0 16 -3.5t12 -11.5l91 -114q4 -4 4 -10z" />
    <glyph glyph-name="Iacute" unicode="&#xcd;" horiz-adv-x="334" 
d="M269 20q0 -8 -6 -14t-14 -6h-164q-8 0 -14 6t-6 14v704q0 8 6 13.5t14 5.5h164q8 0 14 -5.5t6 -13.5v-704zM351 934q0 -4 -4 -8l-126 -120q-6 -5 -9.5 -8t-14.5 -3h-129q-9 0 -9 7q0 6 4 10l91 114q7 8 12 11.5t16 3.5h158q11 0 11 -7z" />
    <glyph glyph-name="Icircumflex" unicode="&#xce;" horiz-adv-x="334" 
d="M269 20q0 -8 -6 -14t-14 -6h-164q-8 0 -14 6t-6 14v704q0 8 6 13.5t14 5.5h164q8 0 14 -5.5t6 -13.5v-704zM380 802q0 -7 -9 -7h-124q-11 0 -14.5 2.5t-9.5 8.5l-56 59l-56 -59q-6 -6 -9.5 -8.5t-14.5 -2.5h-124q-9 0 -9 7q0 5 4 10l86 114q7 8 12 11.5t16 3.5h190
q11 0 16 -3t12 -12l86 -114q4 -5 4 -10z" />
    <glyph glyph-name="Idieresis" unicode="&#xcf;" horiz-adv-x="334" 
d="M269 20q0 -8 -6 -14t-14 -6h-164q-8 0 -14 6t-6 14v704q0 8 6 13.5t14 5.5h164q8 0 14 -5.5t6 -13.5v-704zM364 818q0 -8 -7.5 -14t-15.5 -6h-116q-8 0 -15 6t-7 14v98q0 8 7 14t15 6h116q8 0 15.5 -6t7.5 -14v-98zM130 818q0 -8 -7 -14t-15 -6h-116q-8 0 -15.5 6
t-7.5 14v98q0 8 7.5 14t15.5 6h116q8 0 15 -6t7 -14v-98z" />
    <glyph glyph-name="Eth" unicode="&#xd0;" horiz-adv-x="696" 
d="M651 324q0 -89 -23.5 -152t-66.5 -103.5t-102.5 -59t-132.5 -18.5q-78 0 -133 4.5t-98 12.5q-17 3 -24.5 11t-7.5 28v251h-51q-8 0 -14 6t-6 14v119q0 8 6 13.5t14 5.5h51v240q0 20 7.5 28t24.5 11q43 8 98 13t133 5q72 0 132 -18.5t103 -58.5t66.5 -103.5t23.5 -152.5
v-96zM445 420q0 46 -7 76.5t-21.5 48.5t-37 25.5t-53.5 7.5q-17 0 -35 -0.5t-24 -0.5v-121h53q19 0 19 -19v-119q0 -8 -5.5 -14t-13.5 -6h-53v-131q5 -1 24.5 -1h34.5q31 0 53.5 7t37 25t21.5 48.5t7 77.5v96z" />
    <glyph glyph-name="Ntilde" unicode="&#xd1;" horiz-adv-x="746" 
d="M681 37q0 -15 -11 -26t-26 -11h-134q-26 0 -42 27l-197 335q-5 8 -10 8t-5 -9v-341q0 -8 -6 -14t-14 -6h-150q-8 0 -14.5 6t-6.5 14v686q0 15 11 26t26 11h132q14 0 23 -7.5t17 -21.5l203 -345q5 -9 9 -9q2 0 3.5 1.5t1.5 7.5v354q0 8 6 14t14 6h150q8 0 14 -6t6 -14
v-686zM577 915q0 -71 -36 -99t-97 -28q-14 0 -35.5 5.5t-37.5 15.5l-40 24q-25 15 -39 15q-8 0 -13.5 -4t-5.5 -16v-17q0 -17 -16 -17h-84q-17 0 -17 17v17q0 69 36 98t98 29q14 0 34.5 -5t37.5 -15l41 -24q14 -8 22.5 -12t16.5 -4q10 0 14 4.5t4 16.5v17q0 17 17 17h83
q17 0 17 -17v-18z" />
    <glyph glyph-name="Ograve" unicode="&#xd2;" horiz-adv-x="708" 
d="M661 320q0 -92 -24.5 -154.5t-66.5 -101.5t-98 -56t-118 -17t-118 17t-98 56t-66.5 101.5t-24.5 154.5v103q0 91 24.5 154t66.5 102t98 56.5t118 17.5t118 -17.5t98 -56.5t66.5 -102t24.5 -154v-103zM455 423q0 81 -24 116t-77 35t-77 -35t-24 -116v-103q0 -81 24 -115.5
t77 -34.5t77 34.5t24 115.5v103zM450 802q0 -7 -9 -7h-129q-11 0 -14.5 3t-9.5 8l-126 120q-4 4 -4 8q0 7 11 7h158q11 0 16 -3.5t12 -11.5l91 -114q4 -4 4 -10z" />
    <glyph glyph-name="Oacute" unicode="&#xd3;" horiz-adv-x="708" 
d="M661 320q0 -92 -24.5 -154.5t-66.5 -101.5t-98 -56t-118 -17t-118 17t-98 56t-66.5 101.5t-24.5 154.5v103q0 91 24.5 154t66.5 102t98 56.5t118 17.5t118 -17.5t98 -56.5t66.5 -102t24.5 -154v-103zM455 423q0 81 -24 116t-77 35t-77 -35t-24 -116v-103q0 -81 24 -115.5
t77 -34.5t77 34.5t24 115.5v103zM542 934q0 -4 -4 -8l-126 -120q-6 -5 -9.5 -8t-14.5 -3h-129q-9 0 -9 7q0 6 4 10l91 114q7 8 12 11.5t16 3.5h158q11 0 11 -7z" />
    <glyph glyph-name="Ocircumflex" unicode="&#xd4;" horiz-adv-x="708" 
d="M661 320q0 -92 -24.5 -154.5t-66.5 -101.5t-98 -56t-118 -17t-118 17t-98 56t-66.5 101.5t-24.5 154.5v103q0 91 24.5 154t66.5 102t98 56.5t118 17.5t118 -17.5t98 -56.5t66.5 -102t24.5 -154v-103zM455 423q0 81 -24 116t-77 35t-77 -35t-24 -116v-103q0 -81 24 -115.5
t77 -34.5t77 34.5t24 115.5v103zM564 802q0 -7 -9 -7h-124q-11 0 -14.5 2.5t-9.5 8.5l-56 59l-56 -59q-6 -6 -9.5 -8.5t-14.5 -2.5h-124q-9 0 -9 7q0 5 4 10l86 114q7 8 12 11.5t16 3.5h190q11 0 16 -3t12 -12l86 -114q4 -5 4 -10z" />
    <glyph glyph-name="Otilde" unicode="&#xd5;" horiz-adv-x="708" 
d="M661 320q0 -92 -24.5 -154.5t-66.5 -101.5t-98 -56t-118 -17t-118 17t-98 56t-66.5 101.5t-24.5 154.5v103q0 91 24.5 154t66.5 102t98 56.5t118 17.5t118 -17.5t98 -56.5t66.5 -102t24.5 -154v-103zM455 423q0 81 -24 116t-77 35t-77 -35t-24 -116v-103q0 -81 24 -115.5
t77 -34.5t77 34.5t24 115.5v103zM572 916q0 -71 -36 -99t-97 -28q-14 0 -35.5 5.5t-37.5 15.5l-40 24q-25 15 -39 15q-8 0 -13.5 -4t-5.5 -16v-17q0 -17 -16 -17h-84q-17 0 -17 17v17q0 69 36 98t98 29q14 0 34.5 -5t37.5 -15l41 -24q14 -8 22.5 -12t16.5 -4q10 0 14 4.5
t4 16.5v17q0 17 17 17h83q17 0 17 -17v-18z" />
    <glyph glyph-name="Odieresis" unicode="&#xd6;" horiz-adv-x="708" 
d="M661 320q0 -92 -24.5 -154.5t-66.5 -101.5t-98 -56t-118 -17t-118 17t-98 56t-66.5 101.5t-24.5 154.5v103q0 91 24.5 154t66.5 102t98 56.5t118 17.5t118 -17.5t98 -56.5t66.5 -102t24.5 -154v-103zM455 423q0 81 -24 116t-77 35t-77 -35t-24 -116v-103q0 -81 24 -115.5
t77 -34.5t77 34.5t24 115.5v103zM548 818q0 -8 -7.5 -14t-15.5 -6h-116q-8 0 -15 6t-7 14v98q0 8 7 14t15 6h116q8 0 15.5 -6t7.5 -14v-98zM314 818q0 -8 -7 -14t-15 -6h-116q-8 0 -15.5 6t-7.5 14v98q0 8 7.5 14t15.5 6h116q8 0 15 -6t7 -14v-98z" />
    <glyph glyph-name="multiply" unicode="&#xd7;" 
d="M552 516q0 -8 -8 -16l-110 -110l109 -110q8 -8 8 -15q0 -5 -5 -10l-77 -78q-5 -5 -10 -5q-8 0 -16 8l-110 110l-110 -110q-8 -8 -15 -8q-5 0 -10 5l-78 78q-5 5 -5 10q0 7 8 15l110 110l-110 110q-8 8 -8 16q0 5 5 10l78 78q5 5 10 5q7 0 15 -8l110 -111l110 111
q8 8 16 8q5 0 10 -5l78 -78q5 -5 5 -10z" />
    <glyph glyph-name="Oslash" unicode="&#xd8;" horiz-adv-x="708" 
d="M693 742q0 -4 -3 -8l-78 -107q23 -38 36 -88t13 -116v-103q0 -92 -24.5 -154.5t-66.5 -101.5t-98 -56t-118 -17q-47 0 -90 9.5t-80 30.5l-14 -21q-5 -6 -11.5 -12.5t-14.5 -6.5h-118q-11 0 -11 11q0 3 3 8l77 108q-23 38 -35.5 87.5t-12.5 114.5v103q0 91 24.5 154
t66.5 102t98 56.5t118 17.5q47 0 89.5 -9.5t79.5 -30.5l15 21q5 6 11.5 12.5t14.5 6.5h118q11 0 11 -11zM412 559q-11 8 -26 11.5t-32 3.5q-53 0 -77 -35t-24 -116v-85zM455 407l-159 -221q22 -16 58 -16q53 0 77 34.5t24 115.5v87z" />
    <glyph glyph-name="Ugrave" unicode="&#xd9;" horiz-adv-x="731" 
d="M668 282q0 -91 -25.5 -147.5t-67.5 -88.5t-96.5 -43.5t-113.5 -11.5t-113.5 11.5t-96.5 43.5t-67 88.5t-25 147.5v441q0 8 6.5 14t14.5 6h162q8 0 14 -6t6 -14v-441q0 -68 23 -94t76 -26t76.5 26t23.5 94v441q0 8 6 14t14 6h162q8 0 14.5 -6t6.5 -14v-441zM476 801
q0 -7 -9 -7h-129q-11 0 -14.5 3t-9.5 8l-126 120q-4 4 -4 8q0 7 11 7h158q11 0 16 -3.5t12 -11.5l91 -114q4 -4 4 -10z" />
    <glyph glyph-name="Uacute" unicode="&#xda;" horiz-adv-x="731" 
d="M668 282q0 -91 -25.5 -147.5t-67.5 -88.5t-96.5 -43.5t-113.5 -11.5t-113.5 11.5t-96.5 43.5t-67 88.5t-25 147.5v441q0 8 6.5 14t14.5 6h162q8 0 14 -6t6 -14v-441q0 -68 23 -94t76 -26t76.5 26t23.5 94v441q0 8 6 14t14 6h162q8 0 14.5 -6t6.5 -14v-441zM558 934
q0 -4 -4 -8l-126 -120q-6 -5 -9.5 -8t-14.5 -3h-129q-9 0 -9 7q0 6 4 10l91 114q7 8 12 11.5t16 3.5h158q11 0 11 -7z" />
    <glyph glyph-name="Ucircumflex" unicode="&#xdb;" horiz-adv-x="731" 
d="M668 282q0 -91 -25.5 -147.5t-67.5 -88.5t-96.5 -43.5t-113.5 -11.5t-113.5 11.5t-96.5 43.5t-67 88.5t-25 147.5v441q0 8 6.5 14t14.5 6h162q8 0 14 -6t6 -14v-441q0 -68 23 -94t76 -26t76.5 26t23.5 94v441q0 8 6 14t14 6h162q8 0 14.5 -6t6.5 -14v-441zM580 802
q0 -7 -9 -7h-124q-11 0 -14.5 2.5t-9.5 8.5l-56 59l-56 -59q-6 -6 -9.5 -8.5t-14.5 -2.5h-124q-9 0 -9 7q0 5 4 10l86 114q7 8 12 11.5t16 3.5h190q11 0 16 -3t12 -12l86 -114q4 -5 4 -10z" />
    <glyph glyph-name="Udieresis" unicode="&#xdc;" horiz-adv-x="731" 
d="M668 282q0 -91 -25.5 -147.5t-67.5 -88.5t-96.5 -43.5t-113.5 -11.5t-113.5 11.5t-96.5 43.5t-67 88.5t-25 147.5v441q0 8 6.5 14t14.5 6h162q8 0 14 -6t6 -14v-441q0 -68 23 -94t76 -26t76.5 26t23.5 94v441q0 8 6 14t14 6h162q8 0 14.5 -6t6.5 -14v-441zM563 818
q0 -8 -7.5 -14t-15.5 -6h-116q-8 0 -15 6t-7 14v98q0 8 7 14t15 6h116q8 0 15.5 -6t7.5 -14v-98zM329 818q0 -8 -7 -14t-15 -6h-116q-8 0 -15.5 6t-7.5 14v98q0 8 7.5 14t15.5 6h116q8 0 15 -6t7 -14v-98z" />
    <glyph glyph-name="Yacute" unicode="&#xdd;" horiz-adv-x="682" 
d="M662 730q0 -2 -2 -8l-147 -345q-16 -37 -33.5 -57.5t-37.5 -28.5v-271q0 -8 -6 -14t-14 -6h-163q-8 0 -13.5 6t-5.5 14v271q-20 8 -37.5 28.5t-33.5 57.5l-147 345q-2 6 -2 8q0 13 14 13h181q8 0 12.5 -5.5t7.5 -13.5l96 -265q4 -10 10 -10t10 10l96 265q3 8 7.5 13.5
t12.5 5.5h181q14 0 14 -13zM539 933q0 -4 -4 -8l-126 -120q-6 -5 -9.5 -8t-14.5 -3h-129q-9 0 -9 7q0 6 4 10l91 114q7 8 12 11.5t16 3.5h158q11 0 11 -7z" />
    <glyph glyph-name="Thorn" unicode="&#xde;" horiz-adv-x="677" 
d="M646 410q0 -75 -28 -123.5t-73 -77.5t-100.5 -40.5t-109.5 -11.5q-17 0 -33 0.5t-37 1.5v-139q0 -8 -5.5 -14t-13.5 -6h-162q-8 0 -13.5 6t-5.5 14v704q0 19 19 19h162q19 0 19 -19v-55q2 0 9.5 0.5t17.5 0.5h20.5h18.5q56 0 112.5 -11t101.5 -39.5t73 -77t28 -123.5v-9z
M444 419q0 44 -29 62t-80 18h-51h-19v-171q2 0 12.5 -0.5t22.5 -0.5h22.5h12.5q51 0 80 20t29 63v9z" />
    <glyph glyph-name="germandbls" unicode="&#xdf;" horiz-adv-x="680" 
d="M627 229q0 -60 -20 -104.5t-54 -74t-78.5 -44.5t-92.5 -15q-14 0 -32.5 1.5t-34.5 4.5q-8 2 -14 7t-6 13v119q0 5 1.5 9.5t6.5 4.5h41q19 0 35.5 2.5t28.5 10.5t19 23t7 39v17q0 45 -21.5 64t-67.5 19h-27q-8 0 -14 6t-6 14v96q0 8 6 14t14 6h27q47 0 64.5 19.5
t17.5 45.5v25q0 26 -18 45.5t-64 19.5q-54 0 -76 -24.5t-22 -75.5v-495q0 -8 -5.5 -14.5t-13.5 -6.5h-154q-8 0 -14 6.5t-6 14.5v495q0 137 72.5 201t218.5 64q72 0 124 -16.5t85.5 -46.5t49.5 -70.5t16 -88.5v-25q0 -46 -24.5 -82t-56.5 -53q42 -22 65 -59.5t23 -85.5v-25
v0z" />
    <glyph glyph-name="agrave" unicode="&#xe0;" horiz-adv-x="575" 
d="M525 20q0 -8 -6 -14t-14 -6h-139q-8 0 -14 6t-6 14v21q-29 -21 -65 -35.5t-78 -14.5q-30 0 -60 9t-55 30t-40.5 55t-15.5 85v12q0 90 66.5 126.5t191.5 36.5h43v29q0 18 -5.5 29.5t-14.5 18t-21 8.5t-25 2q-48 0 -93.5 -1.5t-80.5 -5.5h-3q-19 0 -19 20v97q0 17 20 24
q12 4 33.5 8t46.5 7.5t52 6t51 2.5q54 0 100 -10.5t79.5 -36t52.5 -67t19 -102.5v-354zM339 241h-49q-38 0 -54 -13t-16 -45v-10q0 -26 15 -35t36 -9q18 0 36.5 4.5t31.5 10.5v97zM383 640q0 -7 -9 -7h-129q-11 0 -14.5 3t-9.5 8l-126 120q-4 4 -4 8q0 7 11 7h158
q11 0 16 -3.5t12 -11.5l91 -114q4 -4 4 -10z" />
    <glyph glyph-name="aacute" unicode="&#xe1;" horiz-adv-x="575" 
d="M525 20q0 -8 -6 -14t-14 -6h-139q-8 0 -14 6t-6 14v21q-29 -21 -65 -35.5t-78 -14.5q-30 0 -60 9t-55 30t-40.5 55t-15.5 85v12q0 90 66.5 126.5t191.5 36.5h43v29q0 18 -5.5 29.5t-14.5 18t-21 8.5t-25 2q-48 0 -93.5 -1.5t-80.5 -5.5h-3q-19 0 -19 20v97q0 17 20 24
q12 4 33.5 8t46.5 7.5t52 6t51 2.5q54 0 100 -10.5t79.5 -36t52.5 -67t19 -102.5v-354zM339 241h-49q-38 0 -54 -13t-16 -45v-10q0 -26 15 -35t36 -9q18 0 36.5 4.5t31.5 10.5v97zM492 772q0 -4 -4 -8l-126 -120q-6 -5 -9.5 -8t-14.5 -3h-129q-9 0 -9 7q0 6 4 10l91 114
q7 8 12 11.5t16 3.5h158q11 0 11 -7z" />
    <glyph glyph-name="acircumflex" unicode="&#xe2;" horiz-adv-x="575" 
d="M525 20q0 -8 -6 -14t-14 -6h-139q-8 0 -14 6t-6 14v21q-29 -21 -65 -35.5t-78 -14.5q-30 0 -60 9t-55 30t-40.5 55t-15.5 85v12q0 90 66.5 126.5t191.5 36.5h43v29q0 18 -5.5 29.5t-14.5 18t-21 8.5t-25 2q-48 0 -93.5 -1.5t-80.5 -5.5h-3q-19 0 -19 20v97q0 17 20 24
q12 4 33.5 8t46.5 7.5t52 6t51 2.5q54 0 100 -10.5t79.5 -36t52.5 -67t19 -102.5v-354zM339 241h-49q-38 0 -54 -13t-16 -45v-10q0 -26 15 -35t36 -9q18 0 36.5 4.5t31.5 10.5v97zM509 640q0 -7 -9 -7h-124q-11 0 -14.5 2.5t-9.5 8.5l-56 59l-56 -59q-6 -6 -9.5 -8.5
t-14.5 -2.5h-124q-9 0 -9 7q0 5 4 10l86 114q7 8 12 11.5t16 3.5h190q11 0 16 -3t12 -12l86 -114q4 -5 4 -10z" />
    <glyph glyph-name="atilde" unicode="&#xe3;" horiz-adv-x="575" 
d="M525 20q0 -8 -6 -14t-14 -6h-139q-8 0 -14 6t-6 14v21q-29 -21 -65 -35.5t-78 -14.5q-30 0 -60 9t-55 30t-40.5 55t-15.5 85v12q0 90 66.5 126.5t191.5 36.5h43v29q0 18 -5.5 29.5t-14.5 18t-21 8.5t-25 2q-48 0 -93.5 -1.5t-80.5 -5.5h-3q-19 0 -19 20v97q0 17 20 24
q12 4 33.5 8t46.5 7.5t52 6t51 2.5q54 0 100 -10.5t79.5 -36t52.5 -67t19 -102.5v-354zM339 241h-49q-38 0 -54 -13t-16 -45v-10q0 -26 15 -35t36 -9q18 0 36.5 4.5t31.5 10.5v97zM513 753q0 -71 -36 -99t-97 -28q-14 0 -35.5 5.5t-37.5 15.5l-40 24q-25 15 -39 15
q-8 0 -13.5 -4t-5.5 -16v-17q0 -17 -16 -17h-84q-17 0 -17 17v17q0 69 36 98t98 29q14 0 34.5 -5t37.5 -15l41 -24q14 -8 22.5 -12t16.5 -4q10 0 14 4.5t4 16.5v17q0 17 17 17h83q17 0 17 -17v-18z" />
    <glyph glyph-name="adieresis" unicode="&#xe4;" horiz-adv-x="575" 
d="M525 20q0 -8 -6 -14t-14 -6h-139q-8 0 -14 6t-6 14v21q-29 -21 -65 -35.5t-78 -14.5q-30 0 -60 9t-55 30t-40.5 55t-15.5 85v12q0 90 66.5 126.5t191.5 36.5h43v29q0 18 -5.5 29.5t-14.5 18t-21 8.5t-25 2q-48 0 -93.5 -1.5t-80.5 -5.5h-3q-19 0 -19 20v97q0 17 20 24
q12 4 33.5 8t46.5 7.5t52 6t51 2.5q54 0 100 -10.5t79.5 -36t52.5 -67t19 -102.5v-354zM339 241h-49q-38 0 -54 -13t-16 -45v-10q0 -26 15 -35t36 -9q18 0 36.5 4.5t31.5 10.5v97zM496 658q0 -8 -7.5 -14t-15.5 -6h-116q-8 0 -15 6t-7 14v98q0 8 7 14t15 6h116q8 0 15.5 -6
t7.5 -14v-98zM262 658q0 -8 -7 -14t-15 -6h-116q-8 0 -15.5 6t-7.5 14v98q0 8 7.5 14t15.5 6h116q8 0 15 -6t7 -14v-98z" />
    <glyph glyph-name="aring" unicode="&#xe5;" horiz-adv-x="575" 
d="M525 20q0 -8 -6 -14t-14 -6h-139q-8 0 -14 6t-6 14v21q-29 -21 -65 -35.5t-78 -14.5q-30 0 -60 9t-55 30t-40.5 55t-15.5 85v12q0 90 66.5 126.5t191.5 36.5h43v29q0 18 -5.5 29.5t-14.5 18t-21 8.5t-25 2q-48 0 -93.5 -1.5t-80.5 -5.5h-3q-19 0 -19 20v97q0 17 20 24
q12 4 33.5 8t46.5 7.5t52 6t51 2.5q54 0 100 -10.5t79.5 -36t52.5 -67t19 -102.5v-354zM339 241h-49q-38 0 -54 -13t-16 -45v-10q0 -26 15 -35t36 -9q18 0 36.5 4.5t31.5 10.5v97zM413 752q0 -25 -9.5 -47.5t-26 -39t-39 -26t-47.5 -9.5t-47 9.5t-38 26t-25 39t-9 47.5
t9 47.5t25 39t38 26t47 9.5t47.5 -9.5t39 -26t26 -39t9.5 -47.5zM333 753q0 17 -12 29t-29 12t-28.5 -12t-11.5 -29t11.5 -30t28.5 -13t29 13t12 30z" />
    <glyph glyph-name="ae" unicode="&#xe6;" horiz-adv-x="892" 
d="M852 262q0 -8 -7 -14.5t-15 -6.5h-306v-34q0 -32 26.5 -44.5t74.5 -12.5q15 0 40 0.5t52 1.5t51 2.5t38 2.5h4q17 0 17 -17v-88q0 -12 -4 -17.5t-15 -10.5q-45 -17 -101.5 -25t-111.5 -8q-37 0 -69 10t-58 28q-43 -18 -85 -28t-89 -10q-255 0 -255 185v11q0 45 19 75.5
t53.5 49t82.5 26.5t107 8h33v15q0 43 -17.5 57t-46.5 14q-24 0 -49.5 -0.5t-49 -1.5t-42 -2.5t-28.5 -2.5h-2q-8 0 -13 6t-5 14v96q0 18 20 25q12 4 31.5 8t42.5 8t47.5 6.5t47.5 2.5q107 0 172 -53q32 26 69.5 39.5t86.5 13.5q66 0 114 -19.5t79 -54.5t46 -84t15 -109v-62z
M668 355q0 40 -16.5 64.5t-55.5 24.5q-37 0 -54.5 -24.5t-17.5 -64.5v-14h144v14zM340 246h-39q-37 0 -59 -13t-22 -46v-11q0 -32 20 -42t54 -10q14 0 23.5 1.5t22.5 5.5v115z" />
    <glyph glyph-name="ccedilla" unicode="&#xe7;" horiz-adv-x="474" 
d="M436 28q0 -10 -5 -14.5t-15 -6.5q-26 -6 -59 -11t-78 -5q-115 0 -177 69t-62 193v75q0 123 62 193t177 70q45 0 80.5 -5.5t56.5 -10.5q10 -2 15 -6.5t5 -14.5v-113q0 -8 -5.5 -13.5t-13.5 -5.5h-2q-26 2 -52 4.5t-63 2.5q-32 0 -50 -22.5t-18 -78.5v-75q0 -56 18 -78
t50 -22q37 0 63 2l52 4h2q8 0 13.5 -5.5t5.5 -13.5v-112zM353 -43q0 -4 -4 -8l-126 -120q-6 -5 -10 -8t-15 -3h-128q-9 0 -9 7q0 6 4 10l91 114q7 8 12 11.5t16 3.5h158q11 0 11 -7z" />
    <glyph glyph-name="egrave" unicode="&#xe8;" horiz-adv-x="602" 
d="M562 259q0 -10 -6 -16t-15 -6h-311v-2q0 -40 20 -63t75 -23q20 0 47 0.5t54 2t51 2.5t38 3h4q18 0 18 -17v-90q0 -12 -4 -18t-16 -10q-48 -16 -101 -23.5t-116 -7.5q-51 0 -98 14t-83 45.5t-57.5 81t-21.5 121.5v66q0 132 71.5 202t194.5 70q66 0 114 -20t79.5 -56
t47 -86t15.5 -110v-60zM378 346q0 45 -18 70.5t-56 25.5q-36 0 -55 -25.5t-19 -70.5v-3h148v3zM384 640q0 -7 -9 -7h-129q-11 0 -14.5 3t-9.5 8l-126 120q-4 4 -4 8q0 7 11 7h158q11 0 16 -3.5t12 -11.5l91 -114q4 -4 4 -10z" />
    <glyph glyph-name="eacute" unicode="&#xe9;" horiz-adv-x="602" 
d="M562 259q0 -10 -6 -16t-15 -6h-311v-2q0 -40 20 -63t75 -23q20 0 47 0.5t54 2t51 2.5t38 3h4q18 0 18 -17v-90q0 -12 -4 -18t-16 -10q-48 -16 -101 -23.5t-116 -7.5q-51 0 -98 14t-83 45.5t-57.5 81t-21.5 121.5v66q0 132 71.5 202t194.5 70q66 0 114 -20t79.5 -56
t47 -86t15.5 -110v-60zM378 346q0 45 -18 70.5t-56 25.5q-36 0 -55 -25.5t-19 -70.5v-3h148v3zM504 772q0 -4 -4 -8l-126 -120q-6 -5 -9.5 -8t-14.5 -3h-129q-9 0 -9 7q0 6 4 10l91 114q7 8 12 11.5t16 3.5h158q11 0 11 -7z" />
    <glyph glyph-name="ecircumflex" unicode="&#xea;" horiz-adv-x="602" 
d="M562 259q0 -10 -6 -16t-15 -6h-311v-2q0 -40 20 -63t75 -23q20 0 47 0.5t54 2t51 2.5t38 3h4q18 0 18 -17v-90q0 -12 -4 -18t-16 -10q-48 -16 -101 -23.5t-116 -7.5q-51 0 -98 14t-83 45.5t-57.5 81t-21.5 121.5v66q0 132 71.5 202t194.5 70q66 0 114 -20t79.5 -56
t47 -86t15.5 -110v-60zM378 346q0 45 -18 70.5t-56 25.5q-36 0 -55 -25.5t-19 -70.5v-3h148v3zM516 640q0 -7 -9 -7h-124q-11 0 -14.5 2.5t-9.5 8.5l-56 59l-56 -59q-6 -6 -9.5 -8.5t-14.5 -2.5h-124q-9 0 -9 7q0 5 4 10l86 114q7 8 12 11.5t16 3.5h190q11 0 16 -3t12 -12
l86 -114q4 -5 4 -10z" />
    <glyph glyph-name="edieresis" unicode="&#xeb;" horiz-adv-x="602" 
d="M562 259q0 -10 -6 -16t-15 -6h-311v-2q0 -40 20 -63t75 -23q20 0 47 0.5t54 2t51 2.5t38 3h4q18 0 18 -17v-90q0 -12 -4 -18t-16 -10q-48 -16 -101 -23.5t-116 -7.5q-51 0 -98 14t-83 45.5t-57.5 81t-21.5 121.5v66q0 132 71.5 202t194.5 70q66 0 114 -20t79.5 -56
t47 -86t15.5 -110v-60zM378 346q0 45 -18 70.5t-56 25.5q-36 0 -55 -25.5t-19 -70.5v-3h148v3zM498 657q0 -8 -7.5 -14t-15.5 -6h-116q-8 0 -15 6t-7 14v98q0 8 7 14t15 6h116q8 0 15.5 -6t7.5 -14v-98zM264 657q0 -8 -7 -14t-15 -6h-116q-8 0 -15.5 6t-7.5 14v98
q0 8 7.5 14t15.5 6h116q8 0 15 -6t7 -14v-98z" />
    <glyph glyph-name="igrave" unicode="&#xec;" horiz-adv-x="313" 
d="M253 22q0 -8 -7 -15t-15 -7h-149q-8 0 -15 7t-7 15v539q0 8 7 14.5t15 6.5h149q8 0 15 -6.5t7 -14.5v-539zM248 640q0 -7 -9 -7h-129q-11 0 -14.5 3t-9.5 8l-126 120q-4 4 -4 8q0 7 11 7h158q11 0 16 -3.5t12 -11.5l91 -114q4 -4 4 -10z" />
    <glyph glyph-name="iacute" unicode="&#xed;" horiz-adv-x="313" 
d="M253 22q0 -8 -7 -15t-15 -7h-149q-8 0 -15 7t-7 15v539q0 8 7 14.5t15 6.5h149q8 0 15 -6.5t7 -14.5v-539zM352 772q0 -4 -4 -8l-126 -120q-6 -5 -9.5 -8t-14.5 -3h-129q-9 0 -9 7q0 6 4 10l91 114q7 8 12 11.5t16 3.5h158q11 0 11 -7z" />
    <glyph glyph-name="icircumflex" unicode="&#xee;" horiz-adv-x="313" 
d="M253 22q0 -8 -7 -15t-15 -7h-149q-8 0 -15 7t-7 15v539q0 8 7 14.5t15 6.5h149q8 0 15 -6.5t7 -14.5v-539zM369 640q0 -7 -9 -7h-124q-11 0 -14.5 2.5t-9.5 8.5l-56 59l-56 -59q-6 -6 -9.5 -8.5t-14.5 -2.5h-124q-9 0 -9 7q0 5 4 10l86 114q7 8 12 11.5t16 3.5h190
q11 0 16 -3t12 -12l86 -114q4 -5 4 -10z" />
    <glyph glyph-name="idieresis" unicode="&#xef;" horiz-adv-x="313" 
d="M253 22q0 -8 -7 -15t-15 -7h-149q-8 0 -15 7t-7 15v539q0 8 7 14.5t15 6.5h149q8 0 15 -6.5t7 -14.5v-539zM354 657q0 -8 -7.5 -14t-15.5 -6h-116q-8 0 -15 6t-7 14v98q0 8 7 14t15 6h116q8 0 15.5 -6t7.5 -14v-98zM120 657q0 -8 -7 -14t-15 -6h-116q-8 0 -15.5 6
t-7.5 14v98q0 8 7.5 14t15.5 6h116q8 0 15 -6t7 -14v-98z" />
    <glyph glyph-name="eth" unicode="&#xf0;" horiz-adv-x="605" 
d="M565 266q0 -140 -68.5 -207.5t-193.5 -67.5q-128 0 -195.5 69t-67.5 206v21q0 140 69 207t194 67q6 0 13.5 -0.5t13.5 -3.5q-36 36 -99 66l-67 -51q-8 -6 -13 -6t-11 6l-25 28q-3 3 -3 8q0 9 10 16l37 28q-11 4 -22.5 7.5t-23.5 7.5q-6 2 -11 5t-5 10q0 3 1 5l28 78
q4 11 14 11q6 0 9 -1q62 -16 119 -39l73 55q7 5 14 5t11 -5l25 -28q4 -6 4 -8q0 -6 -10 -14l-47 -37q116 -63 171.5 -164.5t55.5 -252.5v-21zM373 287q0 64 -17 89.5t-53 25.5t-53.5 -25t-17.5 -90v-21q0 -64 17.5 -89.5t53.5 -25.5t53 25t17 90v21z" />
    <glyph glyph-name="ntilde" unicode="&#xf1;" horiz-adv-x="631" 
d="M576 22q0 -8 -5.5 -15t-14.5 -7h-150q-9 0 -15.5 7t-6.5 15v339q0 40 -14 55t-48 15q-17 0 -37.5 -6t-37.5 -15v-388q0 -8 -5.5 -15t-14.5 -7h-150q-9 0 -15.5 7t-6.5 15v540q0 8 6 14t14 6h139q8 0 14 -6t6 -14v-23q20 15 38 25t37 15.5t40.5 8t49.5 2.5q55 0 90 -19
t54 -51t26 -73t7 -86v-339zM524 753q0 -71 -36 -99t-97 -28q-14 0 -35.5 5.5t-37.5 15.5l-40 24q-25 15 -39 15q-8 0 -13.5 -4t-5.5 -16v-17q0 -17 -16 -17h-84q-17 0 -17 17v17q0 69 36 98t98 29q14 0 34.5 -5t37.5 -15l41 -24q14 -8 22.5 -12t16.5 -4q10 0 14 4.5t4 16.5
v17q0 17 17 17h83q17 0 17 -17v-18z" />
    <glyph glyph-name="ograve" unicode="&#xf2;" horiz-adv-x="605" 
d="M565 262q0 -133 -68 -202t-194 -69t-194.5 69t-68.5 202v58q0 133 68.5 202t194.5 69t194 -69t68 -202v-58zM374 320q0 60 -18 85t-53 25t-53.5 -25t-18.5 -85v-58q0 -60 18.5 -85.5t53.5 -25.5t53 25.5t18 85.5v58zM405 640q0 -7 -9 -7h-129q-11 0 -14.5 3t-9.5 8
l-126 120q-4 4 -4 8q0 7 11 7h158q11 0 16 -3.5t12 -11.5l91 -114q4 -4 4 -10z" />
    <glyph glyph-name="oacute" unicode="&#xf3;" horiz-adv-x="605" 
d="M565 262q0 -133 -68 -202t-194 -69t-194.5 69t-68.5 202v58q0 133 68.5 202t194.5 69t194 -69t68 -202v-58zM374 320q0 60 -18 85t-53 25t-53.5 -25t-18.5 -85v-58q0 -60 18.5 -85.5t53.5 -25.5t53 25.5t18 85.5v58zM489 772q0 -4 -4 -8l-126 -120q-6 -5 -9.5 -8
t-14.5 -3h-129q-9 0 -9 7q0 6 4 10l91 114q7 8 12 11.5t16 3.5h158q11 0 11 -7z" />
    <glyph glyph-name="ocircumflex" unicode="&#xf4;" horiz-adv-x="605" 
d="M565 262q0 -133 -68 -202t-194 -69t-194.5 69t-68.5 202v58q0 133 68.5 202t194.5 69t194 -69t68 -202v-58zM374 320q0 60 -18 85t-53 25t-53.5 -25t-18.5 -85v-58q0 -60 18.5 -85.5t53.5 -25.5t53 25.5t18 85.5v58zM515 640q0 -7 -9 -7h-124q-11 0 -14.5 2.5t-9.5 8.5
l-56 59l-56 -59q-6 -6 -9.5 -8.5t-14.5 -2.5h-124q-9 0 -9 7q0 5 4 10l86 114q7 8 12 11.5t16 3.5h190q11 0 16 -3t12 -12l86 -114q4 -5 4 -10z" />
    <glyph glyph-name="otilde" unicode="&#xf5;" horiz-adv-x="605" 
d="M565 262q0 -133 -68 -202t-194 -69t-194.5 69t-68.5 202v58q0 133 68.5 202t194.5 69t194 -69t68 -202v-58zM374 320q0 60 -18 85t-53 25t-53.5 -25t-18.5 -85v-58q0 -60 18.5 -85.5t53.5 -25.5t53 25.5t18 85.5v58zM512 753q0 -71 -36 -99t-97 -28q-14 0 -35.5 5.5
t-37.5 15.5l-40 24q-25 15 -39 15q-8 0 -13.5 -4t-5.5 -16v-17q0 -17 -16 -17h-84q-17 0 -17 17v17q0 69 36 98t98 29q14 0 34.5 -5t37.5 -15l41 -24q14 -8 22.5 -12t16.5 -4q10 0 14 4.5t4 16.5v17q0 17 17 17h83q17 0 17 -17v-18z" />
    <glyph glyph-name="odieresis" unicode="&#xf6;" horiz-adv-x="605" 
d="M565 262q0 -133 -68 -202t-194 -69t-194.5 69t-68.5 202v58q0 133 68.5 202t194.5 69t194 -69t68 -202v-58zM374 320q0 60 -18 85t-53 25t-53.5 -25t-18.5 -85v-58q0 -60 18.5 -85.5t53.5 -25.5t53 25.5t18 85.5v58zM499 657q0 -8 -7.5 -14t-15.5 -6h-116q-8 0 -15 6
t-7 14v98q0 8 7 14t15 6h116q8 0 15.5 -6t7.5 -14v-98zM265 657q0 -8 -7 -14t-15 -6h-116q-8 0 -15.5 6t-7.5 14v98q0 8 7.5 14t15.5 6h116q8 0 15 -6t7 -14v-98z" />
    <glyph glyph-name="divide" unicode="&#xf7;" 
d="M426 562q0 -8 -6.5 -14t-14.5 -6h-146q-8 0 -14 6t-6 14v122q0 8 6 14t14 6h146q8 0 14.5 -6t6.5 -14v-122zM569 336q0 -8 -6 -12t-14 -4h-432q-8 0 -14 4t-6 12v110q0 8 6 12t14 4h432q8 0 14 -4t6 -12v-110zM426 81q0 -8 -6.5 -14t-14.5 -6h-146q-8 0 -14 6t-6 14v122
q0 8 6 14t14 6h146q8 0 14.5 -6t6.5 -14v-122z" />
    <glyph glyph-name="oslash" unicode="&#xf8;" horiz-adv-x="605" 
d="M575 608q0 -6 -4 -11l-64 -87q58 -69 58 -190v-58q0 -133 -68 -202t-194 -69q-89 0 -152 37l-39 -53q-5 -7 -8 -8.5t-8 -1.5h-58q-8 0 -8 8q0 6 4 11l65 88q-29 34 -44 81.5t-15 108.5v58q0 133 68.5 202t194.5 69q90 0 152 -37l38 52q5 7 8 8.5t8 1.5h58q8 0 8 -8z
M350 412q-18 18 -47 18q-35 0 -53.5 -25t-18.5 -85v-58v-7v-4zM374 330l-119 -160q18 -19 48 -19q35 0 53 25.5t18 85.5v58v7v3z" />
    <glyph glyph-name="ugrave" unicode="&#xf9;" horiz-adv-x="631" 
d="M576 20q0 -8 -6 -14t-14 -6h-139q-8 0 -14 6t-6 14v23q-27 -20 -64.5 -36t-93.5 -16t-91.5 19t-56 51t-28.5 73.5t-8 86.5v339q0 8 5.5 15t14.5 7h150q9 0 15.5 -7t6.5 -15v-339q0 -40 12 -55.5t50 -15.5q17 0 37.5 6.5t37.5 15.5v388q0 8 5.5 15t14.5 7h150q9 0 15.5 -7
t6.5 -15v-540zM416 640q0 -7 -9 -7h-129q-11 0 -14.5 3t-9.5 8l-126 120q-4 4 -4 8q0 7 11 7h158q11 0 16 -3.5t12 -11.5l91 -114q4 -4 4 -10z" />
    <glyph glyph-name="uacute" unicode="&#xfa;" horiz-adv-x="631" 
d="M576 20q0 -8 -6 -14t-14 -6h-139q-8 0 -14 6t-6 14v23q-27 -20 -64.5 -36t-93.5 -16t-91.5 19t-56 51t-28.5 73.5t-8 86.5v339q0 8 5.5 15t14.5 7h150q9 0 15.5 -7t6.5 -15v-339q0 -40 12 -55.5t50 -15.5q17 0 37.5 6.5t37.5 15.5v388q0 8 5.5 15t14.5 7h150q9 0 15.5 -7
t6.5 -15v-540zM517 772q0 -4 -4 -8l-126 -120q-6 -5 -9.5 -8t-14.5 -3h-129q-9 0 -9 7q0 6 4 10l91 114q7 8 12 11.5t16 3.5h158q11 0 11 -7z" />
    <glyph glyph-name="ucircumflex" unicode="&#xfb;" horiz-adv-x="631" 
d="M576 20q0 -8 -6 -14t-14 -6h-139q-8 0 -14 6t-6 14v23q-27 -20 -64.5 -36t-93.5 -16t-91.5 19t-56 51t-28.5 73.5t-8 86.5v339q0 8 5.5 15t14.5 7h150q9 0 15.5 -7t6.5 -15v-339q0 -40 12 -55.5t50 -15.5q17 0 37.5 6.5t37.5 15.5v388q0 8 5.5 15t14.5 7h150q9 0 15.5 -7
t6.5 -15v-540zM528 640q0 -7 -9 -7h-124q-11 0 -14.5 2.5t-9.5 8.5l-56 59l-56 -59q-6 -6 -9.5 -8.5t-14.5 -2.5h-124q-9 0 -9 7q0 5 4 10l86 114q7 8 12 11.5t16 3.5h190q11 0 16 -3t12 -12l86 -114q4 -5 4 -10z" />
    <glyph glyph-name="udieresis" unicode="&#xfc;" horiz-adv-x="631" 
d="M576 20q0 -8 -6 -14t-14 -6h-139q-8 0 -14 6t-6 14v23q-27 -20 -64.5 -36t-93.5 -16t-91.5 19t-56 51t-28.5 73.5t-8 86.5v339q0 8 5.5 15t14.5 7h150q9 0 15.5 -7t6.5 -15v-339q0 -40 12 -55.5t50 -15.5q17 0 37.5 6.5t37.5 15.5v388q0 8 5.5 15t14.5 7h150q9 0 15.5 -7
t6.5 -15v-540zM515 657q0 -8 -7.5 -14t-15.5 -6h-116q-8 0 -15 6t-7 14v98q0 8 7 14t15 6h116q8 0 15.5 -6t7.5 -14v-98zM281 657q0 -8 -7 -14t-15 -6h-116q-8 0 -15.5 6t-7.5 14v98q0 8 7.5 14t15.5 6h116q8 0 15 -6t7 -14v-98z" />
    <glyph glyph-name="yacute" unicode="&#xfd;" horiz-adv-x="621" 
d="M604 564q0 -1 -0.5 -2t-0.5 -2l-170 -594q-11 -40 -27 -71.5t-42 -53t-65.5 -33t-98.5 -11.5q-15 0 -34 1.5t-38 4t-36 5.5t-27 7q-8 3 -15.5 7t-7.5 12v97q0 8 6.5 14.5t15.5 6.5h1q14 -1 31.5 -2t36.5 -2.5t37 -2.5t32 -1q21 0 35 8t19 30l8 33h-13q-17 0 -31 2.5
t-26 13t-22.5 31t-21.5 57.5l-132 441q-1 2 -1 7q0 15 22 15h163q8 0 13 -6t7 -14l79 -344q4 -17 11 -17h8l79 362q3 19 21 19h163q8 0 14.5 -5t6.5 -13zM518 772q0 -4 -4 -8l-126 -120q-6 -5 -9.5 -8t-14.5 -3h-129q-9 0 -9 7q0 6 4 10l91 114q7 8 12 11.5t16 3.5h158
q11 0 11 -7z" />
    <glyph glyph-name="thorn" unicode="&#xfe;" horiz-adv-x="616" 
d="M578 253q0 -120 -65.5 -191t-197.5 -71q-12 0 -33 2.5t-35 5.5v-168q0 -8 -6 -14.5t-14 -6.5h-150q-8 0 -15 6.5t-7 14.5v922q0 8 5.5 14t13.5 6h153q8 0 14 -6t6 -14v-165q31 3 68 3q121 0 192 -67t71 -195v-76zM386 329q0 47 -15.5 74.5t-55.5 27.5q-22 0 -36.5 -1.5
t-31.5 -3.5v-271q15 -2 31.5 -3t36.5 -1q39 0 55 28t16 74v76z" />
    <glyph glyph-name="ydieresis" unicode="&#xff;" horiz-adv-x="621" 
d="M604 564q0 -1 -0.5 -2t-0.5 -2l-170 -594q-11 -40 -27 -71.5t-42 -53t-65.5 -33t-98.5 -11.5q-15 0 -34 1.5t-38 4t-36 5.5t-27 7q-8 3 -15.5 7t-7.5 12v97q0 8 6.5 14.5t15.5 6.5h1q14 -1 31.5 -2t36.5 -2.5t37 -2.5t32 -1q21 0 35 8t19 30l8 33h-13q-17 0 -31 2.5
t-26 13t-22.5 31t-21.5 57.5l-132 441q-1 2 -1 7q0 15 22 15h163q8 0 13 -6t7 -14l79 -344q4 -17 11 -17h8l79 362q3 19 21 19h163q8 0 14.5 -5t6.5 -13zM515 657q0 -8 -7.5 -14t-15.5 -6h-116q-8 0 -15 6t-7 14v98q0 8 7 14t15 6h116q8 0 15.5 -6t7.5 -14v-98zM281 657
q0 -8 -7 -14t-15 -6h-116q-8 0 -15.5 6t-7.5 14v98q0 8 7.5 14t15.5 6h116q8 0 15 -6t7 -14v-98z" />
    <glyph glyph-name="Amacron" unicode="&#x100;" horiz-adv-x="692" 
d="M673 16q0 -16 -16 -16h-174q-8 0 -13 5.5t-7 13.5l-28 139h-178l-28 -139q-2 -8 -7 -13.5t-13 -5.5h-173q-17 0 -17 16q0 2 0.5 2.5t0.5 2.5l134 612q8 37 26 60.5t43 36.5t56 17.5t67 4.5t67 -4.5t56 -17.5t43 -36.5t26 -60.5l134 -612q0 -2 0.5 -3t0.5 -2zM357 572
l-3 10.5t-8 3.5t-8 -3.5l-3 -10.5l-49 -254h120zM533 825q0 -8 -6 -14t-14 -6h-339q-8 0 -14 6t-6 14v88q0 8 6 13.5t14 5.5h339q8 0 14 -5.5t6 -13.5v-88z" />
    <glyph glyph-name="amacron" unicode="&#x101;" horiz-adv-x="575" 
d="M525 20q0 -8 -6 -14t-14 -6h-139q-8 0 -14 6t-6 14v21q-29 -21 -65 -35.5t-78 -14.5q-30 0 -60 9t-55 30t-40.5 55t-15.5 85v12q0 90 66.5 126.5t191.5 36.5h43v29q0 18 -5.5 29.5t-14.5 18t-21 8.5t-25 2q-48 0 -93.5 -1.5t-80.5 -5.5h-3q-19 0 -19 20v97q0 17 20 24
q12 4 33.5 8t46.5 7.5t52 6t51 2.5q54 0 100 -10.5t79.5 -36t52.5 -67t19 -102.5v-354zM339 241h-49q-38 0 -54 -13t-16 -45v-10q0 -26 15 -35t36 -9q18 0 36.5 4.5t31.5 10.5v97zM477 664q0 -8 -6 -14t-14 -6h-339q-8 0 -14 6t-6 14v88q0 8 6 13.5t14 5.5h339q8 0 14 -5.5
t6 -13.5v-88z" />
    <glyph glyph-name="Abreve" unicode="&#x102;" horiz-adv-x="692" 
d="M673 16q0 -16 -16 -16h-174q-8 0 -13 5.5t-7 13.5l-28 139h-178l-28 -139q-2 -8 -7 -13.5t-13 -5.5h-173q-17 0 -17 16q0 2 0.5 2.5t0.5 2.5l134 612q8 37 26 60.5t43 36.5t56 17.5t67 4.5t67 -4.5t56 -17.5t43 -36.5t26 -60.5l134 -612q0 -2 0.5 -3t0.5 -2zM357 572
l-3 10.5t-8 3.5t-8 -3.5l-3 -10.5l-49 -254h120zM551 934q0 -1 -2 -7q-27 -70 -79 -106.5t-127 -36.5t-127 36.5t-79 106.5q-2 6 -2 7q0 6 9 6h118q9 0 11.5 -3.5t4.5 -9.5q8 -28 28 -37t37 -9t37 9t28 37q2 6 4.5 9.5t11.5 3.5h118q9 0 9 -6z" />
    <glyph glyph-name="abreve" unicode="&#x103;" horiz-adv-x="575" 
d="M525 20q0 -8 -6 -14t-14 -6h-139q-8 0 -14 6t-6 14v21q-29 -21 -65 -35.5t-78 -14.5q-30 0 -60 9t-55 30t-40.5 55t-15.5 85v12q0 90 66.5 126.5t191.5 36.5h43v29q0 18 -5.5 29.5t-14.5 18t-21 8.5t-25 2q-48 0 -93.5 -1.5t-80.5 -5.5h-3q-19 0 -19 20v97q0 17 20 24
q12 4 33.5 8t46.5 7.5t52 6t51 2.5q54 0 100 -10.5t79.5 -36t52.5 -67t19 -102.5v-354zM339 241h-49q-38 0 -54 -13t-16 -45v-10q0 -26 15 -35t36 -9q18 0 36.5 4.5t31.5 10.5v97zM496 773q0 -1 -2 -7q-27 -70 -79 -106.5t-127 -36.5t-127 36.5t-79 106.5q-2 6 -2 7q0 6 9 6
h118q9 0 11.5 -3.5t4.5 -9.5q8 -28 28 -37t37 -9t37 9t28 37q2 6 4.5 9.5t11.5 3.5h118q9 0 9 -6z" />
    <glyph glyph-name="Aogonek" unicode="&#x104;" horiz-adv-x="692" 
d="M257 158l-28 -139q-2 -8 -7 -13.5t-13 -5.5h-173q-17 0 -17 14q0 1 3 16l132 603q8 37 26 60.5t43 36.5t56 17.5t67 4.5t67 -4.5t56 -17.5t43 -36.5t26 -60.5l132 -602q3 -14 3 -16q0 -12 -11 -15l-82 -30q-11 -5 -18.5 -12.5t-7.5 -17.5q0 -15 9.5 -21t31.5 -6
q19 0 39 4.5t28 4.5q7 0 8.5 -2t1.5 -10v-76q0 -5 -1.5 -8t-9.5 -7q-11 -5 -43.5 -12.5t-74.5 -7.5q-26 0 -50 4.5t-43 16t-30.5 30t-11.5 46.5q0 33 13.5 56t45.5 44l-32 162h-178zM357 572l-3 10.5t-8 3.5t-8 -3.5l-3 -10.5l-49 -254h120z" />
    <glyph glyph-name="aogonek" unicode="&#x105;" horiz-adv-x="575" 
d="M525 20q0 -8 -3 -12t-12 -8l-75 -30q-11 -5 -18.5 -12.5t-7.5 -17.5q0 -15 9.5 -21t31.5 -6q19 0 39 4.5t28 4.5q7 0 8.5 -2t1.5 -10v-76q0 -5 -1.5 -8t-9.5 -7q-11 -5 -43.5 -12.5t-74.5 -7.5q-26 0 -50 4.5t-43 16t-30.5 30t-11.5 46.5q0 35 16 59t55 47l12 7v32
q-29 -21 -65 -35.5t-78 -14.5q-30 0 -60 9t-55 30t-40.5 55t-15.5 85v12q0 90 66.5 126.5t191.5 36.5h43v29q0 18 -5.5 29.5t-14.5 18t-21 8.5t-25 2q-48 0 -93.5 -1.5t-80.5 -5.5h-3q-19 0 -19 20v97q0 17 20 24q12 4 33.5 8t46.5 7.5t52 6t51 2.5q54 0 100 -10.5t79.5 -36
t52.5 -67t19 -102.5v-354zM339 241h-49q-38 0 -54 -13t-16 -45v-10q0 -26 15 -35t36 -9q18 0 36.5 4.5t31.5 10.5v97z" />
    <glyph glyph-name="Cacute" unicode="&#x106;" horiz-adv-x="555" 
d="M517 31q0 -10 -5 -14t-17 -8q-20 -7 -56 -12.5t-84 -5.5q-69 0 -126 19t-97.5 59.5t-62.5 102.5t-22 148v103q0 86 22 148t62.5 102.5t97.5 59.5t126 19q48 0 84 -5.5t56 -12.5q12 -4 17 -7.5t5 -14.5v-128q0 -19 -18 -19h-3q-31 3 -64 6t-76 3q-20 0 -39 -5.5t-33 -22
t-22.5 -46t-8.5 -77.5v-103q0 -47 8.5 -76.5t22.5 -46t32.5 -22.5t39.5 -6q43 0 76 3t64 6h3q18 0 18 -19v-128zM492 933q0 -4 -4 -8l-126 -120q-6 -5 -9.5 -8t-14.5 -3h-129q-9 0 -9 7q0 6 4 10l91 114q7 8 12 11.5t16 3.5h158q11 0 11 -7z" />
    <glyph glyph-name="cacute" unicode="&#x107;" horiz-adv-x="474" 
d="M436 28q0 -10 -5 -14.5t-15 -6.5q-26 -6 -59 -11t-78 -5q-115 0 -177 69t-62 193v75q0 123 62 193t177 70q45 0 80.5 -5.5t56.5 -10.5q10 -2 15 -6.5t5 -14.5v-113q0 -8 -5.5 -13.5t-13.5 -5.5h-2q-26 2 -52 4.5t-63 2.5q-32 0 -50 -22.5t-18 -78.5v-75q0 -56 18 -78
t50 -22q37 0 63 2l52 4h2q8 0 13.5 -5.5t5.5 -13.5v-112zM440 772q0 -4 -4 -8l-126 -120q-6 -5 -9.5 -8t-14.5 -3h-129q-9 0 -9 7q0 6 4 10l91 114q7 8 12 11.5t16 3.5h158q11 0 11 -7z" />
    <glyph glyph-name="Ccircumflex" unicode="&#x108;" horiz-adv-x="555" 
d="M517 31q0 -10 -5 -14t-17 -8q-20 -7 -56 -12.5t-84 -5.5q-69 0 -126 19t-97.5 59.5t-62.5 102.5t-22 148v103q0 86 22 148t62.5 102.5t97.5 59.5t126 19q48 0 84 -5.5t56 -12.5q12 -4 17 -7.5t5 -14.5v-128q0 -19 -18 -19h-3q-31 3 -64 6t-76 3q-20 0 -39 -5.5t-33 -22
t-22.5 -46t-8.5 -77.5v-103q0 -47 8.5 -76.5t22.5 -46t32.5 -22.5t39.5 -6q43 0 76 3t64 6h3q18 0 18 -19v-128zM509 802q0 -7 -9 -7h-124q-11 0 -14.5 2.5t-9.5 8.5l-56 59l-56 -59q-6 -6 -9.5 -8.5t-14.5 -2.5h-124q-9 0 -9 7q0 5 4 10l86 114q7 8 12 11.5t16 3.5h190
q11 0 16 -3t12 -12l86 -114q4 -5 4 -10z" />
    <glyph glyph-name="ccircumflex" unicode="&#x109;" horiz-adv-x="474" 
d="M436 28q0 -10 -5 -14.5t-15 -6.5q-26 -6 -59 -11t-78 -5q-115 0 -177 69t-62 193v75q0 123 62 193t177 70q45 0 80.5 -5.5t56.5 -10.5q10 -2 15 -6.5t5 -14.5v-113q0 -8 -5.5 -13.5t-13.5 -5.5h-2q-26 2 -52 4.5t-63 2.5q-32 0 -50 -22.5t-18 -78.5v-75q0 -56 18 -78
t50 -22q37 0 63 2l52 4h2q8 0 13.5 -5.5t5.5 -13.5v-112zM463 640q0 -7 -9 -7h-124q-11 0 -14.5 2.5t-9.5 8.5l-56 59l-56 -59q-6 -6 -9.5 -8.5t-14.5 -2.5h-124q-9 0 -9 7q0 5 4 10l86 114q7 8 12 11.5t16 3.5h190q11 0 16 -3t12 -12l86 -114q4 -5 4 -10z" />
    <glyph glyph-name="Cdotaccent" unicode="&#x10a;" horiz-adv-x="555" 
d="M517 31q0 -10 -5 -14t-17 -8q-20 -7 -56 -12.5t-84 -5.5q-69 0 -126 19t-97.5 59.5t-62.5 102.5t-22 148v103q0 86 22 148t62.5 102.5t97.5 59.5t126 19q48 0 84 -5.5t56 -12.5q12 -4 17 -7.5t5 -14.5v-128q0 -19 -18 -19h-3q-31 3 -64 6t-76 3q-20 0 -39 -5.5t-33 -22
t-22.5 -46t-8.5 -77.5v-103q0 -47 8.5 -76.5t22.5 -46t32.5 -22.5t39.5 -6q43 0 76 3t64 6h3q18 0 18 -19v-128zM415 825q0 -8 -6.5 -14t-14.5 -6h-146q-8 0 -14 6t-6 14v109q0 8 6 14t14 6h146q8 0 14.5 -6t6.5 -14v-109z" />
    <glyph glyph-name="cdotaccent" unicode="&#x10b;" horiz-adv-x="474" 
d="M436 28q0 -10 -5 -14.5t-15 -6.5q-26 -6 -59 -11t-78 -5q-115 0 -177 69t-62 193v75q0 123 62 193t177 70q45 0 80.5 -5.5t56.5 -10.5q10 -2 15 -6.5t5 -14.5v-113q0 -8 -5.5 -13.5t-13.5 -5.5h-2q-26 2 -52 4.5t-63 2.5q-32 0 -50 -22.5t-18 -78.5v-75q0 -56 18 -78
t50 -22q37 0 63 2l52 4h2q8 0 13.5 -5.5t5.5 -13.5v-112zM356 653q0 -8 -6.5 -14t-14.5 -6h-146q-8 0 -14 6t-6 14v109q0 8 6 14t14 6h146q8 0 14.5 -6t6.5 -14v-109z" />
    <glyph glyph-name="Ccaron" unicode="&#x10c;" horiz-adv-x="555" 
d="M517 31q0 -10 -5 -14t-17 -8q-20 -7 -56 -12.5t-84 -5.5q-69 0 -126 19t-97.5 59.5t-62.5 102.5t-22 148v103q0 86 22 148t62.5 102.5t97.5 59.5t126 19q48 0 84 -5.5t56 -12.5q12 -4 17 -7.5t5 -14.5v-128q0 -19 -18 -19h-3q-31 3 -64 6t-76 3q-20 0 -39 -5.5t-33 -22
t-22.5 -46t-8.5 -77.5v-103q0 -47 8.5 -76.5t22.5 -46t32.5 -22.5t39.5 -6q43 0 76 3t64 6h3q18 0 18 -19v-128zM528 933q0 -5 -4 -10l-89 -114q-7 -8 -12 -11.5t-16 -3.5h-190q-11 0 -16 3t-12 12l-89 114q-4 5 -4 10q0 7 9 7h127q11 0 14.5 -2.5t9.5 -8.5l56 -57l56 57
q6 6 9.5 8.5t14.5 2.5h127q9 0 9 -7z" />
    <glyph glyph-name="ccaron" unicode="&#x10d;" horiz-adv-x="474" 
d="M436 28q0 -10 -5 -14.5t-15 -6.5q-26 -6 -59 -11t-78 -5q-115 0 -177 69t-62 193v75q0 123 62 193t177 70q45 0 80.5 -5.5t56.5 -10.5q10 -2 15 -6.5t5 -14.5v-113q0 -8 -5.5 -13.5t-13.5 -5.5h-2q-26 2 -52 4.5t-63 2.5q-32 0 -50 -22.5t-18 -78.5v-75q0 -56 18 -78
t50 -22q37 0 63 2l52 4h2q8 0 13.5 -5.5t5.5 -13.5v-112zM475 772q0 -5 -4 -10l-89 -114q-7 -8 -12 -11.5t-16 -3.5h-190q-11 0 -16 3t-12 12l-89 114q-4 5 -4 10q0 7 9 7h127q11 0 14.5 -2.5t9.5 -8.5l56 -57l56 57q6 6 9.5 8.5t14.5 2.5h127q9 0 9 -7z" />
    <glyph glyph-name="Dcaron" unicode="&#x10e;" horiz-adv-x="696" 
d="M651 317q0 -84 -23 -145.5t-65 -101.5t-102 -59.5t-135 -19.5q-72 0 -131 5t-98 12q-17 3 -24.5 11t-7.5 28v650q0 20 7.5 28t24.5 11q39 7 98 12t131 5q74 0 134 -19.5t102.5 -59.5t65.5 -101.5t23 -145.5v-110zM446 427q0 45 -7.5 74.5t-22.5 46.5t-37.5 24t-52.5 7
h-13t-17 -0.5t-16.5 -0.5h-10.5v-413q3 0 10 -0.5t16 -0.5h17.5h13.5q30 0 52.5 7t37.5 24t22.5 47t7.5 75v110zM564 934q0 -5 -4 -10l-89 -114q-7 -8 -12 -11.5t-16 -3.5h-190q-11 0 -16 3t-12 12l-89 114q-4 5 -4 10q0 7 9 7h127q11 0 14.5 -2.5t9.5 -8.5l56 -57l56 57
q6 6 9.5 8.5t14.5 2.5h127q9 0 9 -7z" />
    <glyph glyph-name="dcaron" unicode="&#x10f;" horiz-adv-x="841" 
d="M561 48q0 -13 -6 -20t-29 -12q-39 -8 -97.5 -16.5t-126.5 -8.5q-124 0 -193.5 66.5t-69.5 194.5v78q0 60 16 108t49 82t82.5 52.5t115.5 18.5q12 0 32 -2.5l36 -4.5v169q0 8 6 14t14 6h149q8 0 15 -6t7 -14v-705zM370 428q-15 2 -32.5 3t-35.5 1q-42 0 -57 -28.5
t-15 -73.5v-78q0 -45 15 -74t57 -29q22 0 38 1.5t30 3.5v274zM851 762q0 -2 -2 -8l-100 -230q-4 -10 -7.5 -14.5t-11.5 -4.5h-109q-12 0 -12 11q0 5 1 8l65 230q4 19 20 19h144q12 0 12 -11z" />
    <glyph glyph-name="Dcroat" unicode="&#x110;" horiz-adv-x="696" 
d="M651 324q0 -89 -23.5 -152t-66.5 -103.5t-102.5 -59t-132.5 -18.5q-78 0 -133 4.5t-98 12.5q-17 3 -24.5 11t-7.5 28v251h-51q-8 0 -14 6t-6 14v119q0 8 6 13.5t14 5.5h51v240q0 20 7.5 28t24.5 11q43 8 98 13t133 5q72 0 132 -18.5t103 -58.5t66.5 -103.5t23.5 -152.5
v-96zM445 420q0 46 -7 76.5t-21.5 48.5t-37 25.5t-53.5 7.5q-17 0 -35 -0.5t-24 -0.5v-121h53q19 0 19 -19v-119q0 -8 -5.5 -14t-13.5 -6h-53v-131q5 -1 24.5 -1h34.5q31 0 53.5 7t37 25t21.5 48.5t7 77.5v96z" />
    <glyph glyph-name="dcroat" unicode="&#x111;" horiz-adv-x="616" 
d="M561 48q0 -13 -6 -20t-29 -12q-39 -8 -97.5 -16.5t-126.5 -8.5q-124 0 -193.5 66.5t-69.5 194.5v78q0 60 16 108t49 82t82.5 52.5t115.5 18.5q12 0 32 -2.5l36 -4.5v49h-114q-8 0 -14 6t-6 14v49q0 8 6 13.5t14 5.5h114v32q0 8 6 14t14 6h149q8 0 15 -6t7 -14v-32h36
q19 0 19 -19v-49q0 -8 -5.5 -14t-13.5 -6h-36v-585zM370 428q-15 2 -32.5 3t-35.5 1q-42 0 -57 -28.5t-15 -73.5v-78q0 -45 15 -74t57 -29q22 0 38 1.5t30 3.5v274z" />
    <glyph glyph-name="Emacron" unicode="&#x112;" horiz-adv-x="585" 
d="M490 825q0 -8 -6 -14t-14 -6h-339q-8 0 -14 6t-6 14v88q0 8 6 13.5t14 5.5h339q8 0 14 -5.5t6 -13.5v-88zM532 23q0 -17 -20 -20q-29 -4 -76.5 -8t-120.5 -4q-48 0 -94 7.5t-82 31.5t-58 68t-22 117v314q0 72 22 116t58 68t82 32t94 8q73 0 120.5 -4t76.5 -8
q20 -3 20 -20v-122q0 -8 -6 -14t-14 -6h-202q-27 0 -37.5 -10.5t-10.5 -39.5v-73h246q8 0 14 -6t6 -14v-118q0 -8 -6 -14t-14 -6h-246v-83q0 -29 10.5 -39.5t37.5 -10.5h202q8 0 14 -6t6 -14v-122z" />
    <glyph glyph-name="emacron" unicode="&#x113;" horiz-adv-x="602" 
d="M562 259q0 -10 -6 -16t-15 -6h-311v-2q0 -40 20 -63t75 -23q20 0 47 0.5t54 2t51 2.5t38 3h4q18 0 18 -17v-90q0 -12 -4 -18t-16 -10q-48 -16 -101 -23.5t-116 -7.5q-51 0 -98 14t-83 45.5t-57.5 81t-21.5 121.5v66q0 132 71.5 202t194.5 70q66 0 114 -20t79.5 -56
t47 -86t15.5 -110v-60zM378 346q0 45 -18 70.5t-56 25.5q-36 0 -55 -25.5t-19 -70.5v-3h148v3zM491 664q0 -8 -6 -14t-14 -6h-339q-8 0 -14 6t-6 14v88q0 8 6 13.5t14 5.5h339q8 0 14 -5.5t6 -13.5v-88z" />
    <glyph glyph-name="Ebreve" unicode="&#x114;" horiz-adv-x="585" 
d="M532 23q0 -17 -20 -20q-29 -4 -76.5 -8t-120.5 -4q-48 0 -94 7.5t-82 31.5t-58 68t-22 117v314q0 72 22 116t58 68t82 32t94 8q73 0 120.5 -4t76.5 -8q20 -3 20 -20v-122q0 -8 -6 -14t-14 -6h-202q-27 0 -37.5 -10.5t-10.5 -39.5v-73h246q8 0 14 -6t6 -14v-118
q0 -8 -6 -14t-14 -6h-246v-83q0 -29 10.5 -39.5t37.5 -10.5h202q8 0 14 -6t6 -14v-122zM522 945q0 -1 -2 -7q-27 -70 -79 -106.5t-127 -36.5t-127 36.5t-79 106.5q-2 6 -2 7q0 6 9 6h118q9 0 11.5 -3.5t4.5 -9.5q8 -28 28 -37t37 -9t37 9t28 37q2 6 4.5 9.5t11.5 3.5h118
q9 0 9 -6z" />
    <glyph glyph-name="ebreve" unicode="&#x115;" horiz-adv-x="602" 
d="M562 259q0 -10 -6 -16t-15 -6h-311v-2q0 -40 20 -63t75 -23q20 0 47 0.5t54 2t51 2.5t38 3h4q18 0 18 -17v-90q0 -12 -4 -18t-16 -10q-48 -16 -101 -23.5t-116 -7.5q-51 0 -98 14t-83 45.5t-57.5 81t-21.5 121.5v66q0 132 71.5 202t194.5 70q66 0 114 -20t79.5 -56
t47 -86t15.5 -110v-60zM378 346q0 45 -18 70.5t-56 25.5q-36 0 -55 -25.5t-19 -70.5v-3h148v3zM510 783q0 -1 -2 -7q-27 -70 -79 -106.5t-127 -36.5t-127 36.5t-79 106.5q-2 6 -2 7q0 6 9 6h118q9 0 11.5 -3.5t4.5 -9.5q8 -28 28 -37t37 -9t37 9t28 37q2 6 4.5 9.5t11.5 3.5
h118q9 0 9 -6z" />
    <glyph glyph-name="Edotaccent" unicode="&#x116;" horiz-adv-x="585" 
d="M386 818q0 -8 -6.5 -14t-14.5 -6h-146q-8 0 -14 6t-6 14v109q0 8 6 14t14 6h146q8 0 14.5 -6t6.5 -14v-109zM532 23q0 -17 -20 -20q-29 -4 -76.5 -8t-120.5 -4q-48 0 -94 7.5t-82 31.5t-58 68t-22 117v314q0 72 22 116t58 68t82 32t94 8q73 0 120.5 -4t76.5 -8
q20 -3 20 -20v-122q0 -8 -6 -14t-14 -6h-202q-27 0 -37.5 -10.5t-10.5 -39.5v-73h246q8 0 14 -6t6 -14v-118q0 -8 -6 -14t-14 -6h-246v-83q0 -29 10.5 -39.5t37.5 -10.5h202q8 0 14 -6t6 -14v-122z" />
    <glyph glyph-name="edotaccent" unicode="&#x117;" horiz-adv-x="602" 
d="M562 259q0 -10 -6 -16t-15 -6h-311v-2q0 -40 20 -63t75 -23q20 0 47 0.5t54 2t51 2.5t38 3h4q18 0 18 -17v-90q0 -12 -4 -18t-16 -10q-48 -16 -101 -23.5t-116 -7.5q-51 0 -98 14t-83 45.5t-57.5 81t-21.5 121.5v66q0 132 71.5 202t194.5 70q66 0 114 -20t79.5 -56
t47 -86t15.5 -110v-60zM378 346q0 45 -18 70.5t-56 25.5q-36 0 -55 -25.5t-19 -70.5v-3h148v3zM395 664q0 -8 -6.5 -14t-14.5 -6h-146q-8 0 -14 6t-6 14v109q0 8 6 14t14 6h146q8 0 14.5 -6t6.5 -14v-109z" />
    <glyph glyph-name="Eogonek" unicode="&#x118;" horiz-adv-x="585" 
d="M532 -166q0 -5 -1.5 -8t-9.5 -7q-11 -5 -43.5 -12.5t-74.5 -7.5q-26 0 -50 4.5t-43 16t-30.5 30t-11.5 46.5q0 31 12 53t41 42h-6q-48 0 -94 7.5t-82 31.5t-58 68t-22 117v314q0 72 22 116t58 68t82 32t94 8q73 0 120.5 -4t76.5 -8q20 -3 20 -20v-122q0 -8 -6 -14t-14 -6
h-202q-27 0 -37.5 -10.5t-10.5 -39.5v-73h246q8 0 14 -6t6 -14v-118q0 -8 -6 -14t-14 -6h-246v-83q0 -29 10.5 -39.5t37.5 -10.5h202q8 0 14 -6t6 -14v-122q0 -17 -20 -20q-6 -1 -13 -2t-15 -1l-44 -30q-11 -7 -18.5 -13.5t-7.5 -16.5q0 -15 9.5 -21t31.5 -6q19 0 39 4.5
t28 4.5q7 0 8.5 -2t1.5 -10v-76v0z" />
    <glyph glyph-name="eogonek" unicode="&#x119;" horiz-adv-x="602" 
d="M540 -166q0 -5 -1.5 -8t-9.5 -7q-11 -5 -43.5 -12.5t-74.5 -7.5q-26 0 -50 4.5t-43 16t-30.5 30t-11.5 46.5q0 32 12 54t41 42q-7 -1 -14 -1h-15q-51 0 -98 14t-83 45.5t-57.5 81t-21.5 121.5v66q0 132 71.5 202t194.5 70q66 0 114 -20t79.5 -56t47 -86t15.5 -110v-60
q0 -10 -6 -16t-15 -6h-311v-2q0 -40 20 -63t75 -23q20 0 47 0.5t54 2t51 2.5t38 3h4q18 0 18 -17v-90q0 -8 -2.5 -16t-8.5 -12l-78 -52q-11 -7 -18.5 -13.5t-7.5 -16.5q0 -15 9.5 -21t31.5 -6q19 0 39 4.5t28 4.5q7 0 8.5 -2t1.5 -10v-76zM378 346q0 45 -18 70.5t-56 25.5
q-36 0 -55 -25.5t-19 -70.5v-3h148v3z" />
    <glyph glyph-name="Ecaron" unicode="&#x11a;" horiz-adv-x="585" 
d="M515 934q0 -5 -4 -10l-89 -114q-7 -8 -12 -11.5t-16 -3.5h-190q-11 0 -16 3t-12 12l-89 114q-4 5 -4 10q0 7 9 7h127q11 0 14.5 -2.5t9.5 -8.5l56 -57l56 57q6 6 9.5 8.5t14.5 2.5h127q9 0 9 -7zM532 23q0 -17 -20 -20q-29 -4 -76.5 -8t-120.5 -4q-48 0 -94 7.5t-82 31.5
t-58 68t-22 117v314q0 72 22 116t58 68t82 32t94 8q73 0 120.5 -4t76.5 -8q20 -3 20 -20v-122q0 -8 -6 -14t-14 -6h-202q-27 0 -37.5 -10.5t-10.5 -39.5v-73h246q8 0 14 -6t6 -14v-118q0 -8 -6 -14t-14 -6h-246v-83q0 -29 10.5 -39.5t37.5 -10.5h202q8 0 14 -6t6 -14v-122z
" />
    <glyph glyph-name="ecaron" unicode="&#x11b;" horiz-adv-x="602" 
d="M562 259q0 -10 -6 -16t-15 -6h-311v-2q0 -40 20 -63t75 -23q20 0 47 0.5t54 2t51 2.5t38 3h4q18 0 18 -17v-90q0 -12 -4 -18t-16 -10q-48 -16 -101 -23.5t-116 -7.5q-51 0 -98 14t-83 45.5t-57.5 81t-21.5 121.5v66q0 132 71.5 202t194.5 70q66 0 114 -20t79.5 -56
t47 -86t15.5 -110v-60zM378 346q0 45 -18 70.5t-56 25.5q-36 0 -55 -25.5t-19 -70.5v-3h148v3zM517 772q0 -5 -4 -10l-89 -114q-7 -8 -12 -11.5t-16 -3.5h-190q-11 0 -16 3t-12 12l-89 114q-4 5 -4 10q0 7 9 7h127q11 0 14.5 -2.5t9.5 -8.5l56 -57l56 57q6 6 9.5 8.5
t14.5 2.5h127q9 0 9 -7z" />
    <glyph glyph-name="Gcircumflex" unicode="&#x11c;" horiz-adv-x="657" 
d="M599 38q0 -11 -4.5 -16t-16.5 -7q-43 -9 -100.5 -16.5t-130.5 -7.5q-30 0 -64 5.5t-67.5 19.5t-64.5 37.5t-54.5 60t-37.5 87t-14 118.5v105q0 103 30 167t76 100t102 49t108 13q78 0 133 -9.5t86 -17.5q11 -3 15 -6t4 -13v-126q0 -16 -14 -16h-3q-29 2 -83 5.5t-110 3.5
q-36 0 -62 -6.5t-43 -23t-25 -46t-8 -74.5v-106q0 -50 9.5 -80.5t24 -46.5t31 -21t31.5 -5q29 0 55 3v205q0 8 5.5 14t13.5 6h158q8 0 14 -6t6 -14v-335zM566 802q0 -7 -9 -7h-124q-11 0 -14.5 2.5t-9.5 8.5l-56 59l-56 -59q-6 -6 -9.5 -8.5t-14.5 -2.5h-124q-9 0 -9 7
q0 5 4 10l86 114q7 8 12 11.5t16 3.5h190q11 0 16 -3t12 -12l86 -114q4 -5 4 -10z" />
    <glyph glyph-name="gcircumflex" unicode="&#x11d;" horiz-adv-x="614" 
d="M598 487q0 -17 -20 -22l-28 -8q8 -14 13 -33t5 -33v-11q0 -101 -68.5 -146t-189.5 -45q-30 0 -56.5 3.5t-41.5 8.5q-13 -9 -13 -21q0 -8 4.5 -13.5t18.5 -8.5l112 -23q48 -10 92.5 -21t78.5 -28.5t54.5 -45t20.5 -69.5v-7q0 -88 -70.5 -128.5t-208.5 -40.5
q-128 0 -194 45.5t-66 123.5v7q0 22 13.5 53t42.5 54q-19 14 -33 33t-14 55q0 35 14.5 54.5t32.5 36.5q-17 15 -26.5 31.5t-14 33t-6 31.5t-1.5 27v11q0 94 64 142.5t197 48.5h265q10 0 16.5 -7t6.5 -17v-71zM382 391q0 26 -15 42.5t-57 16.5t-57 -16.5t-15 -42.5v-11
q0 -12 3 -22.5t10.5 -18.5t21.5 -12.5t37 -4.5q42 0 57 16t15 42v11zM380 -29q0 7 -2.5 12.5t-11.5 11t-26 11t-46 11.5l-60 13q-7 -9 -11 -25t-4 -34v-7q0 -20 18.5 -32t63.5 -12q25 0 41 3.5t24 9.5t11 14t3 17v7zM521 640q0 -7 -9 -7h-124q-11 0 -14.5 2.5t-9.5 8.5
l-56 59l-56 -59q-6 -6 -9.5 -8.5t-14.5 -2.5h-124q-9 0 -9 7q0 5 4 10l86 114q7 8 12 11.5t16 3.5h190q11 0 16 -3t12 -12l86 -114q4 -5 4 -10z" />
    <glyph glyph-name="Gbreve" unicode="&#x11e;" horiz-adv-x="657" 
d="M599 38q0 -11 -4.5 -16t-16.5 -7q-43 -9 -100.5 -16.5t-130.5 -7.5q-30 0 -64 5.5t-67.5 19.5t-64.5 37.5t-54.5 60t-37.5 87t-14 118.5v105q0 103 30 167t76 100t102 49t108 13q78 0 133 -9.5t86 -17.5q11 -3 15 -6t4 -13v-126q0 -16 -14 -16h-3q-29 2 -83 5.5t-110 3.5
q-36 0 -62 -6.5t-43 -23t-25 -46t-8 -74.5v-106q0 -50 9.5 -80.5t24 -46.5t31 -21t31.5 -5q29 0 55 3v205q0 8 5.5 14t13.5 6h158q8 0 14 -6t6 -14v-335zM557 944q0 -1 -2 -7q-27 -70 -79 -106.5t-127 -36.5t-127 36.5t-79 106.5q-2 6 -2 7q0 6 9 6h118q9 0 11.5 -3.5
t4.5 -9.5q8 -28 28 -37t37 -9t37 9t28 37q2 6 4.5 9.5t11.5 3.5h118q9 0 9 -6z" />
    <glyph glyph-name="gbreve" unicode="&#x11f;" horiz-adv-x="614" 
d="M598 487q0 -17 -20 -22l-28 -8q8 -14 13 -33t5 -33v-11q0 -101 -68.5 -146t-189.5 -45q-30 0 -56.5 3.5t-41.5 8.5q-13 -9 -13 -21q0 -8 4.5 -13.5t18.5 -8.5l112 -23q48 -10 92.5 -21t78.5 -28.5t54.5 -45t20.5 -69.5v-7q0 -88 -70.5 -128.5t-208.5 -40.5
q-128 0 -194 45.5t-66 123.5v7q0 22 13.5 53t42.5 54q-19 14 -33 33t-14 55q0 35 14.5 54.5t32.5 36.5q-17 15 -26.5 31.5t-14 33t-6 31.5t-1.5 27v11q0 94 64 142.5t197 48.5h265q10 0 16.5 -7t6.5 -17v-71zM382 391q0 26 -15 42.5t-57 16.5t-57 -16.5t-15 -42.5v-11
q0 -12 3 -22.5t10.5 -18.5t21.5 -12.5t37 -4.5q42 0 57 16t15 42v11zM380 -29q0 7 -2.5 12.5t-11.5 11t-26 11t-46 11.5l-60 13q-7 -9 -11 -25t-4 -34v-7q0 -20 18.5 -32t63.5 -12q25 0 41 3.5t24 9.5t11 14t3 17v7zM515 780q0 -1 -2 -7q-27 -70 -79 -106.5t-127 -36.5
t-127 36.5t-79 106.5q-2 6 -2 7q0 6 9 6h118q9 0 11.5 -3.5t4.5 -9.5q8 -28 28 -37t37 -9t37 9t28 37q2 6 4.5 9.5t11.5 3.5h118q9 0 9 -6z" />
    <glyph glyph-name="Gdotaccent" unicode="&#x120;" horiz-adv-x="657" 
d="M599 38q0 -11 -4.5 -16t-16.5 -7q-43 -9 -100.5 -16.5t-130.5 -7.5q-30 0 -64 5.5t-67.5 19.5t-64.5 37.5t-54.5 60t-37.5 87t-14 118.5v105q0 103 30 167t76 100t102 49t108 13q78 0 133 -9.5t86 -17.5q11 -3 15 -6t4 -13v-126q0 -16 -14 -16h-3q-29 2 -83 5.5t-110 3.5
q-36 0 -62 -6.5t-43 -23t-25 -46t-8 -74.5v-106q0 -50 9.5 -80.5t24 -46.5t31 -21t31.5 -5q29 0 55 3v205q0 8 5.5 14t13.5 6h158q8 0 14 -6t6 -14v-335zM444 825q0 -8 -6.5 -14t-14.5 -6h-146q-8 0 -14 6t-6 14v109q0 8 6 14t14 6h146q8 0 14.5 -6t6.5 -14v-109z" />
    <glyph glyph-name="gdotaccent" unicode="&#x121;" horiz-adv-x="614" 
d="M598 487q0 -17 -20 -22l-28 -8q8 -14 13 -33t5 -33v-11q0 -101 -68.5 -146t-189.5 -45q-30 0 -56.5 3.5t-41.5 8.5q-13 -9 -13 -21q0 -8 4.5 -13.5t18.5 -8.5l112 -23q48 -10 92.5 -21t78.5 -28.5t54.5 -45t20.5 -69.5v-7q0 -88 -70.5 -128.5t-208.5 -40.5
q-128 0 -194 45.5t-66 123.5v7q0 22 13.5 53t42.5 54q-19 14 -33 33t-14 55q0 35 14.5 54.5t32.5 36.5q-17 15 -26.5 31.5t-14 33t-6 31.5t-1.5 27v11q0 94 64 142.5t197 48.5h265q10 0 16.5 -7t6.5 -17v-71zM382 391q0 26 -15 42.5t-57 16.5t-57 -16.5t-15 -42.5v-11
q0 -12 3 -22.5t10.5 -18.5t21.5 -12.5t37 -4.5q42 0 57 16t15 42v11zM380 -29q0 7 -2.5 12.5t-11.5 11t-26 11t-46 11.5l-60 13q-7 -9 -11 -25t-4 -34v-7q0 -20 18.5 -32t63.5 -12q25 0 41 3.5t24 9.5t11 14t3 17v7zM406 653q0 -8 -6.5 -14t-14.5 -6h-146q-8 0 -14 6t-6 14
v109q0 8 6 14t14 6h146q8 0 14.5 -6t6.5 -14v-109z" />
    <glyph glyph-name="uni0122" unicode="&#x122;" horiz-adv-x="657" 
d="M599 38q0 -11 -4.5 -16t-16.5 -7q-43 -9 -100.5 -16.5t-130.5 -7.5q-30 0 -64 5.5t-67.5 19.5t-64.5 37.5t-54.5 60t-37.5 87t-14 118.5v105q0 103 30 167t76 100t102 49t108 13q78 0 133 -9.5t86 -17.5q11 -3 15 -6t4 -13v-126q0 -16 -14 -16h-3q-29 2 -83 5.5t-110 3.5
q-36 0 -62 -6.5t-43 -23t-25 -46t-8 -74.5v-106q0 -50 9.5 -80.5t24 -46.5t31 -21t31.5 -5q29 0 55 3v205q0 8 5.5 14t13.5 6h158q8 0 14 -6t6 -14v-335zM461 -65q0 -1 -2 -7l-56 -101q-5 -8 -11 -14t-14 -6h-109q-15 0 -15 13q0 2 0.5 5t2.5 11l24 92q5 19 20 19h146
q14 0 14 -12z" />
    <glyph glyph-name="uni0123" unicode="&#x123;" horiz-adv-x="614" 
d="M598 487q0 -17 -20 -22l-28 -8q8 -14 13 -33t5 -33v-11q0 -101 -68.5 -146t-189.5 -45q-30 0 -56.5 3.5t-41.5 8.5q-13 -9 -13 -21q0 -8 4.5 -13.5t18.5 -8.5l112 -23q48 -10 92.5 -21t78.5 -28.5t54.5 -45t20.5 -69.5v-7q0 -88 -70.5 -128.5t-208.5 -40.5
q-128 0 -194 45.5t-66 123.5v7q0 22 13.5 53t42.5 54q-19 14 -33 33t-14 55q0 35 14.5 54.5t32.5 36.5q-17 15 -26.5 31.5t-14 33t-6 31.5t-1.5 27v11q0 94 64 142.5t197 48.5h265q10 0 16.5 -7t6.5 -17v-71zM382 391q0 26 -15 42.5t-57 16.5t-57 -16.5t-15 -42.5v-11
q0 -12 3 -22.5t10.5 -18.5t21.5 -12.5t37 -4.5q42 0 57 16t15 42v11zM380 -29q0 7 -2.5 12.5t-11.5 11t-26 11t-46 11.5l-60 13q-7 -9 -11 -25t-4 -34v-7q0 -20 18.5 -32t63.5 -12q25 0 41 3.5t24 9.5t11 14t3 17v7zM228 645q0 1 2 7l57 108q8 20 22 20h112q15 0 15 -12
q0 -5 -1 -8l-27 -108q-5 -19 -20 -19h-146q-14 0 -14 12z" />
    <glyph glyph-name="Hcircumflex" unicode="&#x124;" horiz-adv-x="746" 
d="M681 20q0 -8 -6 -14t-14 -6h-163q-8 0 -14 6t-6 14v272h-209v-272q0 -8 -6 -14t-14 -6h-163q-8 0 -14.5 6t-6.5 14v704q0 8 6.5 13.5t14.5 5.5h163q8 0 14 -5.5t6 -13.5v-256h209v256q0 8 6 13.5t14 5.5h163q8 0 14 -5.5t6 -13.5v-704zM584 802q0 -7 -9 -7h-124
q-11 0 -14.5 2.5t-9.5 8.5l-56 59l-56 -59q-6 -6 -9.5 -8.5t-14.5 -2.5h-124q-9 0 -9 7q0 5 4 10l86 114q7 8 12 11.5t16 3.5h190q11 0 16 -3t12 -12l86 -114q4 -5 4 -10z" />
    <glyph glyph-name="hcircumflex" unicode="&#x125;" horiz-adv-x="632" 
d="M578 20q0 -8 -6 -14t-14 -6h-152q-8 0 -14 6t-6 14v345q0 40 -16 53t-47 13q-35 0 -76 -22v-387q0 -8 -5.5 -15t-14.5 -7h-150q-9 0 -15.5 7t-6.5 15v731q0 8 6 14t14 6h152q8 0 14 -6t6 -14v-201q32 23 67 30.5t81 7.5q54 0 89.5 -17.5t56 -48.5t29 -72t8.5 -87v-345z
M541 802q0 -7 -9 -7h-124q-11 0 -14.5 2.5t-9.5 8.5l-56 59l-56 -59q-6 -6 -9.5 -8.5t-14.5 -2.5h-124q-9 0 -9 7q0 5 4 10l86 114q7 8 12 11.5t16 3.5h190q11 0 16 -3t12 -12l86 -114q4 -5 4 -10z" />
    <glyph glyph-name="Hbar" unicode="&#x126;" horiz-adv-x="746" 
d="M681 20q0 -8 -6 -14t-14 -6h-163q-8 0 -14 6t-6 14v272h-209v-272q0 -8 -6 -14t-14 -6h-163q-8 0 -14.5 6t-6.5 14v533h-46q-8 0 -13.5 6t-5.5 14v69q0 19 19 19h46v63q0 8 6.5 13.5t14.5 5.5h163q8 0 14 -5.5t6 -13.5v-63h209v63q0 8 6 13.5t14 5.5h163q8 0 14 -5.5
t6 -13.5v-63h45q8 0 14 -5.5t6 -13.5v-69q0 -8 -6 -14t-14 -6h-45v-533zM478 468v85h-209v-85h209z" />
    <glyph glyph-name="hbar" unicode="&#x127;" horiz-adv-x="632" 
d="M247 633v-81q32 23 67 30.5t81 7.5q54 0 89.5 -17.5t56 -48.5t29 -72t8.5 -87v-345q0 -8 -6 -14t-14 -6h-152q-8 0 -14 6t-6 14v345q0 40 -16 53t-47 13q-35 0 -76 -22v-387q0 -8 -5.5 -15t-14.5 -7h-150q-9 0 -15.5 7t-6.5 15v611h-36q-8 0 -13.5 6t-5.5 14v49
q0 19 19 19h36v32q0 8 6 14t14 6h152q8 0 14 -6t6 -14v-32h113q8 0 14 -5.5t6 -13.5v-49q0 -8 -6 -14t-14 -6h-113z" />
    <glyph glyph-name="Itilde" unicode="&#x128;" horiz-adv-x="334" 
d="M269 20q0 -8 -6 -14t-14 -6h-164q-8 0 -14 6t-6 14v704q0 8 6 13.5t14 5.5h164q8 0 14 -5.5t6 -13.5v-704zM377 919q0 -71 -36 -99t-97 -28q-14 0 -35.5 5.5t-37.5 15.5l-40 24q-25 15 -39 15q-8 0 -13.5 -4t-5.5 -16v-17q0 -17 -16 -17h-84q-17 0 -17 17v17q0 69 36 98
t98 29q14 0 34.5 -5t37.5 -15l41 -24q14 -8 22.5 -12t16.5 -4q10 0 14 4.5t4 16.5v17q0 17 17 17h83q17 0 17 -17v-18z" />
    <glyph glyph-name="itilde" unicode="&#x129;" horiz-adv-x="313" 
d="M253 22q0 -8 -7 -15t-15 -7h-149q-8 0 -15 7t-7 15v539q0 8 7 14.5t15 6.5h149q8 0 15 -6.5t7 -14.5v-539zM365 754q0 -71 -36 -99t-97 -28q-14 0 -35.5 5.5t-37.5 15.5l-40 24q-25 15 -39 15q-8 0 -13.5 -4t-5.5 -16v-17q0 -17 -16 -17h-84q-17 0 -17 17v17q0 69 36 98
t98 29q14 0 34.5 -5t37.5 -15l41 -24q14 -8 22.5 -12t16.5 -4q10 0 14 4.5t4 16.5v17q0 17 17 17h83q17 0 17 -17v-18z" />
    <glyph glyph-name="Imacron" unicode="&#x12a;" horiz-adv-x="334" 
d="M269 20q0 -8 -6 -14t-14 -6h-164q-8 0 -14 6t-6 14v704q0 8 6 13.5t14 5.5h164q8 0 14 -5.5t6 -13.5v-704zM356 825q0 -8 -6 -14t-14 -6h-339q-8 0 -14 6t-6 14v88q0 8 6 13.5t14 5.5h339q8 0 14 -5.5t6 -13.5v-88z" />
    <glyph glyph-name="imacron" unicode="&#x12b;" horiz-adv-x="313" 
d="M253 22q0 -8 -7 -15t-15 -7h-149q-8 0 -15 7t-7 15v539q0 8 7 14.5t15 6.5h149q8 0 15 -6.5t7 -14.5v-539zM346 664q0 -8 -6 -14t-14 -6h-339q-8 0 -14 6t-6 14v88q0 8 6 13.5t14 5.5h339q8 0 14 -5.5t6 -13.5v-88z" />
    <glyph glyph-name="Ibreve" unicode="&#x12c;" horiz-adv-x="334" 
d="M269 20q0 -8 -6 -14t-14 -6h-164q-8 0 -14 6t-6 14v704q0 8 6 13.5t14 5.5h164q8 0 14 -5.5t6 -13.5v-704zM373 935q0 -1 -2 -7q-27 -70 -79 -106.5t-127 -36.5t-127 36.5t-79 106.5q-2 6 -2 7q0 6 9 6h118q9 0 11.5 -3.5t4.5 -9.5q8 -28 28 -37t37 -9t37 9t28 37
q2 6 4.5 9.5t11.5 3.5h118q9 0 9 -6z" />
    <glyph glyph-name="ibreve" unicode="&#x12d;" horiz-adv-x="313" 
d="M253 22q0 -8 -7 -15t-15 -7h-149q-8 0 -15 7t-7 15v539q0 8 7 14.5t15 6.5h149q8 0 15 -6.5t7 -14.5v-539zM362 783q0 -1 -2 -7q-27 -70 -79 -106.5t-127 -36.5t-127 36.5t-79 106.5q-2 6 -2 7q0 6 9 6h118q9 0 11.5 -3.5t4.5 -9.5q8 -28 28 -37t37 -9t37 9t28 37
q2 6 4.5 9.5t11.5 3.5h118q9 0 9 -6z" />
    <glyph glyph-name="Iogonek" unicode="&#x12e;" horiz-adv-x="334" 
d="M269 20q0 -8 -2 -11t-7 -6l-59 -27q-22 -10 -31 -17t-9 -20q0 -14 9.5 -20t37.5 -6q20 0 41.5 4.5t29.5 4.5q7 0 8.5 -2t1.5 -10v-76q0 -5 -1.5 -8t-9.5 -7q-11 -5 -43.5 -12.5t-74.5 -7.5q-29 0 -56 2.5t-48 12.5t-34 29.5t-13 52.5q0 35 15 61t41 46v721q0 8 6 13.5
t14 5.5h164q8 0 14 -5.5t6 -13.5v-704v0z" />
    <glyph glyph-name="iogonek" unicode="&#x12f;" horiz-adv-x="313" 
d="M258 657q0 -8 -7 -14t-15 -6h-158q-8 0 -15.5 6t-7.5 14v98q0 8 7.5 14t15.5 6h158q8 0 15 -6t7 -14v-98zM60 561q0 8 7 14.5t15 6.5h149q8 0 15 -6.5t7 -14.5v-542q0 -13 -9 -18l-49 -25q-21 -11 -30.5 -17.5t-9.5 -19.5q0 -14 9.5 -20t37.5 -6q20 0 41.5 4.5t29.5 4.5
q7 0 8.5 -2t1.5 -10v-76q0 -5 -1.5 -8t-9.5 -7q-11 -5 -43.5 -12.5t-74.5 -7.5q-20 0 -46 2.5t-49.5 12.5t-39.5 29.5t-16 52.5q0 35 15.5 61t41.5 46v558z" />
    <glyph glyph-name="Idotaccent" unicode="&#x130;" horiz-adv-x="334" 
d="M269 20q0 -8 -6 -14t-14 -6h-164q-8 0 -14 6t-6 14v704q0 8 6 13.5t14 5.5h164q8 0 14 -5.5t6 -13.5v-704zM260 815q0 -8 -6.5 -14t-14.5 -6h-146q-8 0 -14 6t-6 14v109q0 8 6 14t14 6h146q8 0 14.5 -6t6.5 -14v-109z" />
    <glyph glyph-name="dotlessi" unicode="&#x131;" horiz-adv-x="313" 
d="M253 22q0 -8 -7 -15t-15 -7h-149q-8 0 -15 7t-7 15v539q0 8 7 14.5t15 6.5h149q8 0 15 -6.5t7 -14.5v-539v0z" />
    <glyph glyph-name="IJ" unicode="&#x132;" horiz-adv-x="668" 
d="M269 20q0 -8 -6 -14t-14 -6h-164q-8 0 -14 6t-6 14v704q0 8 6 13.5t14 5.5h164q8 0 14 -5.5t6 -13.5v-704zM603 2q0 -58 -13 -95.5t-36 -59.5t-56 -30.5t-72 -8.5q-21 0 -44 1.5t-47 5.5q-12 2 -16 7t-4 13v109q0 8 6 14t14 6h37q17 0 22 9.5t5 28.5v721q0 8 6.5 14
t14.5 6h163q8 0 14 -6t6 -14v-721z" />
    <glyph glyph-name="ij" unicode="&#x133;" horiz-adv-x="625" 
d="M258 657q0 -8 -7 -14t-15 -6h-158q-8 0 -15.5 6t-7.5 14v98q0 8 7.5 14t15.5 6h158q8 0 15 -6t7 -14v-98zM253 22q0 -8 -7 -15t-15 -7h-149q-8 0 -15 7t-7 15v539q0 8 7 14.5t15 6.5h149q8 0 15 -6.5t7 -14.5v-539zM570 657q0 -8 -7 -14t-15 -6h-157q-8 0 -15 6t-7 14v98
q0 8 7 14t15 6h157q8 0 15 -6t7 -14v-98zM566 -21q0 -54 -12.5 -89.5t-34.5 -57t-53.5 -30t-68.5 -8.5q-23 0 -45.5 2t-48.5 7q-20 3 -20 21v93q0 8 6 14t15 6h43q18 0 22 11t4 31v582q0 8 7 14.5t15 6.5h149q8 0 15 -6.5t7 -14.5v-582z" />
    <glyph glyph-name="Jcircumflex" unicode="&#x134;" horiz-adv-x="334" 
d="M269 2q0 -58 -13 -95.5t-36 -59.5t-56 -30.5t-72 -8.5q-21 0 -44 1.5t-47 5.5q-12 2 -16 7t-4 13v109q0 8 6 14t14 6h37q17 0 22 9.5t5 28.5v721q0 8 6.5 14t14.5 6h163q8 0 14 -6t6 -14v-721zM382 802q0 -7 -9 -7h-124q-11 0 -14.5 2.5t-9.5 8.5l-56 59l-56 -59
q-6 -6 -9.5 -8.5t-14.5 -2.5h-124q-9 0 -9 7q0 5 4 10l86 114q7 8 12 11.5t16 3.5h190q11 0 16 -3t12 -12l86 -114q4 -5 4 -10z" />
    <glyph glyph-name="jcircumflex" unicode="&#x135;" horiz-adv-x="312" 
d="M253 -21q0 -54 -12.5 -89.5t-34.5 -57t-53.5 -30t-68.5 -8.5q-23 0 -45.5 2t-48.5 7q-20 3 -20 21v93q0 8 6 14t15 6h43q18 0 22 11t4 31v582q0 8 7 14.5t15 6.5h149q8 0 15 -6.5t7 -14.5v-582zM371 640q0 -7 -9 -7h-124q-11 0 -14.5 2.5t-9.5 8.5l-56 59l-56 -59
q-6 -6 -9.5 -8.5t-14.5 -2.5h-124q-9 0 -9 7q0 5 4 10l86 114q7 8 12 11.5t16 3.5h190q11 0 16 -3t12 -12l86 -114q4 -5 4 -10z" />
    <glyph glyph-name="uni0136" unicode="&#x136;" horiz-adv-x="713" 
d="M689 11q0 -11 -13 -11h-210q-9 0 -13 5t-8 12l-176 319v-316q0 -8 -6 -14t-14 -6h-163q-8 0 -14.5 6t-6.5 14v704q0 8 6.5 13.5t14.5 5.5h163q8 0 14 -5.5t6 -13.5v-317l192 320q4 7 9 11.5t13 4.5h192q14 0 14 -11q0 -6 -4 -11l-218 -344l219 -356q3 -5 3 -10zM445 -65
q0 -1 -2 -7l-56 -101q-5 -8 -11 -14t-14 -6h-109q-15 0 -15 13q0 2 0.5 5t2.5 11l24 92q5 19 20 19h146q14 0 14 -12z" />
    <glyph glyph-name="uni0137" unicode="&#x137;" horiz-adv-x="627" 
d="M603 14q0 -5 -3.5 -9.5t-9.5 -4.5h-185q-19 0 -31 22l-127 228v-228q0 -8 -6 -15t-14 -7h-150q-8 0 -15 7t-7 15v731q0 8 7 14t15 6h150q8 0 14 -6t6 -14v-418l137 229q7 12 14 15t15 3h173q14 0 14 -12q0 -5 -3 -9l-173 -259l177 -280q2 -3 2 -8zM401 -65q0 -1 -2 -7
l-56 -101q-5 -8 -11 -14t-14 -6h-109q-15 0 -15 13q0 2 0.5 5t2.5 11l24 92q5 19 20 19h146q14 0 14 -12z" />
    <glyph glyph-name="kgreenlandic" unicode="&#x138;" horiz-adv-x="627" 
d="M603 14q0 -5 -3.5 -9.5t-9.5 -4.5h-185q-19 0 -31 22l-127 228v-228q0 -8 -6 -15t-14 -7h-150q-8 0 -15 7t-7 15v540q0 8 7 14t15 6h150q8 0 14 -6t6 -14v-227l137 229q7 12 14 15t15 3h173q14 0 14 -12q0 -5 -3 -9l-173 -259l177 -280q2 -3 2 -8z" />
    <glyph glyph-name="Lacute" unicode="&#x139;" horiz-adv-x="522" 
d="M499 23q0 -17 -20 -20q-14 -3 -32.5 -5t-39.5 -3.5t-43 -2.5t-42 -1q-48 0 -94 7.5t-82.5 31.5t-58.5 68t-22 117v508q0 8 6.5 14t14.5 6h163q8 0 14 -6t6 -14v-508q0 -29 10.5 -39.5t37.5 -10.5h162q8 0 14 -6t6 -14v-122zM442 934q0 -4 -4 -8l-126 -120q-6 -5 -9.5 -8
t-14.5 -3h-129q-9 0 -9 7q0 6 4 10l91 114q7 8 12 11.5t16 3.5h158q11 0 11 -7z" />
    <glyph glyph-name="lacute" unicode="&#x13a;" horiz-adv-x="303" 
d="M248 22q0 -8 -6 -15t-14 -7h-151q-8 0 -15 7t-7 15v731q0 8 7 14t15 6h151q8 0 14 -6t6 -14v-731zM332 934q0 -4 -4 -8l-126 -120q-6 -5 -9.5 -8t-14.5 -3h-129q-9 0 -9 7q0 6 4 10l91 114q7 8 12 11.5t16 3.5h158q11 0 11 -7z" />
    <glyph glyph-name="uni013B" unicode="&#x13b;" horiz-adv-x="522" 
d="M499 23q0 -17 -20 -20q-14 -3 -32.5 -5t-39.5 -3.5t-43 -2.5t-42 -1q-48 0 -94 7.5t-82.5 31.5t-58.5 68t-22 117v508q0 8 6.5 14t14.5 6h163q8 0 14 -6t6 -14v-508q0 -29 10.5 -39.5t37.5 -10.5h162q8 0 14 -6t6 -14v-122zM365 -65q0 -1 -2 -7l-56 -101q-5 -8 -11 -14
t-14 -6h-109q-15 0 -15 13q0 2 0.5 5t2.5 11l24 92q5 19 20 19h146q14 0 14 -12z" />
    <glyph glyph-name="uni013C" unicode="&#x13c;" horiz-adv-x="303" 
d="M248 22q0 -8 -6 -15t-14 -7h-151q-8 0 -15 7t-7 15v731q0 8 7 14t15 6h151q8 0 14 -6t6 -14v-731zM241 -65q0 -1 -2 -7l-56 -101q-5 -8 -11 -14t-14 -6h-109q-15 0 -15 13q0 2 0.5 5t2.5 11l24 92q5 19 20 19h146q14 0 14 -12z" />
    <glyph glyph-name="Lcaron" unicode="&#x13d;" horiz-adv-x="522" 
d="M499 23q0 -17 -20 -20q-14 -3 -32.5 -5t-39.5 -3.5t-43 -2.5t-42 -1q-48 0 -94 7.5t-82.5 31.5t-58.5 68t-22 117v508q0 8 6.5 14t14.5 6h163q8 0 14 -6t6 -14v-508q0 -29 10.5 -39.5t37.5 -10.5h162q8 0 14 -6t6 -14v-122zM579 761q0 -2 -2 -8l-100 -230
q-4 -10 -7.5 -14.5t-11.5 -4.5h-109q-12 0 -12 11q0 5 1 8l65 230q4 19 20 19h144q12 0 12 -11z" />
    <glyph glyph-name="lcaron" unicode="&#x13e;" horiz-adv-x="548" 
d="M248 22q0 -8 -6 -15t-14 -7h-151q-8 0 -15 7t-7 15v731q0 8 7 14t15 6h151q8 0 14 -6t6 -14v-731zM548 762q0 -2 -2 -8l-100 -230q-4 -10 -7.5 -14.5t-11.5 -4.5h-109q-12 0 -12 11q0 5 1 8l65 230q4 19 20 19h144q12 0 12 -11z" />
    <glyph glyph-name="Ldot" unicode="&#x13f;" horiz-adv-x="522" 
d="M499 23q0 -17 -20 -20q-14 -3 -32.5 -5t-39.5 -3.5t-43 -2.5t-42 -1q-48 0 -94 7.5t-82.5 31.5t-58.5 68t-22 117v508q0 8 6.5 14t14.5 6h163q8 0 14 -6t6 -14v-508q0 -29 10.5 -39.5t37.5 -10.5h162q8 0 14 -6t6 -14v-122zM499 310q0 -8 -6.5 -14t-14.5 -6h-146
q-8 0 -14 6t-6 14v109q0 8 6 14t14 6h146q8 0 14.5 -6t6.5 -14v-109z" />
    <glyph glyph-name="ldot" unicode="&#x140;" horiz-adv-x="521" 
d="M248 22q0 -8 -6 -15t-14 -7h-151q-8 0 -15 7t-7 15v731q0 8 7 14t15 6h151q8 0 14 -6t6 -14v-731zM466 310q0 -8 -6.5 -14t-14.5 -6h-146q-8 0 -14 6t-6 14v109q0 8 6 14t14 6h146q8 0 14.5 -6t6.5 -14v-109z" />
    <glyph glyph-name="Lslash" unicode="&#x141;" horiz-adv-x="522" 
d="M499 23q0 -17 -20 -20q-28 -5 -72.5 -8.5t-84.5 -3.5q-46 0 -88 7t-76.5 28.5t-58 60.5t-32.5 103q-1 1 -1 7v2v2l-34 -32q-5 -5 -9 -5q-5 0 -5 7v167v3q0 4 1 7.5t6 8.5l40 37v329q0 8 6.5 14t14.5 6h162q8 0 14 -6t6 -14v-145l60 55q5 5 9 5q7 0 7 -9v-164
q0 -6 -1 -9.5t-6 -8.5l-69 -63v-169q0 -29 11 -39.5t38 -10.5h162q8 0 14 -6t6 -14v-122v0z" />
    <glyph glyph-name="lslash" unicode="&#x142;" horiz-adv-x="303" 
d="M314 465q0 -6 -1 -9.5t-6 -8.5l-59 -55v-370q0 -8 -6.5 -15t-14.5 -7h-150q-8 0 -15 7t-7 15v195l-52 -48q-5 -5 -9 -5q-5 0 -5 7v167v3q0 4 1 7.5t6 8.5l59 54v342q0 8 7 14t15 6h150q8 0 14.5 -6t6.5 -14v-166l50 46q5 5 9 5q7 0 7 -9v-164v0z" />
    <glyph glyph-name="Nacute" unicode="&#x143;" horiz-adv-x="746" 
d="M681 37q0 -15 -11 -26t-26 -11h-134q-26 0 -42 27l-197 335q-5 8 -10 8t-5 -9v-341q0 -8 -6 -14t-14 -6h-150q-8 0 -14.5 6t-6.5 14v686q0 15 11 26t26 11h132q14 0 23 -7.5t17 -21.5l203 -345q5 -9 9 -9q2 0 3.5 1.5t1.5 7.5v354q0 8 6 14t14 6h150q8 0 14 -6t6 -14
v-686zM557 934q0 -4 -4 -8l-126 -120q-6 -5 -9.5 -8t-14.5 -3h-129q-9 0 -9 7q0 6 4 10l91 114q7 8 12 11.5t16 3.5h158q11 0 11 -7z" />
    <glyph glyph-name="nacute" unicode="&#x144;" horiz-adv-x="631" 
d="M576 22q0 -8 -5.5 -15t-14.5 -7h-150q-9 0 -15.5 7t-6.5 15v339q0 40 -14 55t-48 15q-17 0 -37.5 -6t-37.5 -15v-388q0 -8 -5.5 -15t-14.5 -7h-150q-9 0 -15.5 7t-6.5 15v540q0 8 6 14t14 6h139q8 0 14 -6t6 -14v-23q20 15 38 25t37 15.5t40.5 8t49.5 2.5q55 0 90 -19
t54 -51t26 -73t7 -86v-339zM497 772q0 -4 -4 -8l-126 -120q-6 -5 -9.5 -8t-14.5 -3h-129q-9 0 -9 7q0 6 4 10l91 114q7 8 12 11.5t16 3.5h158q11 0 11 -7z" />
    <glyph glyph-name="uni0145" unicode="&#x145;" horiz-adv-x="746" 
d="M681 37q0 -15 -11 -26t-26 -11h-134q-26 0 -42 27l-197 335q-5 8 -10 8t-5 -9v-341q0 -8 -6 -14t-14 -6h-150q-8 0 -14.5 6t-6.5 14v686q0 15 11 26t26 11h132q14 0 23 -7.5t17 -21.5l203 -345q5 -9 9 -9q2 0 3.5 1.5t1.5 7.5v354q0 8 6 14t14 6h150q8 0 14 -6t6 -14
v-686zM465 -65q0 -1 -2 -7l-56 -101q-5 -8 -11 -14t-14 -6h-109q-15 0 -15 13q0 2 0.5 5t2.5 11l24 92q5 19 20 19h146q14 0 14 -12z" />
    <glyph glyph-name="uni0146" unicode="&#x146;" horiz-adv-x="631" 
d="M576 22q0 -8 -5.5 -15t-14.5 -7h-150q-9 0 -15.5 7t-6.5 15v339q0 40 -14 55t-48 15q-17 0 -37.5 -6t-37.5 -15v-388q0 -8 -5.5 -15t-14.5 -7h-150q-9 0 -15.5 7t-6.5 15v540q0 8 6 14t14 6h139q8 0 14 -6t6 -14v-23q20 15 38 25t37 15.5t40.5 8t49.5 2.5q55 0 90 -19
t54 -51t26 -73t7 -86v-339zM406 -65q0 -1 -2 -7l-56 -101q-5 -8 -11 -14t-14 -6h-109q-15 0 -15 13q0 2 0.5 5t2.5 11l24 92q5 19 20 19h146q14 0 14 -12z" />
    <glyph glyph-name="Ncaron" unicode="&#x147;" horiz-adv-x="746" 
d="M681 37q0 -15 -11 -26t-26 -11h-134q-26 0 -42 27l-197 335q-5 8 -10 8t-5 -9v-341q0 -8 -6 -14t-14 -6h-150q-8 0 -14.5 6t-6.5 14v686q0 15 11 26t26 11h132q14 0 23 -7.5t17 -21.5l203 -345q5 -9 9 -9q2 0 3.5 1.5t1.5 7.5v354q0 8 6 14t14 6h150q8 0 14 -6t6 -14
v-686zM589 934q0 -5 -4 -10l-89 -114q-7 -8 -12 -11.5t-16 -3.5h-190q-11 0 -16 3t-12 12l-89 114q-4 5 -4 10q0 7 9 7h127q11 0 14.5 -2.5t9.5 -8.5l56 -57l56 57q6 6 9.5 8.5t14.5 2.5h127q9 0 9 -7z" />
    <glyph glyph-name="ncaron" unicode="&#x148;" horiz-adv-x="631" 
d="M576 22q0 -8 -5.5 -15t-14.5 -7h-150q-9 0 -15.5 7t-6.5 15v339q0 40 -14 55t-48 15q-17 0 -37.5 -6t-37.5 -15v-388q0 -8 -5.5 -15t-14.5 -7h-150q-9 0 -15.5 7t-6.5 15v540q0 8 6 14t14 6h139q8 0 14 -6t6 -14v-23q20 15 38 25t37 15.5t40.5 8t49.5 2.5q55 0 90 -19
t54 -51t26 -73t7 -86v-339zM532 772q0 -5 -4 -10l-89 -114q-7 -8 -12 -11.5t-16 -3.5h-190q-11 0 -16 3t-12 12l-89 114q-4 5 -4 10q0 7 9 7h127q11 0 14.5 -2.5t9.5 -8.5l56 -57l56 57q6 6 9.5 8.5t14.5 2.5h127q9 0 9 -7z" />
    <glyph glyph-name="napostrophe" unicode="&#x149;" horiz-adv-x="838" 
d="M256 762q0 -2 -2 -8l-82 -230q-4 -10 -7.5 -14.5t-11.5 -4.5h-123q-9 0 -9 10v4.5t1 4.5l58 230q5 19 20 19h144q12 0 12 -11zM783 22q0 -8 -5.5 -15t-14.5 -7h-150q-9 0 -15.5 7t-6.5 15v339q0 40 -14 55t-48 15q-17 0 -37.5 -6t-37.5 -15v-388q0 -8 -5.5 -15t-14.5 -7
h-150q-9 0 -15.5 7t-6.5 15v540q0 8 6 14t14 6h139q8 0 14 -6t6 -14v-23q20 15 38 25t37 15.5t40.5 8t49.5 2.5q55 0 90 -19t54 -51t26 -73t7 -86v-339z" />
    <glyph glyph-name="Eng" unicode="&#x14a;" horiz-adv-x="746" 
d="M681 -11q0 -58 -13 -95.5t-36 -59.5t-56 -30.5t-72 -8.5q-21 0 -44 1.5t-47 5.5q-12 2 -16 7t-4 13v109q0 8 6 14t14 6h37q17 0 22 9.5t5 28.5v25q-2 3 -4.5 6t-4.5 7l-197 335q-5 8 -10 8t-5 -9v-341q0 -8 -6 -14t-14 -6h-150q-8 0 -14.5 6t-6.5 14v686q0 15 11 26
t26 11h132q14 0 23 -7.5t17 -21.5l203 -345q5 -9 9 -9q2 0 3.5 1.5t1.5 7.5v354q0 8 6 14t14 6h150q8 0 14 -6t6 -14v-734v0z" />
    <glyph glyph-name="eng" unicode="&#x14b;" horiz-adv-x="631" 
d="M576 -21q0 -54 -12.5 -89.5t-34.5 -57t-53.5 -30t-68.5 -8.5q-23 0 -45.5 2t-48.5 7q-20 3 -20 21v93q0 8 6 14t15 6h43q18 0 22 11t4 31v110.5v78v55.5v44t0.5 42.5t0.5 51.5q0 40 -14 55t-48 15q-17 0 -37.5 -6t-37.5 -15v-388q0 -8 -5.5 -15t-14.5 -7h-150
q-9 0 -15.5 7t-6.5 15v540q0 8 6 14t14 6h139q8 0 14 -6t6 -14v-23q20 15 38 25t37 15.5t40.5 8t49.5 2.5q55 0 90 -19t54 -51t26 -73t7 -86v-382v0z" />
    <glyph glyph-name="Omacron" unicode="&#x14c;" horiz-adv-x="708" 
d="M661 320q0 -92 -24.5 -154.5t-66.5 -101.5t-98 -56t-118 -17t-118 17t-98 56t-66.5 101.5t-24.5 154.5v103q0 91 24.5 154t66.5 102t98 56.5t118 17.5t118 -17.5t98 -56.5t66.5 -102t24.5 -154v-103zM455 423q0 81 -24 116t-77 35t-77 -35t-24 -116v-103q0 -81 24 -115.5
t77 -34.5t77 34.5t24 115.5v103zM544 825q0 -8 -6 -14t-14 -6h-339q-8 0 -14 6t-6 14v88q0 8 6 13.5t14 5.5h339q8 0 14 -5.5t6 -13.5v-88z" />
    <glyph glyph-name="omacron" unicode="&#x14d;" horiz-adv-x="605" 
d="M565 262q0 -133 -68 -202t-194 -69t-194.5 69t-68.5 202v58q0 133 68.5 202t194.5 69t194 -69t68 -202v-58zM374 320q0 60 -18 85t-53 25t-53.5 -25t-18.5 -85v-58q0 -60 18.5 -85.5t53.5 -25.5t53 25.5t18 85.5v58zM492 664q0 -8 -6 -14t-14 -6h-339q-8 0 -14 6t-6 14
v88q0 8 6 13.5t14 5.5h339q8 0 14 -5.5t6 -13.5v-88z" />
    <glyph glyph-name="Obreve" unicode="&#x14e;" horiz-adv-x="708" 
d="M661 320q0 -92 -24.5 -154.5t-66.5 -101.5t-98 -56t-118 -17t-118 17t-98 56t-66.5 101.5t-24.5 154.5v103q0 91 24.5 154t66.5 102t98 56.5t118 17.5t118 -17.5t98 -56.5t66.5 -102t24.5 -154v-103zM455 423q0 81 -24 116t-77 35t-77 -35t-24 -116v-103q0 -81 24 -115.5
t77 -34.5t77 34.5t24 115.5v103zM563 944q0 -1 -2 -7q-27 -70 -79 -106.5t-127 -36.5t-127 36.5t-79 106.5q-2 6 -2 7q0 6 9 6h118q9 0 11.5 -3.5t4.5 -9.5q8 -28 28 -37t37 -9t37 9t28 37q2 6 4.5 9.5t11.5 3.5h118q9 0 9 -6z" />
    <glyph glyph-name="obreve" unicode="&#x14f;" horiz-adv-x="605" 
d="M565 262q0 -133 -68 -202t-194 -69t-194.5 69t-68.5 202v58q0 133 68.5 202t194.5 69t194 -69t68 -202v-58zM374 320q0 60 -18 85t-53 25t-53.5 -25t-18.5 -85v-58q0 -60 18.5 -85.5t53.5 -25.5t53 25.5t18 85.5v58zM510 783q0 -1 -2 -7q-27 -70 -79 -106.5t-127 -36.5
t-127 36.5t-79 106.5q-2 6 -2 7q0 6 9 6h118q9 0 11.5 -3.5t4.5 -9.5q8 -28 28 -37t37 -9t37 9t28 37q2 6 4.5 9.5t11.5 3.5h118q9 0 9 -6z" />
    <glyph glyph-name="Ohungarumlaut" unicode="&#x150;" horiz-adv-x="708" 
d="M661 320q0 -92 -24.5 -154.5t-66.5 -101.5t-98 -56t-118 -17t-118 17t-98 56t-66.5 101.5t-24.5 154.5v103q0 91 24.5 154t66.5 102t98 56.5t118 17.5t118 -17.5t98 -56.5t66.5 -102t24.5 -154v-103zM455 423q0 81 -24 116t-77 35t-77 -35t-24 -116v-103q0 -81 24 -115.5
t77 -34.5t77 34.5t24 115.5v103zM664 934q0 -4 -4 -8l-126 -120q-6 -5 -10 -8t-15 -3h-128q-9 0 -9 7q0 6 4 10l91 114q7 8 12 11.5t16 3.5h158q11 0 11 -7zM408 934q0 -4 -4 -8l-126 -120q-6 -5 -10 -8t-15 -3h-129q-9 0 -9 7q0 6 4 10l91 114q7 8 12 11.5t16 3.5h159
q11 0 11 -7z" />
    <glyph glyph-name="ohungarumlaut" unicode="&#x151;" horiz-adv-x="605" 
d="M565 262q0 -133 -68 -202t-194 -69t-194.5 69t-68.5 202v58q0 133 68.5 202t194.5 69t194 -69t68 -202v-58zM374 320q0 60 -18 85t-53 25t-53.5 -25t-18.5 -85v-58q0 -60 18.5 -85.5t53.5 -25.5t53 25.5t18 85.5v58zM612 772q0 -4 -4 -8l-126 -120q-6 -5 -10 -8t-15 -3
h-128q-9 0 -9 7q0 6 4 10l91 114q7 8 12 11.5t16 3.5h158q11 0 11 -7zM356 772q0 -4 -4 -8l-126 -120q-6 -5 -10 -8t-15 -3h-129q-9 0 -9 7q0 6 4 10l91 114q7 8 12 11.5t16 3.5h159q11 0 11 -7z" />
    <glyph glyph-name="OE" unicode="&#x152;" horiz-adv-x="984" 
d="M931 23q0 -17 -20 -20q-29 -4 -77 -8t-121 -4q-51 0 -98.5 9t-83.5 36q-38 -23 -83 -34t-94 -11q-62 0 -118 17t-98 56t-66.5 101.5t-24.5 154.5v103q0 91 24.5 154t66.5 102t98 56.5t118 17.5q50 0 94.5 -11t82.5 -35q36 27 84 36t99 9q73 0 120.5 -4t76.5 -8
q20 -3 20 -20v-122q0 -8 -6 -14t-14 -6h-202q-23 0 -34.5 -8.5t-12.5 -31.5q-2 -1 -2 -16.5v-24.5v-5v-1v-7t0.5 -11t0.5 -11v-6h246q8 0 14 -6t6 -14v-118q0 -8 -6 -14t-14 -6h-246q0 -5 -0.5 -13.5t-0.5 -13.5v-56q0 -29 11 -39.5t38 -10.5h202q8 0 14 -6t6 -14v-122z
M455 423q0 81 -24 116t-77 35t-77 -35t-24 -116v-103q0 -81 24 -115.5t77 -34.5t77 34.5t24 115.5v103z" />
    <glyph glyph-name="oe" unicode="&#x153;" horiz-adv-x="938" 
d="M898 259q0 -10 -6 -16t-15 -6h-311v-4v-3q1 -38 21.5 -59.5t73.5 -21.5q20 0 47 0.5t54 2t51 2.5t38 3h4q18 0 18 -17v-90q0 -12 -4 -18t-16 -10q-48 -16 -101 -23.5t-116 -7.5q-45 0 -88.5 13.5t-76.5 43.5q-33 -28 -74.5 -42.5t-93.5 -14.5q-126 0 -194.5 69t-68.5 202
v58q0 133 68.5 202t194.5 69q53 0 95 -15.5t75 -43.5q68 59 169 59q66 0 114 -20t79.5 -56t47 -86t15.5 -110v-60zM713 346q0 45 -17.5 70.5t-55.5 25.5q-35 0 -54.5 -25t-19.5 -69v-1v-4h148zM374 320q0 60 -18 85t-53 25t-53 -25t-18 -85v-58q0 -60 18 -85.5t53 -25.5
t53 25.5t18 85.5v58z" />
    <glyph glyph-name="Racute" unicode="&#x154;" horiz-adv-x="708" 
d="M673 15q0 -15 -17 -15h-184q-8 0 -12 6t-8 14l-125 240l-7 4q-8 0 -26 0.5t-26 0.5v-245q0 -8 -6 -14t-14 -6h-162q-8 0 -14.5 6t-6.5 14v654q0 36 13 48.5t45 17.5q15 2 40 4.5t54 4.5t59.5 3t57.5 1q70 0 127.5 -12t98.5 -40.5t64 -74.5t23 -115v-16q0 -40 -10 -72
t-27 -56.5t-39 -41.5t-46 -27l145 -272q3 -6 3 -11zM445 511q0 71 -100 71q-3 0 -14.5 -0.5t-24.5 -0.5t-24.5 -0.5t-13.5 -0.5v-159q2 0 12.5 -0.5t23.5 -0.5h24h13q58 0 81 19.5t23 54.5v17zM535 934q0 -4 -4 -8l-126 -120q-6 -5 -9.5 -8t-14.5 -3h-129q-9 0 -9 7
q0 6 4 10l91 114q7 8 12 11.5t16 3.5h158q11 0 11 -7z" />
    <glyph glyph-name="racute" unicode="&#x155;" horiz-adv-x="417" 
d="M393 453q0 -8 -4.5 -14t-12.5 -6h-14q-32 0 -62 -5t-53 -18v-388q0 -8 -5.5 -15t-14.5 -7h-150q-9 0 -15.5 7t-6.5 15v540q0 8 6 14t14 6h144q8 0 14 -6t6 -14v-24q17 18 32.5 28t30.5 15.5t29.5 7t30.5 1.5h11q8 0 14 -6t6 -14v-117zM389 772q0 -4 -4 -8l-126 -120
q-6 -5 -9.5 -8t-14.5 -3h-129q-9 0 -9 7q0 6 4 10l91 114q7 8 12 11.5t16 3.5h158q11 0 11 -7z" />
    <glyph glyph-name="uni0156" unicode="&#x156;" horiz-adv-x="708" 
d="M673 15q0 -15 -17 -15h-184q-8 0 -12 6t-8 14l-125 240l-7 4q-8 0 -26 0.5t-26 0.5v-245q0 -8 -6 -14t-14 -6h-162q-8 0 -14.5 6t-6.5 14v654q0 36 13 48.5t45 17.5q15 2 40 4.5t54 4.5t59.5 3t57.5 1q70 0 127.5 -12t98.5 -40.5t64 -74.5t23 -115v-16q0 -40 -10 -72
t-27 -56.5t-39 -41.5t-46 -27l145 -272q3 -6 3 -11zM445 511q0 71 -100 71q-3 0 -14.5 -0.5t-24.5 -0.5t-24.5 -0.5t-13.5 -0.5v-159q2 0 12.5 -0.5t23.5 -0.5h24h13q58 0 81 19.5t23 54.5v17zM458 -65q0 -1 -2 -7l-56 -101q-5 -8 -11 -14t-14 -6h-109q-15 0 -15 13
q0 2 0.5 5t2.5 11l24 92q5 19 20 19h146q14 0 14 -12z" />
    <glyph glyph-name="uni0157" unicode="&#x157;" horiz-adv-x="417" 
d="M393 453q0 -8 -4.5 -14t-12.5 -6h-14q-32 0 -62 -5t-53 -18v-388q0 -8 -5.5 -15t-14.5 -7h-150q-9 0 -15.5 7t-6.5 15v540q0 8 6 14t14 6h144q8 0 14 -6t6 -14v-24q17 18 32.5 28t30.5 15.5t29.5 7t30.5 1.5h11q8 0 14 -6t6 -14v-117zM313 -65q0 -1 -2 -7l-56 -101
q-5 -8 -11 -14t-14 -6h-109q-15 0 -15 13q0 2 0.5 5t2.5 11l24 92q5 19 20 19h146q14 0 14 -12z" />
    <glyph glyph-name="Rcaron" unicode="&#x158;" horiz-adv-x="708" 
d="M673 15q0 -15 -17 -15h-184q-8 0 -12 6t-8 14l-125 240l-7 4q-8 0 -26 0.5t-26 0.5v-245q0 -8 -6 -14t-14 -6h-162q-8 0 -14.5 6t-6.5 14v654q0 36 13 48.5t45 17.5q15 2 40 4.5t54 4.5t59.5 3t57.5 1q70 0 127.5 -12t98.5 -40.5t64 -74.5t23 -115v-16q0 -40 -10 -72
t-27 -56.5t-39 -41.5t-46 -27l145 -272q3 -6 3 -11zM445 511q0 71 -100 71q-3 0 -14.5 -0.5t-24.5 -0.5t-24.5 -0.5t-13.5 -0.5v-159q2 0 12.5 -0.5t23.5 -0.5h24h13q58 0 81 19.5t23 54.5v17zM570 933q0 -5 -4 -10l-89 -114q-7 -8 -12 -11.5t-16 -3.5h-190q-11 0 -16 3
t-12 12l-89 114q-4 5 -4 10q0 7 9 7h127q11 0 14.5 -2.5t9.5 -8.5l56 -57l56 57q6 6 9.5 8.5t14.5 2.5h127q9 0 9 -7z" />
    <glyph glyph-name="rcaron" unicode="&#x159;" horiz-adv-x="417" 
d="M393 453q0 -8 -4.5 -14t-12.5 -6h-14q-32 0 -62 -5t-53 -18v-388q0 -8 -5.5 -15t-14.5 -7h-150q-9 0 -15.5 7t-6.5 15v540q0 8 6 14t14 6h144q8 0 14 -6t6 -14v-24q17 18 32.5 28t30.5 15.5t29.5 7t30.5 1.5h11q8 0 14 -6t6 -14v-117zM424 772q0 -5 -4 -10l-89 -114
q-7 -8 -12 -11.5t-16 -3.5h-190q-11 0 -16 3t-12 12l-89 114q-4 5 -4 10q0 7 9 7h127q11 0 14.5 -2.5t9.5 -8.5l56 -57l56 57q6 6 9.5 8.5t14.5 2.5h127q9 0 9 -7z" />
    <glyph glyph-name="Sacute" unicode="&#x15a;" horiz-adv-x="607" 
d="M568 220q0 -42 -15.5 -83t-49 -73.5t-87.5 -52.5t-131 -20q-62 0 -112 7.5t-90 18.5q-8 2 -14.5 7t-6.5 13v123q0 10 5.5 15t13.5 5h2q16 -2 42 -4.5t55.5 -4.5t57.5 -4t48 -2q37 0 50 13.5t13 37.5q0 15 -9.5 25.5t-37.5 27.5l-144 85q-35 21 -58 44t-36.5 48t-19 52
t-5.5 56q0 41 12.5 77t42.5 63t80.5 43t126.5 16q30 0 63 -2t64.5 -6t58 -8.5t41.5 -8.5q7 -2 12.5 -6.5t5.5 -12.5v-125q0 -8 -5 -13.5t-13 -5.5h-2q-15 1 -42.5 3t-59.5 4.5t-65 4t-60 1.5q-28 0 -39 -9t-11 -25q0 -14 10 -24t42 -27l135 -72q73 -39 102.5 -88.5
t29.5 -112.5zM484 933q0 -4 -4 -8l-126 -120q-6 -5 -9.5 -8t-14.5 -3h-129q-9 0 -9 7q0 6 4 10l91 114q7 8 12 11.5t16 3.5h158q11 0 11 -7z" />
    <glyph glyph-name="sacute" unicode="&#x15b;" horiz-adv-x="517" 
d="M478 170q0 -38 -13.5 -70.5t-42 -56.5t-72 -38t-104.5 -14q-54 0 -102 7t-83 17q-19 5 -19 22v103q0 9 5 15t16 6h4q22 -3 47 -6t48.5 -5t44 -3.5t32.5 -1.5q29 0 38 7.5t9 21.5q0 8 -6 15.5t-24 17.5l-122 66q-95 51 -95 158q0 77 54 118.5t166 41.5q57 0 102.5 -7.5
t81.5 -17.5q20 -5 20 -22v-106q0 -20 -17 -20h-3q-11 1 -33 4t-47 5.5t-50 4.5t-42 2q-37 0 -37 -22q0 -11 22 -23l117 -63q61 -33 83 -73.5t22 -82.5zM439 772q0 -4 -4 -8l-126 -120q-6 -5 -9.5 -8t-14.5 -3h-129q-9 0 -9 7q0 6 4 10l91 114q7 8 12 11.5t16 3.5h158
q11 0 11 -7z" />
    <glyph glyph-name="Scircumflex" unicode="&#x15c;" horiz-adv-x="607" 
d="M568 220q0 -42 -15.5 -83t-49 -73.5t-87.5 -52.5t-131 -20q-62 0 -112 7.5t-90 18.5q-8 2 -14.5 7t-6.5 13v123q0 10 5.5 15t13.5 5h2q16 -2 42 -4.5t55.5 -4.5t57.5 -4t48 -2q37 0 50 13.5t13 37.5q0 15 -9.5 25.5t-37.5 27.5l-144 85q-35 21 -58 44t-36.5 48t-19 52
t-5.5 56q0 41 12.5 77t42.5 63t80.5 43t126.5 16q30 0 63 -2t64.5 -6t58 -8.5t41.5 -8.5q7 -2 12.5 -6.5t5.5 -12.5v-125q0 -8 -5 -13.5t-13 -5.5h-2q-15 1 -42.5 3t-59.5 4.5t-65 4t-60 1.5q-28 0 -39 -9t-11 -25q0 -14 10 -24t42 -27l135 -72q73 -39 102.5 -88.5
t29.5 -112.5zM495 802q0 -7 -9 -7h-124q-11 0 -14.5 2.5t-9.5 8.5l-56 59l-56 -59q-6 -6 -9.5 -8.5t-14.5 -2.5h-124q-9 0 -9 7q0 5 4 10l86 114q7 8 12 11.5t16 3.5h190q11 0 16 -3t12 -12l86 -114q4 -5 4 -10z" />
    <glyph glyph-name="scircumflex" unicode="&#x15d;" horiz-adv-x="517" 
d="M478 170q0 -38 -13.5 -70.5t-42 -56.5t-72 -38t-104.5 -14q-54 0 -102 7t-83 17q-19 5 -19 22v103q0 9 5 15t16 6h4q22 -3 47 -6t48.5 -5t44 -3.5t32.5 -1.5q29 0 38 7.5t9 21.5q0 8 -6 15.5t-24 17.5l-122 66q-95 51 -95 158q0 77 54 118.5t166 41.5q57 0 102.5 -7.5
t81.5 -17.5q20 -5 20 -22v-106q0 -20 -17 -20h-3q-11 1 -33 4t-47 5.5t-50 4.5t-42 2q-37 0 -37 -22q0 -11 22 -23l117 -63q61 -33 83 -73.5t22 -82.5zM466 640q0 -7 -9 -7h-124q-11 0 -14.5 2.5t-9.5 8.5l-56 59l-56 -59q-6 -6 -9.5 -8.5t-14.5 -2.5h-124q-9 0 -9 7
q0 5 4 10l86 114q7 8 12 11.5t16 3.5h190q11 0 16 -3t12 -12l86 -114q4 -5 4 -10z" />
    <glyph glyph-name="Scedilla" unicode="&#x15e;" horiz-adv-x="607" 
d="M568 220q0 -42 -15.5 -83t-49 -73.5t-87.5 -52.5t-131 -20q-62 0 -112 7.5t-90 18.5q-8 2 -14.5 7t-6.5 13v123q0 10 5.5 15t13.5 5h2q16 -2 42 -4.5t55.5 -4.5t57.5 -4t48 -2q37 0 50 13.5t13 37.5q0 15 -9.5 25.5t-37.5 27.5l-144 85q-35 21 -58 44t-36.5 48t-19 52
t-5.5 56q0 41 12.5 77t42.5 63t80.5 43t126.5 16q30 0 63 -2t64.5 -6t58 -8.5t41.5 -8.5q7 -2 12.5 -6.5t5.5 -12.5v-125q0 -8 -5 -13.5t-13 -5.5h-2q-15 1 -42.5 3t-59.5 4.5t-65 4t-60 1.5q-28 0 -39 -9t-11 -25q0 -14 10 -24t42 -27l135 -72q73 -39 102.5 -88.5
t29.5 -112.5zM413 -59q0 -4 -4 -8l-126 -120q-6 -5 -10 -8t-15 -3h-128q-9 0 -9 7q0 6 4 10l91 114q7 8 12 11.5t16 3.5h158q11 0 11 -7z" />
    <glyph glyph-name="scedilla" unicode="&#x15f;" horiz-adv-x="517" 
d="M478 170q0 -38 -13.5 -70.5t-42 -56.5t-72 -38t-104.5 -14q-54 0 -102 7t-83 17q-19 5 -19 22v103q0 9 5 15t16 6h4q22 -3 47 -6t48.5 -5t44 -3.5t32.5 -1.5q29 0 38 7.5t9 21.5q0 8 -6 15.5t-24 17.5l-122 66q-95 51 -95 158q0 77 54 118.5t166 41.5q57 0 102.5 -7.5
t81.5 -17.5q20 -5 20 -22v-106q0 -20 -17 -20h-3q-11 1 -33 4t-47 5.5t-50 4.5t-42 2q-37 0 -37 -22q0 -11 22 -23l117 -63q61 -33 83 -73.5t22 -82.5zM366 -59q0 -4 -4 -8l-126 -120q-6 -5 -10 -8t-15 -3h-128q-9 0 -9 7q0 6 4 10l91 114q7 8 12 11.5t16 3.5h158
q11 0 11 -7z" />
    <glyph glyph-name="Scaron" unicode="&#x160;" horiz-adv-x="607" 
d="M568 220q0 -42 -15.5 -83t-49 -73.5t-87.5 -52.5t-131 -20q-62 0 -112 7.5t-90 18.5q-8 2 -14.5 7t-6.5 13v123q0 10 5.5 15t13.5 5h2q16 -2 42 -4.5t55.5 -4.5t57.5 -4t48 -2q37 0 50 13.5t13 37.5q0 15 -9.5 25.5t-37.5 27.5l-144 85q-35 21 -58 44t-36.5 48t-19 52
t-5.5 56q0 41 12.5 77t42.5 63t80.5 43t126.5 16q30 0 63 -2t64.5 -6t58 -8.5t41.5 -8.5q7 -2 12.5 -6.5t5.5 -12.5v-125q0 -8 -5 -13.5t-13 -5.5h-2q-15 1 -42.5 3t-59.5 4.5t-65 4t-60 1.5q-28 0 -39 -9t-11 -25q0 -14 10 -24t42 -27l135 -72q73 -39 102.5 -88.5
t29.5 -112.5zM507 934q0 -5 -4 -10l-89 -114q-7 -8 -12 -11.5t-16 -3.5h-190q-11 0 -16 3t-12 12l-89 114q-4 5 -4 10q0 7 9 7h127q11 0 14.5 -2.5t9.5 -8.5l56 -57l56 57q6 6 9.5 8.5t14.5 2.5h127q9 0 9 -7z" />
    <glyph glyph-name="scaron" unicode="&#x161;" horiz-adv-x="517" 
d="M478 170q0 -38 -13.5 -70.5t-42 -56.5t-72 -38t-104.5 -14q-54 0 -102 7t-83 17q-19 5 -19 22v103q0 9 5 15t16 6h4q22 -3 47 -6t48.5 -5t44 -3.5t32.5 -1.5q29 0 38 7.5t9 21.5q0 8 -6 15.5t-24 17.5l-122 66q-95 51 -95 158q0 77 54 118.5t166 41.5q57 0 102.5 -7.5
t81.5 -17.5q20 -5 20 -22v-106q0 -20 -17 -20h-3q-11 1 -33 4t-47 5.5t-50 4.5t-42 2q-37 0 -37 -22q0 -11 22 -23l117 -63q61 -33 83 -73.5t22 -82.5zM477 772q0 -5 -4 -10l-89 -114q-7 -8 -12 -11.5t-16 -3.5h-190q-11 0 -16 3t-12 12l-89 114q-4 5 -4 10q0 7 9 7h127
q11 0 14.5 -2.5t9.5 -8.5l56 -57l56 57q6 6 9.5 8.5t14.5 2.5h127q9 0 9 -7z" />
    <glyph glyph-name="uni0162" unicode="&#x162;" horiz-adv-x="594" 
d="M570 596q0 -8 -6.5 -13.5t-14.5 -5.5h-149v-557q0 -8 -6 -14t-14 -6h-163q-8 0 -14 6t-6 14v557h-152q-8 0 -14 5.5t-6 13.5v128q0 8 6 13.5t14 5.5h504q8 0 14.5 -5.5t6.5 -13.5v-128zM389 -65q0 -1 -2 -7l-56 -101q-5 -8 -11 -14t-14 -6h-109q-15 0 -15 13q0 2 0.5 5
t2.5 11l24 92q5 19 20 19h146q14 0 14 -12z" />
    <glyph glyph-name="uni0163" unicode="&#x163;" horiz-adv-x="432" 
d="M399 460q0 -8 -6 -14t-14 -6h-76v-269q0 -23 4.5 -30.5t23.5 -7.5h46q9 0 15 -5.5t6 -13.5v-94q0 -8 -6 -13t-15 -7q-13 -2 -23.5 -4t-20.5 -3t-20.5 -1.5t-24.5 -0.5q-40 0 -72.5 7.5t-56 27.5t-36 55.5t-12.5 91.5v267l-66 15q-8 2 -14.5 8t-6.5 14v84q0 8 6 14.5
t15 6.5h66v81q0 8 6.5 13.5t14.5 7.5l149 26h3q8 0 13.5 -5.5t5.5 -13.5v-109h76q8 0 14 -6t6 -14v-102zM334 -65q0 -1 -2 -7l-56 -101q-5 -8 -11 -14t-14 -6h-109q-15 0 -15 13q0 2 0.5 5t2.5 11l24 92q5 19 20 19h146q14 0 14 -12z" />
    <glyph glyph-name="Tcaron" unicode="&#x164;" horiz-adv-x="594" 
d="M570 596q0 -8 -6.5 -13.5t-14.5 -5.5h-149v-557q0 -8 -6 -14t-14 -6h-163q-8 0 -14 6t-6 14v557h-152q-8 0 -14 5.5t-6 13.5v128q0 8 6 13.5t14 5.5h504q8 0 14.5 -5.5t6.5 -13.5v-128zM513 933q0 -5 -4 -10l-89 -114q-7 -8 -12 -11.5t-16 -3.5h-190q-11 0 -16 3t-12 12
l-89 114q-4 5 -4 10q0 7 9 7h127q11 0 14.5 -2.5t9.5 -8.5l56 -57l56 57q6 6 9.5 8.5t14.5 2.5h127q9 0 9 -7z" />
    <glyph glyph-name="tcaron" unicode="&#x165;" horiz-adv-x="677" 
d="M399 460q0 -8 -6 -14t-14 -6h-76v-269q0 -23 4.5 -30.5t23.5 -7.5h46q9 0 15 -5.5t6 -13.5v-94q0 -8 -6 -13t-15 -7q-13 -2 -23.5 -4t-20.5 -3t-20.5 -1.5t-24.5 -0.5q-40 0 -72.5 7.5t-56 27.5t-36 55.5t-12.5 91.5v267l-66 15q-8 2 -14.5 8t-6.5 14v84q0 8 6 14.5
t15 6.5h66v81q0 8 6.5 13.5t14.5 7.5l149 26h3q8 0 13.5 -5.5t5.5 -13.5v-109h76q8 0 14 -6t6 -14v-102zM687 762q0 -2 -2 -8l-100 -230q-4 -10 -7.5 -14.5t-11.5 -4.5h-109q-12 0 -12 11q0 5 1 8l65 230q4 19 20 19h144q12 0 12 -11z" />
    <glyph glyph-name="Tbar" unicode="&#x166;" horiz-adv-x="594" 
d="M400 297v-277q0 -8 -6 -14t-14 -6h-163q-8 0 -14 6t-6 14v277h-152q-8 0 -14 5.5t-6 13.5v128q0 8 6 13.5t14 5.5h152v114h-152q-8 0 -14 5.5t-6 13.5v128q0 8 6 13.5t14 5.5h504q8 0 14.5 -5.5t6.5 -13.5v-128q0 -8 -6.5 -13.5t-14.5 -5.5h-149v-114h149q8 0 14.5 -5.5
t6.5 -13.5v-128q0 -8 -6.5 -13.5t-14.5 -5.5h-149z" />
    <glyph glyph-name="tbar" unicode="&#x167;" horiz-adv-x="432" 
d="M399 460q0 -8 -6 -14t-14 -6h-76v-58h76q8 0 14 -6t6 -14v-102q0 -8 -6 -14t-14 -6h-76v-69q0 -23 4.5 -30.5t23.5 -7.5h46q9 0 15 -5.5t6 -13.5v-94q0 -8 -6 -13t-15 -7q-13 -2 -23.5 -4t-20.5 -3t-20.5 -1.5t-24.5 -0.5q-40 0 -72.5 7.5t-56 27.5t-36 55.5t-12.5 91.5
v67l-66 15q-8 2 -14.5 8t-6.5 14v84q0 8 6 14.5t15 6.5h66v58l-66 15q-8 2 -14.5 8t-6.5 14v84q0 8 6 14.5t15 6.5h66v81q0 8 6.5 13.5t14.5 7.5l149 26h3q8 0 13.5 -5.5t5.5 -13.5v-109h76q8 0 14 -6t6 -14v-102v0z" />
    <glyph glyph-name="Utilde" unicode="&#x168;" horiz-adv-x="731" 
d="M668 282q0 -91 -25.5 -147.5t-67.5 -88.5t-96.5 -43.5t-113.5 -11.5t-113.5 11.5t-96.5 43.5t-67 88.5t-25 147.5v441q0 8 6.5 14t14.5 6h162q8 0 14 -6t6 -14v-441q0 -68 23 -94t76 -26t76.5 26t23.5 94v441q0 8 6 14t14 6h162q8 0 14.5 -6t6.5 -14v-441zM577 916
q0 -71 -36 -99t-97 -28q-14 0 -35.5 5.5t-37.5 15.5l-40 24q-25 15 -39 15q-8 0 -13.5 -4t-5.5 -16v-17q0 -17 -16 -17h-84q-17 0 -17 17v17q0 69 36 98t98 29q14 0 34.5 -5t37.5 -15l41 -24q14 -8 22.5 -12t16.5 -4q10 0 14 4.5t4 16.5v17q0 17 17 17h83q17 0 17 -17v-18z
" />
    <glyph glyph-name="utilde" unicode="&#x169;" horiz-adv-x="631" 
d="M576 20q0 -8 -6 -14t-14 -6h-139q-8 0 -14 6t-6 14v23q-27 -20 -64.5 -36t-93.5 -16t-91.5 19t-56 51t-28.5 73.5t-8 86.5v339q0 8 5.5 15t14.5 7h150q9 0 15.5 -7t6.5 -15v-339q0 -40 12 -55.5t50 -15.5q17 0 37.5 6.5t37.5 15.5v388q0 8 5.5 15t14.5 7h150q9 0 15.5 -7
t6.5 -15v-540zM525 754q0 -71 -36 -99t-97 -28q-14 0 -35.5 5.5t-37.5 15.5l-40 24q-25 15 -39 15q-8 0 -13.5 -4t-5.5 -16v-17q0 -17 -16 -17h-84q-17 0 -17 17v17q0 69 36 98t98 29q14 0 34.5 -5t37.5 -15l41 -24q14 -8 22.5 -12t16.5 -4q10 0 14 4.5t4 16.5v17
q0 17 17 17h83q17 0 17 -17v-18z" />
    <glyph glyph-name="Umacron" unicode="&#x16a;" horiz-adv-x="731" 
d="M668 282q0 -91 -25.5 -147.5t-67.5 -88.5t-96.5 -43.5t-113.5 -11.5t-113.5 11.5t-96.5 43.5t-67 88.5t-25 147.5v441q0 8 6.5 14t14.5 6h162q8 0 14 -6t6 -14v-441q0 -68 23 -94t76 -26t76.5 26t23.5 94v441q0 8 6 14t14 6h162q8 0 14.5 -6t6.5 -14v-441zM555 825
q0 -8 -6 -14t-14 -6h-339q-8 0 -14 6t-6 14v88q0 8 6 13.5t14 5.5h339q8 0 14 -5.5t6 -13.5v-88z" />
    <glyph glyph-name="umacron" unicode="&#x16b;" horiz-adv-x="631" 
d="M576 20q0 -8 -6 -14t-14 -6h-139q-8 0 -14 6t-6 14v23q-27 -20 -64.5 -36t-93.5 -16t-91.5 19t-56 51t-28.5 73.5t-8 86.5v339q0 8 5.5 15t14.5 7h150q9 0 15.5 -7t6.5 -15v-339q0 -40 12 -55.5t50 -15.5q17 0 37.5 6.5t37.5 15.5v388q0 8 5.5 15t14.5 7h150q9 0 15.5 -7
t6.5 -15v-540zM505 664q0 -8 -6 -14t-14 -6h-339q-8 0 -14 6t-6 14v88q0 8 6 13.5t14 5.5h339q8 0 14 -5.5t6 -13.5v-88z" />
    <glyph glyph-name="Ubreve" unicode="&#x16c;" horiz-adv-x="731" 
d="M668 282q0 -91 -25.5 -147.5t-67.5 -88.5t-96.5 -43.5t-113.5 -11.5t-113.5 11.5t-96.5 43.5t-67 88.5t-25 147.5v441q0 8 6.5 14t14.5 6h162q8 0 14 -6t6 -14v-441q0 -68 23 -94t76 -26t76.5 26t23.5 94v441q0 8 6 14t14 6h162q8 0 14.5 -6t6.5 -14v-441zM572 945
q0 -1 -2 -7q-27 -70 -79 -106.5t-127 -36.5t-127 36.5t-79 106.5q-2 6 -2 7q0 6 9 6h118q9 0 11.5 -3.5t4.5 -9.5q8 -28 28 -37t37 -9t37 9t28 37q2 6 4.5 9.5t11.5 3.5h118q9 0 9 -6z" />
    <glyph glyph-name="ubreve" unicode="&#x16d;" horiz-adv-x="631" 
d="M576 20q0 -8 -6 -14t-14 -6h-139q-8 0 -14 6t-6 14v23q-27 -20 -64.5 -36t-93.5 -16t-91.5 19t-56 51t-28.5 73.5t-8 86.5v339q0 8 5.5 15t14.5 7h150q9 0 15.5 -7t6.5 -15v-339q0 -40 12 -55.5t50 -15.5q17 0 37.5 6.5t37.5 15.5v388q0 8 5.5 15t14.5 7h150q9 0 15.5 -7
t6.5 -15v-540zM521 783q0 -1 -2 -7q-27 -70 -79 -106.5t-127 -36.5t-127 36.5t-79 106.5q-2 6 -2 7q0 6 9 6h118q9 0 11.5 -3.5t4.5 -9.5q8 -28 28 -37t37 -9t37 9t28 37q2 6 4.5 9.5t11.5 3.5h118q9 0 9 -6z" />
    <glyph glyph-name="Uring" unicode="&#x16e;" horiz-adv-x="731" 
d="M668 282q0 -91 -25.5 -147.5t-67.5 -88.5t-96.5 -43.5t-113.5 -11.5t-113.5 11.5t-96.5 43.5t-67 88.5t-25 147.5v441q0 8 6.5 14t14.5 6h162q8 0 14 -6t6 -14v-441q0 -68 23 -94t76 -26t76.5 26t23.5 94v441q0 8 6 14t14 6h162q8 0 14.5 -6t6.5 -14v-441zM486 876
q0 -25 -9.5 -47.5t-26 -39t-39 -26t-47.5 -9.5t-47 9.5t-38 26t-25 39t-9 47.5t9 47.5t25 39t38 26t47 9.5t47.5 -9.5t39 -26t26 -39t9.5 -47.5zM406 877q0 17 -12 29t-29 12t-28.5 -12t-11.5 -29t11.5 -30t28.5 -13t29 13t12 30z" />
    <glyph glyph-name="uring" unicode="&#x16f;" horiz-adv-x="631" 
d="M576 20q0 -8 -6 -14t-14 -6h-139q-8 0 -14 6t-6 14v23q-27 -20 -64.5 -36t-93.5 -16t-91.5 19t-56 51t-28.5 73.5t-8 86.5v339q0 8 5.5 15t14.5 7h150q9 0 15.5 -7t6.5 -15v-339q0 -40 12 -55.5t50 -15.5q17 0 37.5 6.5t37.5 15.5v388q0 8 5.5 15t14.5 7h150q9 0 15.5 -7
t6.5 -15v-540zM436 715q0 -25 -9.5 -47.5t-26 -39t-39 -26t-47.5 -9.5t-47 9.5t-38 26t-25 39t-9 47.5t9 47.5t25 39t38 26t47 9.5t47.5 -9.5t39 -26t26 -39t9.5 -47.5zM356 716q0 17 -12 29t-29 12t-28.5 -12t-11.5 -29t11.5 -30t28.5 -13t29 13t12 30z" />
    <glyph glyph-name="Uhungarumlaut" unicode="&#x170;" horiz-adv-x="731" 
d="M668 282q0 -91 -25.5 -147.5t-67.5 -88.5t-96.5 -43.5t-113.5 -11.5t-113.5 11.5t-96.5 43.5t-67 88.5t-25 147.5v441q0 8 6.5 14t14.5 6h162q8 0 14 -6t6 -14v-441q0 -68 23 -94t76 -26t76.5 26t23.5 94v441q0 8 6 14t14 6h162q8 0 14.5 -6t6.5 -14v-441zM675 933
q0 -4 -4 -8l-126 -120q-6 -5 -10 -8t-15 -3h-128q-9 0 -9 7q0 6 4 10l91 114q7 8 12 11.5t16 3.5h158q11 0 11 -7zM419 933q0 -4 -4 -8l-126 -120q-6 -5 -10 -8t-15 -3h-129q-9 0 -9 7q0 6 4 10l91 114q7 8 12 11.5t16 3.5h159q11 0 11 -7z" />
    <glyph glyph-name="uhungarumlaut" unicode="&#x171;" horiz-adv-x="631" 
d="M576 20q0 -8 -6 -14t-14 -6h-139q-8 0 -14 6t-6 14v23q-27 -20 -64.5 -36t-93.5 -16t-91.5 19t-56 51t-28.5 73.5t-8 86.5v339q0 8 5.5 15t14.5 7h150q9 0 15.5 -7t6.5 -15v-339q0 -40 12 -55.5t50 -15.5q17 0 37.5 6.5t37.5 15.5v388q0 8 5.5 15t14.5 7h150q9 0 15.5 -7
t6.5 -15v-540zM625 772q0 -4 -4 -8l-126 -120q-6 -5 -10 -8t-15 -3h-128q-9 0 -9 7q0 6 4 10l91 114q7 8 12 11.5t16 3.5h158q11 0 11 -7zM369 772q0 -4 -4 -8l-126 -120q-6 -5 -10 -8t-15 -3h-129q-9 0 -9 7q0 6 4 10l91 114q7 8 12 11.5t16 3.5h159q11 0 11 -7z" />
    <glyph glyph-name="Uogonek" unicode="&#x172;" horiz-adv-x="731" 
d="M668 282q-1 -53 -9.5 -93.5t-24.5 -71.5t-38.5 -54t-50.5 -41l-81 -52q-11 -7 -18.5 -13.5t-7.5 -16.5q0 -15 9.5 -21t31.5 -6q19 0 39 4.5t28 4.5q7 0 8.5 -2t1.5 -10v-76q0 -5 -1.5 -8t-9.5 -7q-11 -5 -43.5 -12.5t-74.5 -7.5q-26 0 -50 4.5t-43 16t-30.5 30
t-11.5 46.5q0 32 12 54t41 42q-56 1 -107 14t-90 45.5t-62 88t-23 142.5v441q0 8 6.5 14t14.5 6h162q8 0 14 -6t6 -14v-441q0 -68 23 -94t76 -26t76.5 26t23.5 94v441q0 8 6 14t14 6h162q8 0 14.5 -6t6.5 -14v-441v0z" />
    <glyph glyph-name="uogonek" unicode="&#x173;" horiz-adv-x="631" 
d="M397 43q-27 -20 -64.5 -36t-93.5 -16t-91.5 19t-56 51t-28.5 73.5t-8 86.5v339q0 8 5.5 15t14.5 7h150q9 0 15.5 -7t6.5 -15v-339q0 -40 12 -55.5t50 -15.5q17 0 37.5 6.5t37.5 15.5v388q0 8 5.5 15t14.5 7h150q9 0 15.5 -7t6.5 -15v-535q0 -11 -2.5 -15.5t-13.5 -9.5
l-74 -30q-11 -5 -18.5 -12.5t-7.5 -17.5q0 -15 9.5 -21t31.5 -6q19 0 39 4.5t28 4.5q7 0 8.5 -2t1.5 -10v-76q0 -5 -1.5 -8t-9.5 -7q-11 -5 -43.5 -12.5t-74.5 -7.5q-26 0 -50 4.5t-43 16t-30.5 30t-11.5 46.5q0 35 16 59t55 47l12 7v34z" />
    <glyph glyph-name="Wcircumflex" unicode="&#x174;" horiz-adv-x="917" 
d="M896 730l-88 -645q-4 -26 -10.5 -42.5t-16.5 -26t-23.5 -13t-29.5 -3.5h-103q-33 0 -50.5 17t-30.5 60l-74 252q-2 6 -3 7.5t-5 1.5t-5.5 -1.5t-3.5 -7.5l-74 -252q-13 -43 -30.5 -60t-50.5 -17h-103q-17 0 -30 3.5t-23 13t-16.5 26t-10.5 42.5l-88 645v2q0 7 5.5 9
t10.5 2h170q13 0 15 -19l49 -443q2 -13 7 -13t8 13l58 202q7 25 21.5 34t37.5 9h105q23 0 37.5 -9t21.5 -34l58 -202q3 -13 8 -13t7 13l49 443q2 19 15 19h170q5 0 10.5 -2t5.5 -9v-2zM674 802q0 -7 -9 -7h-124q-11 0 -14.5 2.5t-9.5 8.5l-56 59l-56 -59q-6 -6 -9.5 -8.5
t-14.5 -2.5h-124q-9 0 -9 7q0 5 4 10l86 114q7 8 12 11.5t16 3.5h190q11 0 16 -3t12 -12l86 -114q4 -5 4 -10z" />
    <glyph glyph-name="wcircumflex" unicode="&#x175;" horiz-adv-x="871" 
d="M846 564l-88 -475q-9 -49 -30 -69t-55 -20h-91q-34 0 -53.5 22.5t-31.5 63.5l-54 183q-1 7 -7 7t-7 -7l-54 -183q-12 -41 -31 -63.5t-54 -22.5h-91q-34 0 -55 20t-30 69l-88 475v3q0 6 4.5 10.5t10.5 4.5h160q14 0 17 -17l49 -343q1 -8 7 -8q5 0 8 8l58 205q5 18 16 29.5
t40 11.5h80q29 0 40 -11.5t16 -29.5l58 -205q3 -8 8 -8q6 0 7 8l49 343q3 17 17 17h160q6 0 10.5 -4.5t4.5 -10.5v-3zM649 640q0 -7 -9 -7h-124q-11 0 -14.5 2.5t-9.5 8.5l-56 59l-56 -59q-6 -6 -9.5 -8.5t-14.5 -2.5h-124q-9 0 -9 7q0 5 4 10l86 114q7 8 12 11.5t16 3.5
h190q11 0 16 -3t12 -12l86 -114q4 -5 4 -10z" />
    <glyph glyph-name="Ycircumflex" unicode="&#x176;" horiz-adv-x="682" 
d="M662 730q0 -2 -2 -8l-147 -345q-16 -37 -33.5 -57.5t-37.5 -28.5v-271q0 -8 -6 -14t-14 -6h-163q-8 0 -13.5 6t-5.5 14v271q-20 8 -37.5 28.5t-33.5 57.5l-147 345q-2 6 -2 8q0 13 14 13h181q8 0 12.5 -5.5t7.5 -13.5l96 -265q4 -10 10 -10t10 10l96 265q3 8 7.5 13.5
t12.5 5.5h181q14 0 14 -13zM554 802q0 -7 -9 -7h-124q-11 0 -14.5 2.5t-9.5 8.5l-56 59l-56 -59q-6 -6 -9.5 -8.5t-14.5 -2.5h-124q-9 0 -9 7q0 5 4 10l86 114q7 8 12 11.5t16 3.5h190q11 0 16 -3t12 -12l86 -114q4 -5 4 -10z" />
    <glyph glyph-name="ycircumflex" unicode="&#x177;" horiz-adv-x="621" 
d="M604 564q0 -1 -0.5 -2t-0.5 -2l-170 -594q-11 -40 -27 -71.5t-42 -53t-65.5 -33t-98.5 -11.5q-15 0 -34 1.5t-38 4t-36 5.5t-27 7q-8 3 -15.5 7t-7.5 12v97q0 8 6.5 14.5t15.5 6.5h1q14 -1 31.5 -2t36.5 -2.5t37 -2.5t32 -1q21 0 35 8t19 30l8 33h-13q-17 0 -31 2.5
t-26 13t-22.5 31t-21.5 57.5l-132 441q-1 2 -1 7q0 15 22 15h163q8 0 13 -6t7 -14l79 -344q4 -17 11 -17h8l79 362q3 19 21 19h163q8 0 14.5 -5t6.5 -13zM527 640q0 -7 -9 -7h-124q-11 0 -14.5 2.5t-9.5 8.5l-56 59l-56 -59q-6 -6 -9.5 -8.5t-14.5 -2.5h-124q-9 0 -9 7
q0 5 4 10l86 114q7 8 12 11.5t16 3.5h190q11 0 16 -3t12 -12l86 -114q4 -5 4 -10z" />
    <glyph glyph-name="Ydieresis" unicode="&#x178;" horiz-adv-x="682" 
d="M662 730q0 -2 -2 -8l-147 -345q-16 -37 -33.5 -57.5t-37.5 -28.5v-271q0 -8 -6 -14t-14 -6h-163q-8 0 -13.5 6t-5.5 14v271q-20 8 -37.5 28.5t-33.5 57.5l-147 345q-2 6 -2 8q0 13 14 13h181q8 0 12.5 -5.5t7.5 -13.5l96 -265q4 -10 10 -10t10 10l96 265q3 8 7.5 13.5
t12.5 5.5h181q14 0 14 -13zM546 816q0 -8 -7.5 -14t-15.5 -6h-116q-8 0 -15 6t-7 14v98q0 8 7 14t15 6h116q8 0 15.5 -6t7.5 -14v-98zM312 816q0 -8 -7 -14t-15 -6h-116q-8 0 -15.5 6t-7.5 14v98q0 8 7.5 14t15.5 6h116q8 0 15 -6t7 -14v-98z" />
    <glyph glyph-name="Zacute" unicode="&#x179;" horiz-adv-x="632" 
d="M577 20q0 -8 -6 -14t-14 -6h-471q-13 0 -22 6.5t-9 19.5v105q0 11 4 22t14 27l239 369q4 7 4 12q0 7 -11 7h-219q-8 0 -14 6t-6 14v136q0 8 6 13.5t14 5.5h456q10 0 18 -3t8 -13v-126q0 -8 -5.5 -24.5t-26.5 -48.5l-218 -334q-4 -5 -4 -11q0 -8 12 -8h231q8 0 14 -5.5
t6 -13.5v-136zM497 933q0 -4 -4 -8l-126 -120q-6 -5 -9.5 -8t-14.5 -3h-129q-9 0 -9 7q0 6 4 10l91 114q7 8 12 11.5t16 3.5h158q11 0 11 -7z" />
    <glyph glyph-name="zacute" unicode="&#x17a;" horiz-adv-x="542" 
d="M495 20q0 -8 -6 -14t-14 -6h-401q-11 0 -19 8t-8 19v84q0 13 3 22.5t12 21.5l191 259q4 5 4 9q0 6 -9 6h-178q-16 0 -16 16v117q0 8 6 14t14 6h393q11 0 18.5 -8t7.5 -19v-91q0 -17 -4 -25.5t-13 -20.5l-182 -247q-4 -6 -4 -9q0 -6 9 -6h178q8 0 13 -4t5 -12v-120z
M452 772q0 -4 -4 -8l-126 -120q-6 -5 -9.5 -8t-14.5 -3h-129q-9 0 -9 7q0 6 4 10l91 114q7 8 12 11.5t16 3.5h158q11 0 11 -7z" />
    <glyph glyph-name="Zdotaccent" unicode="&#x17b;" horiz-adv-x="632" 
d="M577 20q0 -8 -6 -14t-14 -6h-471q-13 0 -22 6.5t-9 19.5v105q0 11 4 22t14 27l239 369q4 7 4 12q0 7 -11 7h-219q-8 0 -14 6t-6 14v136q0 8 6 13.5t14 5.5h456q10 0 18 -3t8 -13v-126q0 -8 -5.5 -24.5t-26.5 -48.5l-218 -334q-4 -5 -4 -11q0 -8 12 -8h231q8 0 14 -5.5
t6 -13.5v-136zM410 812q0 -8 -6.5 -14t-14.5 -6h-146q-8 0 -14 6t-6 14v109q0 8 6 14t14 6h146q8 0 14.5 -6t6.5 -14v-109z" />
    <glyph glyph-name="zdotaccent" unicode="&#x17c;" horiz-adv-x="542" 
d="M495 20q0 -8 -6 -14t-14 -6h-401q-11 0 -19 8t-8 19v84q0 13 3 22.5t12 21.5l191 259q4 5 4 9q0 6 -9 6h-178q-16 0 -16 16v117q0 8 6 14t14 6h393q11 0 18.5 -8t7.5 -19v-91q0 -17 -4 -25.5t-13 -20.5l-182 -247q-4 -6 -4 -9q0 -6 9 -6h178q8 0 13 -4t5 -12v-120z
M365 651q0 -8 -6.5 -14t-14.5 -6h-146q-8 0 -14 6t-6 14v109q0 8 6 14t14 6h146q8 0 14.5 -6t6.5 -14v-109z" />
    <glyph glyph-name="Zcaron" unicode="&#x17d;" horiz-adv-x="632" 
d="M577 20q0 -8 -6 -14t-14 -6h-471q-13 0 -22 6.5t-9 19.5v105q0 11 4 22t14 27l239 369q4 7 4 12q0 7 -11 7h-219q-8 0 -14 6t-6 14v136q0 8 6 13.5t14 5.5h456q10 0 18 -3t8 -13v-126q0 -8 -5.5 -24.5t-26.5 -48.5l-218 -334q-4 -5 -4 -11q0 -8 12 -8h231q8 0 14 -5.5
t6 -13.5v-136zM537 934q0 -5 -4 -10l-89 -114q-7 -8 -12 -11.5t-16 -3.5h-190q-11 0 -16 3t-12 12l-89 114q-4 5 -4 10q0 7 9 7h127q11 0 14.5 -2.5t9.5 -8.5l56 -57l56 57q6 6 9.5 8.5t14.5 2.5h127q9 0 9 -7z" />
    <glyph glyph-name="zcaron" unicode="&#x17e;" horiz-adv-x="542" 
d="M495 20q0 -8 -6 -14t-14 -6h-401q-11 0 -19 8t-8 19v84q0 13 3 22.5t12 21.5l191 259q4 5 4 9q0 6 -9 6h-178q-16 0 -16 16v117q0 8 6 14t14 6h393q11 0 18.5 -8t7.5 -19v-91q0 -17 -4 -25.5t-13 -20.5l-182 -247q-4 -6 -4 -9q0 -6 9 -6h178q8 0 13 -4t5 -12v-120z
M494 772q0 -5 -4 -10l-89 -114q-7 -8 -12 -11.5t-16 -3.5h-190q-11 0 -16 3t-12 12l-89 114q-4 5 -4 10q0 7 9 7h127q10 0 14 -2.5t10 -8.5l56 -57l56 57q6 6 10 8.5t14 2.5h127q9 0 9 -7z" />
    <glyph glyph-name="florin" unicode="&#x192;" 
d="M640 762l-13 -92q-2 -8 -8.5 -14t-15.5 -6h-68q-19 0 -30.5 -2t-18 -6.5t-9.5 -12.5t-5 -20l-20 -144h130q18 0 18 -17v-3l-14 -103q-2 -8 -8.5 -14.5t-15.5 -6.5h-130l-44 -313q-8 -54 -29 -89.5t-52.5 -56.5t-70 -29t-80.5 -8q-32 0 -63.5 3.5t-47.5 6.5q-11 2 -14.5 6
t-3.5 10v4l12 92q1 8 8 13.5t16 5.5h69q19 0 30 2t17.5 7t9.5 13t5 20l44 313h-125q-8 0 -13 5t-5 13v3l14 103q2 8 8.5 14t15.5 6h126l20 144q7 54 28.5 89.5t52.5 56.5t69.5 29t80.5 8q32 0 64 -3.5t48 -6.5q11 -2 14.5 -6t3.5 -10v-4z" />
    <glyph glyph-name="AEacute" unicode="&#x1fc;" horiz-adv-x="943" 
d="M890 23q0 -17 -20 -20q-14 -2 -29.5 -4t-36 -4t-47 -3t-62.5 -1q-43 0 -84 6t-74.5 24t-57.5 50.5t-33 85.5h-188l-28 -138q-2 -8 -7 -13.5t-13 -5.5h-174q-17 0 -17 16q0 2 0.5 2.5t0.5 2.5l134 607q8 37 26 59.5t43 35t56.5 16.5t67.5 4h523q20 0 20 -20v-129
q0 -8 -6 -14t-14 -6h-228v-118h224q8 0 14 -6t6 -14v-118q0 -8 -6 -14t-14 -6h-224v-83q0 -29 11 -39.5t38 -10.5h179q8 0 14 -6t6 -14v-122zM439 576h-89q-8 0 -10.5 -4t-4.5 -14l-48 -240h152v258zM757 934q0 -4 -4 -8l-126 -120q-6 -5 -9.5 -8t-14.5 -3h-129q-9 0 -9 7
q0 6 4 10l91 114q7 8 12 11.5t16 3.5h158q11 0 11 -7z" />
    <glyph glyph-name="aeacute" unicode="&#x1fd;" horiz-adv-x="892" 
d="M852 262q0 -8 -7 -14.5t-15 -6.5h-306v-34q0 -32 26.5 -44.5t74.5 -12.5q15 0 40 0.5t52 1.5t51 2.5t38 2.5h4q17 0 17 -17v-88q0 -12 -4 -17.5t-15 -10.5q-45 -17 -101.5 -25t-111.5 -8q-37 0 -69 10t-58 28q-43 -18 -85 -28t-89 -10q-255 0 -255 185v11q0 45 19 75.5
t53.5 49t82.5 26.5t107 8h33v15q0 43 -17.5 57t-46.5 14q-24 0 -49.5 -0.5t-49 -1.5t-42 -2.5t-28.5 -2.5h-2q-8 0 -13 6t-5 14v96q0 18 20 25q12 4 31.5 8t42.5 8t47.5 6.5t47.5 2.5q107 0 172 -53q32 26 69.5 39.5t86.5 13.5q66 0 114 -19.5t79 -54.5t46 -84t15 -109v-62z
M668 355q0 40 -16.5 64.5t-55.5 24.5q-37 0 -54.5 -24.5t-17.5 -64.5v-14h144v14zM340 246h-39q-37 0 -59 -13t-22 -46v-11q0 -32 20 -42t54 -10q14 0 23.5 1.5t22.5 5.5v115zM648 772q0 -4 -4 -8l-126 -120q-6 -5 -9.5 -8t-14.5 -3h-129q-9 0 -9 7q0 6 4 10l91 114
q7 8 12 11.5t16 3.5h158q11 0 11 -7z" />
    <glyph glyph-name="Oslashacute" unicode="&#x1fe;" horiz-adv-x="708" 
d="M693 742q0 -4 -3 -8l-78 -107q23 -38 36 -88t13 -116v-103q0 -92 -24.5 -154.5t-66.5 -101.5t-98 -56t-118 -17q-47 0 -90 9.5t-80 30.5l-14 -21q-5 -6 -11.5 -12.5t-14.5 -6.5h-118q-11 0 -11 11q0 3 3 8l77 108q-23 38 -35.5 87.5t-12.5 114.5v103q0 91 24.5 154
t66.5 102t98 56.5t118 17.5q47 0 89.5 -9.5t79.5 -30.5l15 21q5 6 11.5 12.5t14.5 6.5h118q11 0 11 -11zM412 559q-11 8 -26 11.5t-32 3.5q-53 0 -77 -35t-24 -116v-85zM455 407l-159 -221q22 -16 58 -16q53 0 77 34.5t24 115.5v87zM556 934q0 -4 -4 -8l-126 -120
q-6 -5 -9.5 -8t-14.5 -3h-129q-9 0 -9 7q0 6 4 10l91 114q7 8 12 11.5t16 3.5h158q11 0 11 -7z" />
    <glyph glyph-name="oslashacute" unicode="&#x1ff;" horiz-adv-x="605" 
d="M575 608q0 -6 -4 -11l-64 -87q58 -69 58 -190v-58q0 -133 -68 -202t-194 -69q-89 0 -152 37l-39 -53q-5 -7 -8 -8.5t-8 -1.5h-58q-8 0 -8 8q0 6 4 11l65 88q-29 34 -44 81.5t-15 108.5v58q0 133 68.5 202t194.5 69q90 0 152 -37l38 52q5 7 8 8.5t8 1.5h58q8 0 8 -8z
M350 412q-18 18 -47 18q-35 0 -53.5 -25t-18.5 -85v-58v-7v-4zM374 330l-119 -160q18 -19 48 -19q35 0 53 25.5t18 85.5v58v7v3zM496 772q0 -4 -4 -8l-126 -120q-6 -5 -9.5 -8t-14.5 -3h-129q-9 0 -9 7q0 6 4 10l91 114q7 8 12 11.5t16 3.5h158q11 0 11 -7z" />
    <glyph glyph-name="uni0218" unicode="&#x218;" horiz-adv-x="607" 
d="M568 220q0 -42 -15.5 -83t-49 -73.5t-87.5 -52.5t-131 -20q-62 0 -112 7.5t-90 18.5q-8 2 -14.5 7t-6.5 13v123q0 10 5.5 15t13.5 5h2q16 -2 42 -4.5t55.5 -4.5t57.5 -4t48 -2q37 0 50 13.5t13 37.5q0 15 -9.5 25.5t-37.5 27.5l-144 85q-35 21 -58 44t-36.5 48t-19 52
t-5.5 56q0 41 12.5 77t42.5 63t80.5 43t126.5 16q30 0 63 -2t64.5 -6t58 -8.5t41.5 -8.5q7 -2 12.5 -6.5t5.5 -12.5v-125q0 -8 -5 -13.5t-13 -5.5h-2q-15 1 -42.5 3t-59.5 4.5t-65 4t-60 1.5q-28 0 -39 -9t-11 -25q0 -14 10 -24t42 -27l135 -72q73 -39 102.5 -88.5
t29.5 -112.5zM408 -65q0 -1 -2 -7l-56 -101q-5 -8 -11 -14t-14 -6h-109q-15 0 -15 13q0 2 0.5 5t2.5 11l24 92q5 19 20 19h146q14 0 14 -12z" />
    <glyph glyph-name="uni0219" unicode="&#x219;" horiz-adv-x="517" 
d="M478 170q0 -38 -13.5 -70.5t-42 -56.5t-72 -38t-104.5 -14q-54 0 -102 7t-83 17q-19 5 -19 22v103q0 9 5 15t16 6h4q22 -3 47 -6t48.5 -5t44 -3.5t32.5 -1.5q29 0 38 7.5t9 21.5q0 8 -6 15.5t-24 17.5l-122 66q-95 51 -95 158q0 77 54 118.5t166 41.5q57 0 102.5 -7.5
t81.5 -17.5q20 -5 20 -22v-106q0 -20 -17 -20h-3q-11 1 -33 4t-47 5.5t-50 4.5t-42 2q-37 0 -37 -22q0 -11 22 -23l117 -63q61 -33 83 -73.5t22 -82.5zM357 -65q0 -1 -2 -7l-56 -101q-5 -8 -11 -14t-14 -6h-109q-15 0 -15 13q0 2 0.5 5t2.5 11l24 92q5 19 20 19h146
q14 0 14 -12z" />
    <glyph glyph-name="uni021A" unicode="&#x21a;" horiz-adv-x="594" 
d="M570 596q0 -8 -6.5 -13.5t-14.5 -5.5h-149v-557q0 -8 -6 -14t-14 -6h-163q-8 0 -14 6t-6 14v557h-152q-8 0 -14 5.5t-6 13.5v128q0 8 6 13.5t14 5.5h504q8 0 14.5 -5.5t6.5 -13.5v-128zM389 -65q0 -1 -2 -7l-56 -101q-5 -8 -11 -14t-14 -6h-109q-15 0 -15 13q0 2 0.5 5
t2.5 11l24 92q5 19 20 19h146q14 0 14 -12z" />
    <glyph glyph-name="uni021B" unicode="&#x21b;" horiz-adv-x="432" 
d="M399 460q0 -8 -6 -14t-14 -6h-76v-269q0 -23 4.5 -30.5t23.5 -7.5h46q9 0 15 -5.5t6 -13.5v-94q0 -8 -6 -13t-15 -7q-13 -2 -23.5 -4t-20.5 -3t-20.5 -1.5t-24.5 -0.5q-40 0 -72.5 7.5t-56 27.5t-36 55.5t-12.5 91.5v267l-66 15q-8 2 -14.5 8t-6.5 14v84q0 8 6 14.5
t15 6.5h66v81q0 8 6.5 13.5t14.5 7.5l149 26h3q8 0 13.5 -5.5t5.5 -13.5v-109h76q8 0 14 -6t6 -14v-102zM334 -65q0 -1 -2 -7l-56 -101q-5 -8 -11 -14t-14 -6h-109q-15 0 -15 13q0 2 0.5 5t2.5 11l24 92q5 19 20 19h146q14 0 14 -12z" />
    <glyph glyph-name="circumflex" unicode="&#x2c6;" horiz-adv-x="472" 
d="M449 640q0 -7 -9 -7h-124q-11 0 -14.5 2.5t-9.5 8.5l-56 59l-56 -59q-6 -6 -9.5 -8.5t-14.5 -2.5h-124q-9 0 -9 7q0 5 4 10l86 114q7 8 12 11.5t16 3.5h190q11 0 16 -3t12 -12l86 -114q4 -5 4 -10z" />
    <glyph glyph-name="caron" unicode="&#x2c7;" horiz-adv-x="472" 
d="M452 772q0 -5 -4 -10l-89 -114q-7 -8 -12 -11.5t-16 -3.5h-190q-11 0 -16 3t-12 12l-89 114q-4 5 -4 10q0 7 9 7h127q11 0 14.5 -2.5t9.5 -8.5l56 -57l56 57q6 6 9.5 8.5t14.5 2.5h127q9 0 9 -7z" />
    <glyph glyph-name="uni02C9" unicode="&#x2c9;" horiz-adv-x="472" 
d="M426 664q0 -8 -6 -14t-14 -6h-339q-8 0 -14 6t-6 14v88q0 8 6 13.5t14 5.5h339q8 0 14 -5.5t6 -13.5v-88v0z" />
    <glyph glyph-name="breve" unicode="&#x2d8;" horiz-adv-x="472" 
d="M444 773q0 -1 -2 -7q-27 -70 -79 -106.5t-127 -36.5t-127 36.5t-79 106.5q-2 6 -2 7q0 6 9 6h118q9 0 11.5 -3.5t4.5 -9.5q8 -28 28 -37t37 -9t37 9t28 37q2 6 4.5 9.5t11.5 3.5h118q9 0 9 -6z" />
    <glyph glyph-name="dotaccent" unicode="&#x2d9;" horiz-adv-x="472" 
d="M330 651q0 -8 -6.5 -14t-14.5 -6h-146q-8 0 -14 6t-6 14v109q0 8 6 14t14 6h146q8 0 14.5 -6t6.5 -14v-109v0z" />
    <glyph glyph-name="ring" unicode="&#x2da;" horiz-adv-x="472" 
d="M358 715q0 -25 -9.5 -47.5t-26 -39t-39 -26t-47.5 -9.5t-47 9.5t-38 26t-25 39t-9 47.5t9 47.5t25 39t38 26t47 9.5t47.5 -9.5t39 -26t26 -39t9.5 -47.5zM278 716q0 17 -12 29t-29 12t-28.5 -12t-11.5 -29t11.5 -30t28.5 -13t29 13t12 30z" />
    <glyph glyph-name="ogonek" unicode="&#x2db;" horiz-adv-x="451" 
d="M333 -166q0 -5 -1.5 -8t-9.5 -7q-11 -5 -43.5 -12.5t-74.5 -7.5q-26 0 -50 4.5t-43 16t-30.5 30t-11.5 46.5q0 35 16 59t55 47l48 28q10 7 29 7h98q8 0 9 -5t-5 -10l-78 -52q-11 -7 -18.5 -13.5t-7.5 -16.5q0 -15 9.5 -21t31.5 -6q19 0 39 4.5t28 4.5q7 0 8.5 -2t1.5 -10
v-75v-1z" />
    <glyph glyph-name="tilde" unicode="&#x2dc;" horiz-adv-x="498" 
d="M456 753q0 -71 -36 -99t-97 -28q-14 0 -35.5 5.5t-37.5 15.5l-40 24q-25 15 -39 15q-8 0 -13.5 -4t-5.5 -16v-17q0 -17 -16 -17h-84q-17 0 -17 17v17q0 69 36 98t98 29q14 0 34.5 -5t37.5 -15l41 -24q14 -8 22.5 -12t16.5 -4q10 0 14 4.5t4 16.5v17q0 17 17 17h83
q17 0 17 -17v-18v0z" />
    <glyph glyph-name="hungarumlaut" unicode="&#x2dd;" horiz-adv-x="472" 
d="M517 772q0 -4 -4 -8l-126 -120q-6 -5 -10 -8t-15 -3h-128q-9 0 -9 7q0 6 4 10l91 114q7 8 12 11.5t16 3.5h158q11 0 11 -7zM261 772q0 -4 -4 -8l-126 -120q-6 -5 -10 -8t-15 -3h-129q-9 0 -9 7q0 6 4 10l91 114q7 8 12 11.5t16 3.5h159q11 0 11 -7z" />
    <glyph glyph-name="uni03A9" unicode="&#x3a9;" horiz-adv-x="716" 
d="M358 575q-56 0 -80 -31t-24 -103v-12q0 -18 0.5 -37.5t5 -38.5t13.5 -35.5t26 -28.5q7 -5 10.5 -8t3.5 -17v-243q0 -21 -21 -21h-191q-10 0 -16.5 4.5t-6.5 16.5v114q0 12 6.5 16t16.5 4h111v27q-54 18 -86.5 46t-50 63t-23 75t-5.5 83v12q0 79 22.5 134.5t63.5 91
t98.5 52t126.5 16.5t126.5 -16.5t98.5 -52t63.5 -91t22.5 -134.5v-12q0 -43 -5.5 -83t-23 -75t-50 -63t-86.5 -46v-27h111q10 0 16.5 -4t6.5 -16v-114q0 -12 -6.5 -16.5t-16.5 -4.5h-191q-21 0 -21 21v243q0 14 3.5 17t10.5 8q17 12 26 28.5t13.5 35.5t5 38.5t0.5 37.5v12
q0 72 -24 103t-80 31z" />
    <glyph glyph-name="uni03BC" unicode="&#x3bc;" horiz-adv-x="632" 
d="M577 48q0 -12 -6.5 -19.5t-28.5 -13.5q-35 -10 -90 -17t-133 -7q-38 0 -71 6v-169q0 -8 -6 -14t-14 -6h-153q-8 0 -14 6t-6 14v732q0 8 6.5 15t14.5 7h150q8 0 14.5 -7t6.5 -15v-346q0 -35 17.5 -51t53.5 -16q20 0 37 1t30 4v408q0 8 6 15t14 7h150q8 0 15 -7t7 -15v-512
v0z" />
    <glyph glyph-name="pi" unicode="&#x3c0;" horiz-adv-x="672" 
d="M596 433v-269q0 -9 0.5 -14.5t3.5 -7.5t10 -2.5t20 -0.5h11q10 0 10 -11v-123q0 -8 -3 -9.5t-8 -3.5q-4 -1 -15.5 -1.5t-25 -1t-26 -1t-18.5 -0.5q-68 0 -109.5 33t-41.5 113v299h-137v-413q0 -7 -2 -13.5t-12 -6.5h-162q-9 0 -12 5.5t-3 14.5v413h-40q-8 0 -11.5 2.5
t-3.5 12.5v119q0 10 3.5 13t11.5 3h600q8 0 11.5 -3t3.5 -13v-119q0 -10 -3.5 -12.5t-11.5 -2.5h-40z" />
    <glyph glyph-name="uni0401" unicode="&#x401;" horiz-adv-x="585" 
d="M532 23q0 -17 -20 -20q-29 -4 -76.5 -8t-120.5 -4q-48 0 -94 7.5t-82 31.5t-58 68t-22 117v314q0 72 22 116t58 68t82 32t94 8q73 0 120.5 -4t76.5 -8q20 -3 20 -20v-122q0 -8 -6 -14t-14 -6h-202q-27 0 -37.5 -10.5t-10.5 -39.5v-73h246q8 0 14 -6t6 -14v-118
q0 -8 -6 -14t-14 -6h-246v-83q0 -29 10.5 -39.5t37.5 -10.5h202q8 0 14 -6t6 -14v-122zM494 818q0 -8 -7.5 -14t-15.5 -6h-116q-8 0 -15 6t-7 14v98q0 8 7 14t15 6h116q8 0 15.5 -6t7.5 -14v-98zM260 818q0 -8 -7 -14t-15 -6h-116q-8 0 -15.5 6t-7.5 14v98q0 8 7.5 14
t15.5 6h116q8 0 15 -6t7 -14v-98z" />
    <glyph glyph-name="uni0402" unicode="&#x402;" horiz-adv-x="841" 
d="M570 596q0 -8 -6.5 -13.5t-14.5 -5.5h-149v-128q32 18 74 28t95 10q66 0 108.5 -17.5t66.5 -48.5t33.5 -72t9.5 -87v-260q0 -58 -13 -95.5t-36 -59.5t-56 -30.5t-72 -8.5q-21 0 -44 1.5t-47 5.5q-12 2 -16 7t-4 13v109q0 8 6 14t14 6h37q17 0 22 9.5t5 28.5v260
q0 40 -19.5 53t-57.5 13q-12 0 -26 -1.5t-28.5 -4.5t-28 -7t-23.5 -9v-286q0 -8 -6 -14t-14 -6h-163q-8 0 -14 6t-6 14v557h-152q-8 0 -14 5.5t-6 13.5v128q0 8 6 13.5t14 5.5h504q8 0 14.5 -5.5t6.5 -13.5v-128v0z" />
    <glyph glyph-name="uni0403" unicode="&#x403;" horiz-adv-x="558" 
d="M257 20q0 -8 -6 -14t-14 -6h-163q-8 0 -14 6t-6 14v508q0 72 22 116t58 68t82 32t94 8q73 0 120.5 -4t76.5 -8q20 -3 20 -20v-122q0 -8 -6 -14t-14 -6h-202q-27 0 -37.5 -10.5t-10.5 -39.5v-508zM528 934q0 -4 -4 -8l-126 -120q-6 -5 -9.5 -8t-14.5 -3h-129q-9 0 -9 7
q0 6 4 10l91 114q7 8 12 11.5t16 3.5h158q11 0 11 -7z" />
    <glyph glyph-name="uni0404" unicode="&#x404;" horiz-adv-x="628" 
d="M563 32q0 -10 -5 -14t-17 -8q-20 -7 -62.5 -12.5t-90.5 -5.5q-69 0 -131 18t-108.5 59.5t-74 108t-27.5 163.5v63q0 97 27.5 163.5t74 108t108.5 59.5t131 18q48 0 90.5 -5.5t62.5 -12.5q12 -4 17 -7.5t5 -14.5v-128q0 -19 -18 -19h-3q-31 3 -63.5 6t-70.5 3
q-23 0 -46 -3t-43.5 -13.5t-36 -31.5t-23.5 -56h249q8 0 14 -6t6 -14v-118q0 -8 -6 -14t-14 -6h-254q3 -49 18 -77.5t36.5 -43t47.5 -18.5t52 -4q38 0 70.5 3t63.5 6h3q18 0 18 -19v-128v0z" />
    <glyph glyph-name="uni0405" unicode="&#x405;" horiz-adv-x="607" 
d="M568 220q0 -42 -15.5 -83t-49 -73.5t-87.5 -52.5t-131 -20q-62 0 -112 7.5t-90 18.5q-8 2 -14.5 7t-6.5 13v123q0 10 5.5 15t13.5 5h2q16 -2 42 -4.5t55.5 -4.5t57.5 -4t48 -2q37 0 50 13.5t13 37.5q0 15 -9.5 25.5t-37.5 27.5l-144 85q-35 21 -58 44t-36.5 48t-19 52
t-5.5 56q0 41 12.5 77t42.5 63t80.5 43t126.5 16q30 0 63 -2t64.5 -6t58 -8.5t41.5 -8.5q7 -2 12.5 -6.5t5.5 -12.5v-125q0 -8 -5 -13.5t-13 -5.5h-2q-15 1 -42.5 3t-59.5 4.5t-65 4t-60 1.5q-28 0 -39 -9t-11 -25q0 -14 10 -24t42 -27l135 -72q73 -39 102.5 -88.5
t29.5 -112.5z" />
    <glyph glyph-name="uni0406" unicode="&#x406;" horiz-adv-x="334" 
d="M269 20q0 -8 -6 -14t-14 -6h-164q-8 0 -14 6t-6 14v704q0 8 6 13.5t14 5.5h164q8 0 14 -5.5t6 -13.5v-704v0z" />
    <glyph glyph-name="uni0407" unicode="&#x407;" horiz-adv-x="334" 
d="M269 20q0 -8 -6 -14t-14 -6h-164q-8 0 -14 6t-6 14v704q0 8 6 13.5t14 5.5h164q8 0 14 -5.5t6 -13.5v-704zM364 818q0 -8 -7.5 -14t-15.5 -6h-116q-8 0 -15 6t-7 14v98q0 8 7 14t15 6h116q8 0 15.5 -6t7.5 -14v-98zM130 818q0 -8 -7 -14t-15 -6h-116q-8 0 -15.5 6
t-7.5 14v98q0 8 7.5 14t15.5 6h116q8 0 15 -6t7 -14v-98z" />
    <glyph glyph-name="uni0408" unicode="&#x408;" horiz-adv-x="334" 
d="M269 2q0 -58 -13 -95.5t-36 -59.5t-56 -30.5t-72 -8.5q-21 0 -44 1.5t-47 5.5q-12 2 -16 7t-4 13v109q0 8 6 14t14 6h37q17 0 22 9.5t5 28.5v721q0 8 6.5 14t14.5 6h163q8 0 14 -6t6 -14v-721v0z" />
    <glyph glyph-name="uni0409" unicode="&#x409;" horiz-adv-x="1111" 
d="M346 576q-7 0 -8 -3.5l-3 -10.5l-106 -543q-2 -8 -7 -13.5t-13 -5.5h-173q-17 0 -17 16q0 2 0.5 2.5t0.5 2.5l134 602q8 37 26 60.5t43 36.5t56 18t67 5h333q8 0 14 -5.5t6 -13.5v-242q14 0 27 0.5t24 0.5q60 0 118.5 -9t104.5 -34t74.5 -70.5t28.5 -117.5v-30
q0 -72 -28.5 -117.5t-74.5 -70.5t-104.5 -34t-118.5 -9q-19 0 -45 0.5t-52.5 2t-51.5 4t-43 5.5t-30 7.5t-19.5 13t-10.5 22t-3 33.5v497h-149zM695 318v-162h82q59 0 81 20t22 52v18q0 32 -22 52t-81 20h-82z" />
    <glyph glyph-name="uni040A" unicode="&#x40a;" horiz-adv-x="1097" 
d="M681 482q17 1 30.5 1h24.5q60 0 118.5 -9t104.5 -34t74.5 -70.5t28.5 -117.5v-30q0 -72 -28.5 -117.5t-74.5 -70.5t-104.5 -34t-118.5 -9q-68 0 -128 2t-110 7q-8 1 -14 6.5t-6 13.5v272h-209v-272q0 -8 -6 -14t-14 -6h-163q-8 0 -14.5 6t-6.5 14v704q0 8 6.5 13.5
t14.5 5.5h163q8 0 14 -5.5t6 -13.5v-256h209v256q0 8 6 13.5t14 5.5h163q8 0 14 -5.5t6 -13.5v-242zM681 156h82q59 0 81 20t22 52v18q0 32 -22 52t-81 20h-82v-162z" />
    <glyph glyph-name="uni040B" unicode="&#x40b;" horiz-adv-x="841" 
d="M570 596q0 -8 -6.5 -13.5t-14.5 -5.5h-149v-128q32 18 74 28t95 10q66 0 108.5 -17.5t66.5 -48.5t33.5 -72t9.5 -87v-243q0 -8 -6 -14t-14 -6h-164q-8 0 -14 6t-6 14v243q0 40 -19.5 53t-57.5 13q-12 0 -26 -1.5t-28.5 -4.5t-28 -7t-23.5 -9v-286q0 -8 -6 -14t-14 -6
h-163q-8 0 -14 6t-6 14v557h-152q-8 0 -14 5.5t-6 13.5v128q0 8 6 13.5t14 5.5h504q8 0 14.5 -5.5t6.5 -13.5v-128v0z" />
    <glyph glyph-name="uni040C" unicode="&#x40c;" horiz-adv-x="713" 
d="M689 11q0 -11 -13 -11h-210q-9 0 -13 5t-8 12l-176 319v-316q0 -8 -6 -14t-14 -6h-163q-8 0 -14.5 6t-6.5 14v704q0 8 6.5 13.5t14.5 5.5h163q8 0 14 -5.5t6 -13.5v-317l192 320q4 7 9 11.5t13 4.5h192q14 0 14 -11q0 -6 -4 -11l-218 -344l219 -356q3 -5 3 -10zM582 933
q0 -4 -4 -8l-126 -120q-6 -5 -9.5 -8t-14.5 -3h-129q-9 0 -9 7q0 6 4 10l91 114q7 8 12 11.5t16 3.5h158q11 0 11 -7z" />
    <glyph glyph-name="uni040E" unicode="&#x40e;" horiz-adv-x="639" 
d="M598 743q27 0 19 -25l-162 -558q-12 -40 -29.5 -71.5t-46 -53t-70 -33t-100.5 -11.5q-15 0 -34 1.5t-38 4t-36 5.5t-27 7q-8 3 -15.5 7t-7.5 12v103q0 8 5 15t18 6q14 -1 31.5 -2t36.5 -2.5t37 -2.5t32 -1q21 0 32 5t16 27l8 35h-19q-17 0 -30.5 2t-25 11t-21.5 26.5
t-19 47.5l-130 421q-5 16 2.5 20t17.5 4h169q8 0 13 -6t7 -14l79 -309q4 -17 11 -17h8l79 327q5 19 21 19h169zM532 946q0 -1 -2 -7q-27 -70 -79 -106.5t-127 -36.5t-127 36.5t-79 106.5q-2 6 -2 7q0 6 9 6h118q9 0 11.5 -3.5t4.5 -9.5q8 -28 28 -37t37 -9t37 9t28 37
q2 6 4.5 9.5t11.5 3.5h118q9 0 9 -6z" />
    <glyph glyph-name="uni040F" unicode="&#x40f;" horiz-adv-x="746" 
d="M473 -101q0 -8 -6 -14t-14 -6h-164q-8 0 -14 6t-6 14v103q-72 7 -113 30.5t-61 55.5t-25 70.5t-5 75.5v489q0 8 6.5 14t14.5 6h163q8 0 14 -6t6 -14v-489q0 -33 16.5 -41.5t40.5 -8.5h95q24 0 40.5 8.5t16.5 41.5v489q0 8 6 14t14 6h163q8 0 14 -6t6 -14v-489
q0 -38 -5 -76.5t-26 -71t-62.5 -55.5t-114.5 -29v-103z" />
    <glyph glyph-name="uni0410" unicode="&#x410;" horiz-adv-x="692" 
d="M673 16q0 -16 -16 -16h-174q-8 0 -13 5.5t-7 13.5l-28 139h-178l-28 -139q-2 -8 -7 -13.5t-13 -5.5h-173q-17 0 -17 16q0 2 0.5 2.5t0.5 2.5l134 612q8 37 26 60.5t43 36.5t56 17.5t67 4.5t67 -4.5t56 -17.5t43 -36.5t26 -60.5l134 -612q0 -2 0.5 -3t0.5 -2zM357 572
l-3 10.5t-8 3.5t-8 -3.5l-3 -10.5l-49 -254h120z" />
    <glyph glyph-name="uni0411" unicode="&#x411;" horiz-adv-x="689" 
d="M570 743q8 0 14 -6t6 -14v-118q0 -8 -6 -14t-14 -6h-301v-103q14 0 27 0.5t24 0.5q60 0 118.5 -9t104.5 -34t74.5 -70.5t28.5 -117.5v-30q0 -72 -28.5 -117.5t-74.5 -70.5t-104.5 -34t-118.5 -9q-19 0 -45 0.5t-52.5 2t-51.5 4t-43 5.5t-30 7.5t-19.5 13t-10.5 22
t-3 33.5v645q0 8 6 13.5t14 5.5h485zM265 318v-162h82q59 0 81 20t22 52v18q0 32 -22 52t-81 20h-82z" />
    <glyph glyph-name="uni0412" unicode="&#x412;" horiz-adv-x="689" 
d="M646 222q0 -72 -28.5 -117.5t-74.5 -70.5t-104.5 -34t-118.5 -9q-19 0 -45 0.5t-52.5 2t-51.5 4t-43 5.5t-30 7.5t-19.5 13t-10.5 22t-3 33.5v587q0 40 13.5 55t48.5 20q16 3 40.5 5t51.5 3.5t53 2.5t45 1q74 0 134 -10t102.5 -34t65.5 -65.5t23 -104.5v-17
q0 -48 -21.5 -85.5t-55.5 -56.5q34 -20 57.5 -58.5t23.5 -86.5v-13zM446 524q0 29 -21.5 46.5t-80.5 17.5h-14.5t-25 -0.5t-25 -0.5h-14.5v-142h97q49 0 66.5 18.5t17.5 44.5v16zM450 237q0 30 -19 51t-69 21h-97v-153h82q59 0 81 20t22 52v9z" />
    <glyph glyph-name="uni0413" unicode="&#x413;" horiz-adv-x="557" 
d="M257 20q0 -8 -6 -14t-14 -6h-163q-8 0 -14 6t-6 14v508q0 72 22 116t58 68t82 32t94 8q73 0 120.5 -4t76.5 -8q20 -3 20 -20v-122q0 -8 -6 -14t-14 -6h-202q-27 0 -37.5 -10.5t-10.5 -39.5v-508z" />
    <glyph glyph-name="uni0414" unicode="&#x414;" horiz-adv-x="786" 
d="M90 160l109 473q9 37 26.5 60.5t42.5 36.5t56 17.5t67 4.5t67 -4.5t56 -17.5t42.5 -36.5t26.5 -60.5l109 -473h54q8 0 14 -6t6 -14v-241q0 -8 -6 -14t-14 -6h-138q-8 0 -14 6t-6 14v101h-390v-101q0 -8 -6 -14t-14 -6h-138q-8 0 -14 6t-6 14v241q0 8 6 14t14 6h50z
M296 160h189l-83 412l-3 10.5t-8 3.5t-8 -3.5l-3 -10.5z" />
    <glyph glyph-name="uni0415" unicode="&#x415;" horiz-adv-x="585" 
d="M532 23q0 -17 -20 -20q-29 -4 -76.5 -8t-120.5 -4q-48 0 -94 7.5t-82 31.5t-58 68t-22 117v314q0 72 22 116t58 68t82 32t94 8q73 0 120.5 -4t76.5 -8q20 -3 20 -20v-122q0 -8 -6 -14t-14 -6h-202q-27 0 -37.5 -10.5t-10.5 -39.5v-73h246q8 0 14 -6t6 -14v-118
q0 -8 -6 -14t-14 -6h-246v-83q0 -29 10.5 -39.5t37.5 -10.5h202q8 0 14 -6t6 -14v-122v0z" />
    <glyph glyph-name="uni0416" unicode="&#x416;" horiz-adv-x="1094" 
d="M1070 11q0 -11 -13 -11h-210q-9 0 -13 5t-8 12l-176 319v-316q0 -8 -6 -14t-14 -6h-163q-8 0 -14.5 6t-6.5 14v316l-176 -319q-4 -7 -8 -12t-13 -5h-210q-13 0 -13 11q0 5 3 10l219 356l-218 344q-4 5 -4 11q0 11 14 11h192q8 0 13 -4.5t9 -11.5l192 -320v317
q0 8 6.5 13.5t14.5 5.5h163q8 0 14 -5.5t6 -13.5v-317l192 320q4 7 9 11.5t13 4.5h192q14 0 14 -11q0 -6 -4 -11l-218 -344l219 -356q3 -5 3 -10z" />
    <glyph glyph-name="uni0417" unicode="&#x417;" horiz-adv-x="594" 
d="M554 216q0 -59 -19 -101t-54.5 -70t-86 -41t-113.5 -13q-31 0 -62.5 3t-61 7.5t-54.5 10.5t-43 13q-8 3 -14 7.5t-6 12.5v98q0 8 5 13.5t13 5.5h2q23 -2 50 -3.5t54.5 -3t54 -2.5t49.5 -1q46 0 65.5 17t19.5 47v16q0 14 -3 27t-11 22.5t-23.5 15.5t-40.5 6h-166
q-8 0 -14 6t-6 14v107q0 8 6 13.5t14 5.5h166q24 0 39 6.5t23.5 17t12 24t3.5 26.5v16q0 30 -19.5 41t-57.5 11q-52 0 -107 -3.5t-104 -7.5h-2q-8 0 -13.5 5.5t-5.5 13.5v98q0 8 6.5 12.5t14.5 7.5q18 7 41.5 13.5t51 11.5t57.5 8t61 3q63 0 114 -10.5t87 -34t55.5 -62
t19.5 -94.5v-14q0 -42 -22 -86t-69 -73q42 -22 67.5 -59t25.5 -88v-16v0z" />
    <glyph glyph-name="uni0418" unicode="&#x418;" horiz-adv-x="746" 
d="M65 723q0 8 6 14t14 6h150q8 0 14 -6t6 -14v-354q0 -6 1.5 -7.5t3.5 -1.5q4 0 9 9l203 345q8 14 17 21.5t23 7.5h132q15 0 26 -11t11 -26v-686q0 -8 -6.5 -14t-14.5 -6h-150q-8 0 -14 6t-6 14v341q0 9 -5 9t-10 -8l-197 -335q-16 -27 -42 -27h-134q-15 0 -26 11t-11 26
v686z" />
    <glyph glyph-name="uni0419" unicode="&#x419;" horiz-adv-x="746" 
d="M65 37v686q0 8 6 14t14 6h150q8 0 14 -6t6 -14v-354q0 -6 1.5 -7.5t3.5 -1.5q4 0 9 9l203 345q8 14 17 21.5t23 7.5h132q15 0 26 -11t11 -26v-686q0 -8 -6.5 -14t-14.5 -6h-150q-8 0 -14 6t-6 14v341q0 9 -5 9t-10 -8l-197 -335q-16 -27 -42 -27h-134q-15 0 -26 11
t-11 26zM585 941q0 -1 -2 -7q-27 -70 -79 -106.5t-127 -36.5t-127 36.5t-79 106.5q-2 6 -2 7q0 6 9 6h118q9 0 11.5 -3.5t4.5 -9.5q8 -28 28 -37t37 -9t37 9t28 37q2 6 4.5 9.5t11.5 3.5h118q9 0 9 -6z" />
    <glyph glyph-name="uni041A" unicode="&#x41a;" horiz-adv-x="704" 
d="M689 11q0 -11 -13 -11h-210q-9 0 -13 5t-8 12l-176 319v-316q0 -8 -6 -14t-14 -6h-163q-8 0 -14.5 6t-6.5 14v704q0 8 6.5 13.5t14.5 5.5h163q8 0 14 -5.5t6 -13.5v-317l192 320q4 7 9 11.5t13 4.5h192q14 0 14 -11q0 -6 -4 -11l-218 -344l219 -356q3 -5 3 -10z" />
    <glyph glyph-name="uni041B" unicode="&#x41b;" horiz-adv-x="692" 
d="M357 572l-3 10.5t-8 3.5t-8 -3.5l-3 -10.5l-106 -553q-2 -8 -7 -13.5t-13 -5.5h-173q-17 0 -17 16q0 2 0.5 2.5t0.5 2.5l134 612q8 37 26 60.5t43 36.5t56 17.5t67 4.5t67 -4.5t56 -17.5t43 -36.5t26 -60.5l134 -612q0 -2 0.5 -3t0.5 -2q0 -16 -16 -16h-174q-8 0 -13 5.5
t-7 13.5z" />
    <glyph glyph-name="uni041C" unicode="&#x41c;" horiz-adv-x="841" 
d="M776 12q0 -8 -5.5 -10t-11.5 -2h-164q-6 0 -10.5 6t-4.5 14v367q0 10 -3 10q-1 0 -3 -2h-1q-2 0 -4.5 -5t-4.5 -8l-80 -133q-12 -19 -29 -19h-69q-17 0 -29 19l-82 137q-2 3 -3.5 6t-3.5 3h-1q-2 2 -3 2q-4 0 -4 -10v-367q0 -8 -4 -14t-10 -6h-165q-6 0 -11 2t-5 10v694
q0 15 11 26t26 11h111q19 0 31 -8t20 -22l145 -253q7 -12 11 -12q5 0 12 12l145 253q8 14 20 22t31 8h111q15 0 26 -11t11 -26v-694v0z" />
    <glyph glyph-name="uni041D" unicode="&#x41d;" horiz-adv-x="746" 
d="M681 20q0 -8 -6 -14t-14 -6h-163q-8 0 -14 6t-6 14v272h-209v-272q0 -8 -6 -14t-14 -6h-163q-8 0 -14.5 6t-6.5 14v704q0 8 6.5 13.5t14.5 5.5h163q8 0 14 -5.5t6 -13.5v-256h209v256q0 8 6 13.5t14 5.5h163q8 0 14 -5.5t6 -13.5v-704v0z" />
    <glyph glyph-name="uni041E" unicode="&#x41e;" horiz-adv-x="708" 
d="M661 320q0 -92 -24.5 -154.5t-66.5 -101.5t-98 -56t-118 -17t-118 17t-98 56t-66.5 101.5t-24.5 154.5v103q0 91 24.5 154t66.5 102t98 56.5t118 17.5t118 -17.5t98 -56.5t66.5 -102t24.5 -154v-103zM455 423q0 81 -24 116t-77 35t-77 -35t-24 -116v-103q0 -81 24 -115.5
t77 -34.5t77 34.5t24 115.5v103z" />
    <glyph glyph-name="uni041F" unicode="&#x41f;" horiz-adv-x="746" 
d="M681 20q0 -8 -6 -14t-14 -6h-163q-8 0 -14 6t-6 14v489q0 33 -16.5 41.5t-40.5 8.5h-95q-24 0 -40.5 -8.5t-16.5 -41.5v-489q0 -8 -6 -14t-14 -6h-163q-8 0 -14.5 6t-6.5 14v489q0 40 6 82t32 75.5t78.5 55t144.5 21.5h94q92 0 144.5 -21.5t78.5 -55t32 -75.5t6 -82v-489
z" />
    <glyph glyph-name="uni0420" unicode="&#x420;" horiz-adv-x="677" 
d="M646 494q0 -74 -28 -122.5t-72.5 -77.5t-99.5 -40.5t-109 -11.5q-17 0 -34 1t-37 2v-225q0 -8 -6 -14t-14 -6h-160q-8 0 -14.5 5t-6.5 13v656q0 36 13 48.5t45 17.5q19 3 44 5.5t53.5 4t57.5 2.5t56 1q56 0 111.5 -11t100 -39.5t72.5 -77t28 -123.5v-8zM444 502
q0 44 -28 62.5t-79 18.5h-13.5t-22.5 -0.5t-22.5 -0.5h-12.5v-170q2 0 12.5 -0.5t22.5 -0.5h23h13q107 0 107 83v8z" />
    <glyph glyph-name="uni0421" unicode="&#x421;" horiz-adv-x="555" 
d="M517 31q0 -10 -5 -14t-17 -8q-20 -7 -56 -12.5t-84 -5.5q-69 0 -126 19t-97.5 59.5t-62.5 102.5t-22 148v103q0 86 22 148t62.5 102.5t97.5 59.5t126 19q48 0 84 -5.5t56 -12.5q12 -4 17 -7.5t5 -14.5v-128q0 -19 -18 -19h-3q-31 3 -64 6t-76 3q-20 0 -39 -5.5t-33 -22
t-22.5 -46t-8.5 -77.5v-103q0 -47 8.5 -76.5t22.5 -46t32.5 -22.5t39.5 -6q43 0 76 3t64 6h3q18 0 18 -19v-128v0z" />
    <glyph glyph-name="uni0422" unicode="&#x422;" horiz-adv-x="594" 
d="M570 596q0 -8 -6.5 -13.5t-14.5 -5.5h-149v-557q0 -8 -6 -14t-14 -6h-163q-8 0 -14 6t-6 14v557h-152q-8 0 -14 5.5t-6 13.5v128q0 8 6 13.5t14 5.5h504q8 0 14.5 -5.5t6.5 -13.5v-128v0z" />
    <glyph glyph-name="uni0423" unicode="&#x423;" horiz-adv-x="639" 
d="M598 743q27 0 19 -25l-162 -558q-12 -40 -29.5 -71.5t-46 -53t-70 -33t-100.5 -11.5q-15 0 -34 1.5t-38 4t-36 5.5t-27 7q-8 3 -15.5 7t-7.5 12v103q0 8 5 15t18 6q14 -1 31.5 -2t36.5 -2.5t37 -2.5t32 -1q21 0 32 5t16 27l8 35h-19q-17 0 -30.5 2t-25 11t-21.5 26.5
t-19 47.5l-130 421q-5 16 2.5 20t17.5 4h169q8 0 13 -6t7 -14l79 -309q4 -17 11 -17h8l79 327q5 19 21 19h169z" />
    <glyph glyph-name="uni0424" unicode="&#x424;" horiz-adv-x="1022" 
d="M991 385q0 -74 -28 -122.5t-70.5 -77.5t-94 -40.5t-98.5 -11.5q-30 0 -49.5 1t-39.5 2v-116q0 -8 -6 -14t-14 -6h-160q-8 0 -14.5 5t-6.5 13v118q-20 -1 -39 -2t-48 -1q-48 0 -99.5 11.5t-94 40.5t-70.5 77.5t-28 122.5v8q0 75 28 123.5t72.5 77t100 39.5t111.5 11h33
t34 -1v91q0 8 6.5 13t14.5 5h160q8 0 14 -6t6 -14v-90q17 1 34 1.5t34 0.5q56 0 111.5 -11t100 -39.5t72.5 -77t28 -123.5v-8zM789 393q0 44 -28 62.5t-79 18.5h-13.5t-22.5 -0.5t-22.5 -0.5h-12.5v-170q2 0 12.5 -0.5t22.5 -0.5h23h13q107 0 107 83v8zM340 302h12h22
t22.5 0.5t13.5 0.5v170h-13.5t-22 0.5t-21.5 0.5h-13q-51 0 -79 -18.5t-28 -62.5v-8q0 -83 107 -83z" />
    <glyph glyph-name="uni0425" unicode="&#x425;" horiz-adv-x="729" 
d="M699 11q0 -11 -13 -11h-203q-9 0 -14.5 5t-10.5 13l-108 178l-96 -176q-5 -8 -10.5 -14t-13.5 -6h-187q-6 0 -9.5 3.5t-3.5 8.5q0 2 2 8l204 368l-202 336q-2 4 -2 7q0 12 13 12h204q8 0 13.5 -6t10.5 -13l103 -170l88 170q4 7 10 13t14 6h188q13 0 13 -12q0 -3 -2 -7
l-201 -354l210 -350q3 -5 3 -9z" />
    <glyph glyph-name="uni0426" unicode="&#x426;" horiz-adv-x="774" 
d="M764 -101q0 -8 -6 -14t-14 -6h-154q-8 0 -14 6t-6 14v124q-28 -11 -65 -17t-85 -6h-94q-62 0 -105 10t-72 27t-45.5 39.5t-25.5 48.5t-11 54t-2 55v489q0 8 6.5 14t14.5 6h163q8 0 14 -6t6 -14v-489q0 -33 16.5 -41.5t40.5 -8.5h95q24 0 40.5 8.5t16.5 41.5v489q0 8 6 14
t14 6h163q8 0 14 -6t6 -14v-489q0 -32 -3 -62h66q8 0 14 -5.5t6 -13.5v-254z" />
    <glyph glyph-name="uni0427" unicode="&#x427;" horiz-adv-x="731" 
d="M463 264q-29 -17 -75.5 -31t-99.5 -14q-76 0 -122.5 20t-72 53t-34.5 76.5t-9 90.5v263q0 8 6.5 14.5t14.5 6.5h164q8 0 14 -6.5t6 -14.5v-263q0 -26 6.5 -41t18.5 -22t28.5 -8.5t36.5 -1.5q28 0 60 9t58 23v305q0 8 6 14t14 6h163q8 0 14 -6t6 -14v-703q0 -8 -6 -14
t-14 -6h-163q-8 0 -14 6t-6 14v244z" />
    <glyph glyph-name="uni0428" unicode="&#x428;" horiz-adv-x="1019" 
d="M408 184v539q0 8 6 14t14 6h163q8 0 14 -6t6 -14v-539h83q24 0 40.5 8.5t16.5 41.5v489q0 8 6 14t14 6h163q8 0 14 -6t6 -14v-489q0 -27 -2 -55t-11 -54t-25.5 -48.5t-45.5 -39.5t-72.5 -27t-104.5 -10h-367q-62 0 -105 10t-72 27t-45.5 39.5t-25.5 48.5t-11 54t-2 55
v489q0 8 6.5 14t14.5 6h163q8 0 14 -6t6 -14v-489q0 -33 16.5 -41.5t40.5 -8.5h82z" />
    <glyph glyph-name="uni0429" unicode="&#x429;" horiz-adv-x="1047" 
d="M1037 -101q0 -8 -6 -14t-14 -6h-164q-8 0 -14 6t-6 14v121q-27 -10 -61 -15t-79 -5h-367q-62 0 -105 10t-72 27t-45.5 39.5t-25.5 48.5t-11 54t-2 55v489q0 8 6.5 14t14.5 6h163q8 0 14 -6t6 -14v-489q0 -33 16.5 -41.5t40.5 -8.5h82v539q0 8 6 14t14 6h163q8 0 14 -6
t6 -14v-539h83q24 0 40.5 8.5t16.5 41.5v489q0 8 6 14t14 6h163q8 0 14 -6t6 -14v-489q0 -32 -3 -62h66q8 0 14 -5.5t6 -13.5v-254z" />
    <glyph glyph-name="uni042A" unicode="&#x42a;" horiz-adv-x="709" 
d="M277 743q8 0 14 -5.5t6 -13.5v-242q14 0 27 0.5t24 0.5q60 0 118.5 -9t104.5 -34t74.5 -70.5t28.5 -117.5v-30q0 -72 -28.5 -117.5t-74.5 -70.5t-104.5 -34t-118.5 -9q-19 0 -45 0.5t-52.5 2t-51.5 4t-43 5.5t-30 7.5t-19.5 13t-10.5 22t-3 33.5v498h-73q-8 0 -14 6
t-6 14v126q0 8 6 14t14 6h257zM293 318v-162h82q59 0 81 20t22 52v18q0 32 -22 52t-81 20h-82z" />
    <glyph glyph-name="uni042B" unicode="&#x42b;" horiz-adv-x="973" 
d="M65 724q0 8 6 13.5t14 5.5h164q8 0 14 -5.5t6 -13.5v-242q14 0 27 0.5t24 0.5q60 0 118.5 -9t104.5 -34t74.5 -70.5t28.5 -117.5v-30q0 -72 -28.5 -117.5t-74.5 -70.5t-104.5 -34t-118.5 -9q-19 0 -45 0.5t-52.5 2t-51.5 4t-43 5.5t-30 7.5t-19.5 13t-10.5 22t-3 33.5
v645zM265 318v-162h82q59 0 81 20t22 52v18q0 32 -22 52t-81 20h-82zM908 20q0 -8 -6 -14t-14 -6h-164q-8 0 -14 6t-6 14v704q0 8 6 13.5t14 5.5h164q8 0 14 -5.5t6 -13.5v-704z" />
    <glyph glyph-name="uni042C" unicode="&#x42c;" horiz-adv-x="681" 
d="M65 724q0 8 6 13.5t14 5.5h164q8 0 14 -5.5t6 -13.5v-242q14 0 27 0.5t24 0.5q60 0 118.5 -9t104.5 -34t74.5 -70.5t28.5 -117.5v-30q0 -72 -28.5 -117.5t-74.5 -70.5t-104.5 -34t-118.5 -9q-19 0 -45 0.5t-52.5 2t-51.5 4t-43 5.5t-30 7.5t-19.5 13t-10.5 22t-3 33.5
v645zM265 318v-162h82q59 0 81 20t22 52v18q0 32 -22 52t-81 20h-82z" />
    <glyph glyph-name="uni042D" unicode="&#x42d;" horiz-adv-x="618" 
d="M55 160q0 19 18 19h3q31 -3 63.5 -6t70.5 -3q26 0 52 4t47.5 18.5t36.5 43t18 77.5h-254q-8 0 -14 6t-6 14v118q0 8 6 14t14 6h249q-8 35 -23.5 56t-36 31.5t-43.5 13.5t-46 3q-38 0 -70.5 -3t-63.5 -6h-3q-18 0 -18 19v128q0 11 5 14.5t17 7.5q20 7 62.5 12.5t90.5 5.5
q69 0 131 -18t108.5 -59.5t74 -108t27.5 -163.5v-63q0 -97 -27.5 -163.5t-74 -108t-108.5 -59.5t-131 -18q-48 0 -90.5 5.5t-62.5 12.5q-12 4 -17 8t-5 14v128z" />
    <glyph glyph-name="uni042E" unicode="&#x42e;" horiz-adv-x="997" 
d="M269 20q0 -8 -6 -14t-14 -6h-164q-8 0 -14 6t-6 14v704q0 8 6 13.5t14 5.5h164q8 0 14 -5.5t6 -13.5v-274h68q4 84 29.5 141.5t67 93.5t95.5 52t114 16q62 0 118 -17.5t98 -56.5t66.5 -102t24.5 -154v-103q0 -92 -24.5 -154.5t-66.5 -101.5t-98 -56t-118 -17
q-59 0 -112 15t-94.5 49.5t-68 90t-31.5 136.5h-68v-262zM744 423q0 81 -24 116t-77 35t-77 -35t-24 -116v-103q0 -81 24 -115.5t77 -34.5t77 34.5t24 115.5v103z" />
    <glyph glyph-name="uni042F" unicode="&#x42f;" horiz-adv-x="693" 
d="M20 15q0 5 3 11l145 272q-24 10 -46 27t-39 41.5t-27 56.5t-10 72v16q0 69 22.5 115t64 74.5t99 40.5t127.5 12q27 0 57.5 -1t59.5 -3t54 -4.5t40 -4.5q32 -5 45 -17.5t13 -48.5v-654q0 -8 -6.5 -14t-14.5 -6h-162q-8 0 -14 6t-6 14v245q-8 0 -26 -0.5t-26 -0.5l-7 -4
l-125 -240q-4 -8 -8 -14t-12 -6h-184q-17 0 -17 15zM248 494q0 -35 23 -54.5t81 -19.5h13h24t23.5 0.5t12.5 0.5v159q-2 0 -13.5 0.5t-24.5 0.5t-24.5 0.5t-14.5 0.5q-100 0 -100 -71v-17z" />
    <glyph glyph-name="uni0430" unicode="&#x430;" horiz-adv-x="575" 
d="M525 20q0 -8 -6 -14t-14 -6h-139q-8 0 -14 6t-6 14v21q-29 -21 -65 -35.5t-78 -14.5q-30 0 -60 9t-55 30t-40.5 55t-15.5 85v12q0 90 66.5 126.5t191.5 36.5h43v29q0 18 -5.5 29.5t-14.5 18t-21 8.5t-25 2q-48 0 -93.5 -1.5t-80.5 -5.5h-3q-19 0 -19 20v97q0 17 20 24
q12 4 33.5 8t46.5 7.5t52 6t51 2.5q54 0 100 -10.5t79.5 -36t52.5 -67t19 -102.5v-354zM339 241h-49q-38 0 -54 -13t-16 -45v-10q0 -26 15 -35t36 -9q18 0 36.5 4.5t31.5 10.5v97z" />
    <glyph glyph-name="uni0431" unicode="&#x431;" horiz-adv-x="605" 
d="M565 262q0 -133 -68 -202t-194 -69t-194.5 69t-68.5 202v45q0 59 4.5 119.5t25 112.5t63 91t118.5 55l51 11q51 11 73.5 29t25.5 35q1 13 15 13h120q13 0 12 -13q-2 -32 -11 -60.5t-27 -52.5t-47 -41.5t-72 -26.5l-67 -14q-22 -5 -39.5 -11t-31.5 -13q33 9 69 9
q125 0 184 -62t59 -188v-38zM374 284q0 60 -18 85t-53 25t-53.5 -25t-18.5 -85v-22q0 -60 18.5 -85.5t53.5 -25.5t53 25.5t18 85.5v22z" />
    <glyph glyph-name="uni0432" unicode="&#x432;" horiz-adv-x="616" 
d="M586 174q0 -57 -21.5 -92t-59.5 -55t-90.5 -27t-114.5 -7q-16 0 -42.5 0.5t-54.5 1.5t-54 3t-41 4q-30 5 -41.5 16.5t-11.5 43.5v459q0 32 11.5 43t40.5 16q13 2 39 3.5t54.5 3t55 2.5t42.5 1q62 0 114.5 -7.5t90 -27t58.5 -52t21 -81.5v-13q0 -38 -18 -67.5t-47 -43.5
q29 -16 49 -46t20 -68v-10zM397 410q0 23 -19.5 35t-69.5 12h-64v-106h79q42 0 58 13t16 34v12zM400 186q0 23 -17.5 38t-59.5 15h-79v-114h66q50 0 70 14t20 40v7z" />
    <glyph glyph-name="uni0433" unicode="&#x433;" horiz-adv-x="422" 
d="M386 582q11 0 16 -6.5t5 -14.5v-128q0 -8 -5 -14t-16 -6h-87q-32 0 -42 -12.5t-10 -41.5v-337q0 -8 -6.5 -15t-15.5 -7h-150q-9 0 -14.5 7t-5.5 15v336q0 52 8 94t33 70.5t70.5 44t119.5 15.5h100z" />
    <glyph glyph-name="uni0434" unicode="&#x434;" horiz-adv-x="698" 
d="M83 157l76 339q6 29 21 47t38.5 28.5t55.5 14t73 3.5q40 0 72.5 -3.5t56 -14t38.5 -28.5t21 -47l76 -339h52q8 0 14 -6t6 -14v-238q0 -8 -6 -14t-14 -6h-135q-8 0 -14 6t-6 14v101h-318v-101q0 -8 -6 -14t-14 -6h-135q-8 0 -14 6t-6 14v238q0 8 6 14t14 6h48zM347 459
q-7 0 -9 -11l-61 -291h140l-61 291q-2 11 -9 11z" />
    <glyph glyph-name="uni0435" unicode="&#x435;" horiz-adv-x="602" 
d="M562 259q0 -10 -6 -16t-15 -6h-311v-2q0 -40 20 -63t75 -23q20 0 47 0.5t54 2t51 2.5t38 3h4q18 0 18 -17v-90q0 -12 -4 -18t-16 -10q-48 -16 -101 -23.5t-116 -7.5q-51 0 -98 14t-83 45.5t-57.5 81t-21.5 121.5v66q0 132 71.5 202t194.5 70q66 0 114 -20t79.5 -56
t47 -86t15.5 -110v-60zM378 346q0 45 -18 70.5t-56 25.5q-36 0 -55 -25.5t-19 -70.5v-3h148v3z" />
    <glyph glyph-name="uni0436" unicode="&#x436;" horiz-adv-x="952" 
d="M380 562q0 8 7 14t15 6h150q8 0 14 -6t6 -14v-227l137 229q7 12 14 15t15 3h173q14 0 14 -12q0 -5 -3 -9l-173 -259l177 -280q2 -3 2 -8t-3.5 -9.5t-9.5 -4.5h-185q-19 0 -31 22l-127 228v-228q0 -8 -6 -15t-14 -7h-150q-8 0 -15 7t-7 15v228l-127 -228q-12 -22 -31 -22
h-185q-6 0 -9.5 4.5t-3.5 9.5t2 8l177 280l-173 259q-3 4 -3 9q0 12 14 12h173q8 0 15 -3t14 -15l137 -229v227v0z" />
    <glyph glyph-name="uni0437" unicode="&#x437;" horiz-adv-x="520" 
d="M424 292q39 -23 52.5 -55t13.5 -64v-11q0 -89 -59.5 -128.5t-180.5 -39.5q-71 0 -122 9t-81 20q-6 2 -11.5 5.5t-5.5 9.5v92q0 8 3 12t14 3q42 -3 88 -6t91 -3q32 0 48.5 8.5t16.5 31.5v7q0 21 -13 35t-53 14h-140q-8 0 -12.5 4.5t-4.5 10.5v90q0 6 4.5 10.5t12.5 4.5
h140q40 0 53 14t13 35v7q0 23 -16.5 31.5t-48.5 8.5q-45 0 -91 -3t-88 -6q-11 -1 -14 3t-3 12v92q0 6 5.5 9.5t11.5 5.5q30 11 81 20t122 9q121 0 180.5 -39.5t59.5 -128.5v-11q0 -32 -13.5 -64t-52.5 -55z" />
    <glyph glyph-name="uni0438" unicode="&#x438;" horiz-adv-x="630" 
d="M55 566q0 16 16 16h147q7 0 12 -4.5t5 -11.5v-242q0 -7 4 -7t8 7l151 235q7 11 14.5 17t19.5 6h112q13 0 22 -9t9 -20v-537q0 -7 -5 -11.5t-13 -4.5h-146q-17 0 -17 16v232q0 7 -5 7t-8 -7l-146 -227q-14 -21 -36 -21h-113q-13 0 -22 8.5t-9 20.5v537z" />
    <glyph glyph-name="uni0439" unicode="&#x439;" horiz-adv-x="630" 
d="M55 29v537q0 16 16 16h147q7 0 12 -4.5t5 -11.5v-242q0 -7 4 -7t8 7l151 235q7 11 14.5 17t19.5 6h112q13 0 22 -9t9 -20v-537q0 -7 -5 -11.5t-13 -4.5h-146q-17 0 -17 16v232q0 7 -5 7t-8 -7l-146 -227q-14 -21 -36 -21h-113q-13 0 -22 8.5t-9 20.5zM526 773q0 -1 -2 -7
q-27 -70 -79 -106.5t-127 -36.5t-127 36.5t-79 106.5q-2 6 -2 7q0 6 9 6h118q9 0 11.5 -3.5t4.5 -9.5q8 -28 28 -37t37 -9t37 9t28 37q2 6 4.5 9.5t11.5 3.5h118q9 0 9 -6z" />
    <glyph glyph-name="uni043A" unicode="&#x43a;" horiz-adv-x="627" 
d="M603 14q0 -5 -3.5 -9.5t-9.5 -4.5h-185q-19 0 -31 22l-127 228v-228q0 -8 -6 -15t-14 -7h-150q-8 0 -15 7t-7 15v540q0 8 7 14t15 6h150q8 0 14 -6t6 -14v-227l137 229q7 12 14 15t15 3h173q14 0 14 -12q0 -5 -3 -9l-173 -259l177 -280q2 -3 2 -8z" />
    <glyph glyph-name="uni043B" unicode="&#x43b;" horiz-adv-x="616" 
d="M308 459q-7 0 -9 -11l-86 -421q-4 -17 -9.5 -22t-16.5 -5h-155q-22 0 -15 28l103 468q6 29 21 47t38.5 28.5t55.5 14t73 3.5q40 0 72.5 -3.5t56 -14t38.5 -28.5t21 -47l103 -468q7 -28 -15 -28h-155q-11 0 -16.5 5t-9.5 22l-86 421q-2 11 -9 11z" />
    <glyph glyph-name="uni043C" unicode="&#x43c;" horiz-adv-x="744" 
d="M689 22q0 -8 -5.5 -15t-14.5 -7h-140q-9 0 -15.5 7t-6.5 15v246q0 10 -5 9t-7 -4l-69 -107q-11 -15 -25 -15h-58q-15 0 -24 15l-70 107q-2 3 -7 4t-5 -9v-246q0 -8 -5.5 -15t-14.5 -7h-140q-9 0 -15.5 7t-6.5 15v538q0 22 24 22h118q29 0 43 -24l123 -198q5 -9 9 -9
q5 0 10 9l123 198q14 24 43 24h116q25 0 25 -22v-538z" />
    <glyph glyph-name="uni043D" unicode="&#x43d;" horiz-adv-x="631" 
d="M576 22q0 -8 -5.5 -15t-14.5 -7h-150q-9 0 -15.5 7t-6.5 15v197h-137v-197q0 -8 -5.5 -15t-14.5 -7h-150q-9 0 -15.5 7t-6.5 15v538q0 8 6.5 15t15.5 7h150q9 0 14.5 -7t5.5 -15v-184h137v184q0 8 6.5 15t15.5 7h150q9 0 14.5 -7t5.5 -15v-538z" />
    <glyph glyph-name="uni043E" unicode="&#x43e;" horiz-adv-x="605" 
d="M565 262q0 -133 -68 -202t-194 -69t-194.5 69t-68.5 202v58q0 133 68.5 202t194.5 69t194 -69t68 -202v-58zM374 320q0 60 -18 85t-53 25t-53.5 -25t-18.5 -85v-58q0 -60 18.5 -85.5t53.5 -25.5t53 25.5t18 85.5v58z" />
    <glyph glyph-name="uni043F" unicode="&#x43f;" horiz-adv-x="631" 
d="M345 582q74 0 119.5 -15.5t70 -44t33 -70.5t8.5 -94v-336q0 -8 -5.5 -15t-14.5 -7h-150q-9 0 -15.5 7t-6.5 15v337q0 29 -10 41.5t-42 12.5h-33q-32 0 -42 -12.5t-10 -41.5v-337q0 -8 -6.5 -15t-15.5 -7h-150q-9 0 -14.5 7t-5.5 15v336q0 52 8 94t33 70.5t70.5 44
t119.5 15.5h59z" />
    <glyph glyph-name="uni0440" unicode="&#x440;" horiz-adv-x="616" 
d="M578 252q0 -60 -16 -108t-49 -82t-82.5 -52.5t-115.5 -18.5q-12 0 -32 2t-36 4v-168q0 -8 -6 -14.5t-14 -6.5h-150q-8 0 -15 6.5t-7 14.5v705q0 13 6.5 20t29.5 12q39 8 97.5 16.5t126.5 8.5q124 0 193.5 -66.5t69.5 -194.5v-78zM386 330q0 45 -14.5 73.5t-56.5 28.5
q-22 0 -38 -1t-30 -3v-274q15 -2 32.5 -3.5t35.5 -1.5q42 0 56.5 29t14.5 74v78z" />
    <glyph glyph-name="uni0441" unicode="&#x441;" horiz-adv-x="474" 
d="M436 28q0 -10 -5 -14.5t-15 -6.5q-26 -6 -59 -11t-78 -5q-115 0 -177 69t-62 193v75q0 123 62 193t177 70q45 0 80.5 -5.5t56.5 -10.5q10 -2 15 -6.5t5 -14.5v-113q0 -8 -5.5 -13.5t-13.5 -5.5h-2q-26 2 -52 4.5t-63 2.5q-32 0 -50 -22.5t-18 -78.5v-75q0 -56 18 -78
t50 -22q37 0 63 2l52 4h2q8 0 13.5 -5.5t5.5 -13.5v-112v0z" />
    <glyph glyph-name="uni0442" unicode="&#x442;" horiz-adv-x="570" 
d="M381 415v-393q0 -8 -5.5 -15t-14.5 -7h-150q-9 0 -15.5 7t-6.5 15v393h-147q-8 0 -15 6.5t-7 15.5v125q0 9 7 14.5t15 5.5h486q8 0 15 -5.5t7 -14.5v-125q0 -9 -7 -15.5t-15 -6.5h-147z" />
    <glyph glyph-name="uni0443" unicode="&#x443;" horiz-adv-x="621" 
d="M604 564q0 -1 -0.5 -2t-0.5 -2l-170 -594q-11 -40 -27 -71.5t-42 -53t-65.5 -33t-98.5 -11.5q-15 0 -34 1.5t-38 4t-36 5.5t-27 7q-8 3 -15.5 7t-7.5 12v97q0 8 6.5 14.5t15.5 6.5h1q14 -1 31.5 -2t36.5 -2.5t37 -2.5t32 -1q21 0 35 8t19 30l8 33h-13q-17 0 -31 2.5
t-26 13t-22.5 31t-21.5 57.5l-132 441q-1 2 -1 7q0 15 22 15h163q8 0 13 -6t7 -14l79 -344q4 -17 11 -17h8l79 362q3 19 21 19h163q8 0 14.5 -5t6.5 -13z" />
    <glyph glyph-name="uni0444" unicode="&#x444;" horiz-adv-x="930" 
d="M892 252q0 -60 -16 -108t-49 -82t-82.5 -52.5t-115.5 -18.5q-12 0 -32 2t-36 4v-168q0 -8 -6 -14.5t-14 -6.5h-150q-8 0 -15 6.5t-7 14.5v168q-16 -2 -36 -4t-32 -2q-66 0 -115.5 18.5t-82.5 52.5t-49 82t-16 108v78q0 128 69.5 194.5t193.5 66.5q34 0 67 -3v165
q0 8 7 14t15 6h151q8 0 14 -6t6 -14v-165q33 3 68 3q124 0 193.5 -66.5t69.5 -194.5v-78zM700 330q0 45 -14.5 73.5t-56.5 28.5q-22 0 -38 -1t-30 -3v-274q15 -2 32.5 -3.5t35.5 -1.5q42 0 56.5 29t14.5 74v78zM230 252q0 -45 14.5 -74t56.5 -29q18 0 35.5 1.5t32.5 3.5v274
q-14 2 -30 3t-38 1q-42 0 -56.5 -28.5t-14.5 -73.5v-78z" />
    <glyph glyph-name="uni0445" unicode="&#x445;" horiz-adv-x="647" 
d="M619 15q0 -6 -4.5 -10.5t-9.5 -4.5h-188q-8 0 -13 6.5t-11 15.5l-85 134l-78 -135q-11 -21 -25 -21h-164q-12 0 -12 13q0 4 2 8l171 285l-170 255q-2 4 -2 7q0 5 4 9.5t9 4.5h185q8 0 14.5 -6t11.5 -15l77 -121l69 121q11 21 25 21h166q12 0 12 -13q0 -4 -2 -8l-164 -272
l180 -267q2 -2 2 -7z" />
    <glyph glyph-name="uni0446" unicode="&#x446;" horiz-adv-x="659" 
d="M286 0q-74 0 -119.5 15.5t-70.5 44t-33 70t-8 94.5v336q0 8 5.5 15t14.5 7h150q9 0 15.5 -7t6.5 -15v-337q0 -29 10 -41.5t42 -12.5h33q32 0 42 12.5t10 41.5v337q0 8 6.5 15t15.5 7h150q9 0 14.5 -7t5.5 -15v-336q0 -19 -1 -36t-3 -33h50q8 0 15 -6.5t7 -14.5v-233
q0 -8 -7 -15t-15 -7h-149q-8 0 -15 7t-7 15v110q-22 -5 -48 -8t-58 -3h-59z" />
    <glyph glyph-name="uni0447" unicode="&#x447;" horiz-adv-x="605" 
d="M30 561q0 8 6.5 14.5t14.5 6.5h151q8 0 14 -6.5t6 -14.5v-164q0 -42 10 -57t35 -15q14 0 40 5.5t53 19.5v211q0 8 6 14.5t14 6.5h149q8 0 14.5 -6.5t6.5 -14.5v-541q0 -8 -6 -14t-14 -6h-150q-8 0 -14 6t-6 14v199q-38 -25 -76.5 -34t-76.5 -9q-54 0 -88.5 19t-54 49.5
t-27 69t-7.5 77.5v170v0z" />
    <glyph glyph-name="uni0448" unicode="&#x448;" horiz-adv-x="900" 
d="M601 169q32 0 42 12.5t10 41.5v337q0 8 6.5 15t15.5 7h150q9 0 14.5 -7t5.5 -15v-336q0 -53 -8.5 -94.5t-33 -70t-70 -44t-119.5 -15.5h-328q-74 0 -119.5 15.5t-70.5 44t-33 70t-8 94.5v336q0 8 5.5 15t14.5 7h150q9 0 15.5 -7t6.5 -15v-337q0 -29 10 -41.5t42 -12.5h55
v391q0 8 6.5 15t15.5 7h150q9 0 14.5 -7t5.5 -15v-391h55z" />
    <glyph glyph-name="uni0449" unicode="&#x449;" horiz-adv-x="919" 
d="M909 -99q0 -8 -7 -15t-15 -7h-149q-8 0 -15 7t-7 15v109q-40 -10 -102 -10h-328q-74 0 -119.5 15.5t-70.5 44t-33 70t-8 94.5v336q0 8 5.5 15t14.5 7h150q9 0 15.5 -7t6.5 -15v-337q0 -29 10 -41.5t42 -12.5h55v391q0 8 6.5 15t15.5 7h150q9 0 14.5 -7t5.5 -15v-391h55
q32 0 42 12.5t10 41.5v337q0 8 6.5 15t15.5 7h150q9 0 14.5 -7t5.5 -15v-336q0 -19 -1 -36t-3 -33h46q8 0 15 -6.5t7 -14.5v-233v0z" />
    <glyph glyph-name="uni044A" unicode="&#x44a;" horiz-adv-x="617" 
d="M21 438q-11 0 -16 6t-5 14v103q0 8 5 14.5t16 6.5h216q8 0 15 -6.5t7 -14.5v-191q16 1 29 1h23q62 0 114.5 -7t90.5 -27t59.5 -55t21.5 -92v-16q0 -57 -21.5 -92t-59.5 -55t-90.5 -27t-114.5 -7q-16 0 -42.5 0.5t-54.5 1.5t-54 3t-41 4q-30 5 -41.5 16.5t-11.5 43.5v376
h-45zM255 239v-114h66q50 0 70 14t20 40v6q0 26 -20 40t-70 14h-66z" />
    <glyph glyph-name="uni044B" unicode="&#x44b;" horiz-adv-x="898" 
d="M55 561q0 8 7 14.5t15 6.5h149q8 0 15 -6.5t7 -14.5v-191q16 1 29 1h23q62 0 114.5 -7t90.5 -27t59.5 -55t21.5 -92v-16q0 -57 -21.5 -92t-59.5 -55t-90.5 -27t-114.5 -7q-16 0 -42.5 0.5t-54.5 1.5t-54 3t-41 4q-30 5 -41.5 16.5t-11.5 43.5v499zM244 239v-114h66
q50 0 70 14t20 40v6q0 26 -20 40t-70 14h-66zM843 22q0 -8 -7 -15t-15 -7h-149q-8 0 -15 7t-7 15v539q0 8 7 14.5t15 6.5h149q8 0 15 -6.5t7 -14.5v-539z" />
    <glyph glyph-name="uni044C" unicode="&#x44c;" horiz-adv-x="606" 
d="M55 561q0 8 7 14.5t15 6.5h149q8 0 15 -6.5t7 -14.5v-191q16 1 29 1h23q62 0 114.5 -7t90.5 -27t59.5 -55t21.5 -92v-16q0 -57 -21.5 -92t-59.5 -55t-90.5 -27t-114.5 -7q-16 0 -42.5 0.5t-54.5 1.5t-54 3t-41 4q-30 5 -41.5 16.5t-11.5 43.5v499zM244 239v-114h66
q50 0 70 14t20 40v6q0 26 -20 40t-70 14h-66z" />
    <glyph glyph-name="uni044D" unicode="&#x44d;" horiz-adv-x="541" 
d="M122 225q-11 0 -16 6t-5 14v85q0 8 5 14.5t16 6.5h186q-2 24 -9.5 39.5t-20.5 24t-31 11.5t-41 3q-27 0 -46 -0.5t-33.5 -1.5t-26 -2.5t-24.5 -2.5h-2q-8 0 -13.5 5.5t-5.5 13.5v113q0 10 5 14.5t15 6.5q21 5 57 10.5t95 5.5q76 0 128.5 -18t84.5 -52t46.5 -83t14.5 -110
v-75q0 -62 -14.5 -110.5t-46.5 -82t-84.5 -51.5t-128.5 -18q-45 0 -85.5 5t-66.5 11q-10 2 -15 6.5t-5 14.5v112q0 8 5.5 13.5t13.5 5.5h2q13 -1 24.5 -2t26 -2t33.5 -1.5t46 -0.5q22 0 40 2.5t30.5 10.5t20 22t10.5 37h-185z" />
    <glyph glyph-name="uni044E" unicode="&#x44e;" horiz-adv-x="910" 
d="M248 22q0 -8 -7 -15t-15 -7h-149q-8 0 -15 7t-7 15v539q0 8 7 14.5t15 6.5h149q8 0 15 -6.5t7 -14.5v-194h99q12 110 79 167t182 57q126 0 194 -69t68 -202v-58q0 -133 -68 -202t-194 -69q-113 0 -179.5 55.5t-80.5 162.5h-100v-187zM679 320q0 60 -18 85t-53 25
t-53.5 -25t-18.5 -85v-58q0 -60 18.5 -85.5t53.5 -25.5t53 25.5t18 85.5v58z" />
    <glyph glyph-name="uni044F" unicode="&#x44f;" horiz-adv-x="620" 
d="M220 18q-5 -8 -10 -13t-22 -5h-158q-10 0 -13.5 8.5t2.5 18.5l116 201q-20 8 -38 22.5t-32 35.5t-22.5 47.5t-8.5 58.5v12q0 54 19.5 89.5t55 57t85.5 30.5t111 9q86 0 135.5 -3.5t75.5 -7.5q27 -4 38 -13.5t11 -37.5v-512q0 -7 -5 -11.5t-13 -4.5h-156q-16 0 -16 16v191
h-47zM223 387q0 -28 16 -43t67 -15h19h21.5t18.5 0.5t10 0.5v124q-2 0 -10 0.5t-18.5 0.5t-21.5 0.5t-20 0.5q-50 0 -66 -14t-16 -42v-13z" />
    <glyph glyph-name="uni0451" unicode="&#x451;" horiz-adv-x="602" 
d="M562 259q0 -10 -6 -16t-15 -6h-311v-2q0 -40 20 -63t75 -23q20 0 47 0.5t54 2t51 2.5t38 3h4q18 0 18 -17v-90q0 -12 -4 -18t-16 -10q-48 -16 -101 -23.5t-116 -7.5q-51 0 -98 14t-83 45.5t-57.5 81t-21.5 121.5v66q0 132 71.5 202t194.5 70q66 0 114 -20t79.5 -56
t47 -86t15.5 -110v-60zM378 346q0 45 -18 70.5t-56 25.5q-36 0 -55 -25.5t-19 -70.5v-3h148v3zM498 657q0 -8 -7.5 -14t-15.5 -6h-116q-8 0 -15 6t-7 14v98q0 8 7 14t15 6h116q8 0 15.5 -6t7.5 -14v-98zM264 657q0 -8 -7 -14t-15 -6h-116q-8 0 -15.5 6t-7.5 14v98
q0 8 7.5 14t15.5 6h116q8 0 15 -6t7 -14v-98z" />
    <glyph glyph-name="uni0452" unicode="&#x452;" horiz-adv-x="632" 
d="M247 631v-79q32 23 67 30.5t81 7.5q54 0 89.5 -17.5t56 -48.5t29 -72t8.5 -87v-386q0 -54 -12 -89.5t-34.5 -57t-53.5 -30t-68 -8.5q-23 0 -45.5 2t-48.5 7q-20 3 -20 21v93q0 8 6 14t15 6h43q18 0 22 11t4 31v386q0 40 -16 53t-47 13q-35 0 -76 -22v-387q0 -8 -5.5 -15
t-14.5 -7h-150q-9 0 -15.5 7t-6.5 15v609h-45q-8 0 -14 6t-6 14v42q0 8 6 14t14 6h45v40q0 8 6 14t14 6h152q8 0 14 -6t6 -14v-40h113q8 0 14 -6t6 -14v-42q0 -8 -6 -14t-14 -6h-113z" />
    <glyph glyph-name="uni0453" unicode="&#x453;" horiz-adv-x="422" 
d="M386 582q11 0 16 -6.5t5 -14.5v-128q0 -8 -5 -14t-16 -6h-87q-32 0 -42 -12.5t-10 -41.5v-337q0 -8 -6.5 -15t-15.5 -7h-150q-9 0 -14.5 7t-5.5 15v336q0 52 8 94t33 70.5t70.5 44t119.5 15.5h100zM459 772q0 -4 -4 -8l-126 -120q-6 -5 -9.5 -8t-14.5 -3h-129q-9 0 -9 7
q0 6 4 10l91 114q7 8 12 11.5t16 3.5h158q11 0 11 -7z" />
    <glyph glyph-name="uni0454" unicode="&#x454;" horiz-adv-x="541" 
d="M233 225q6 -46 31 -59t71 -13q27 0 46 0.5t33.5 1.5t26 2t24.5 2h2q8 0 13.5 -5.5t5.5 -13.5v-112q0 -10 -5 -14.5t-15 -6.5q-26 -6 -66.5 -11t-85.5 -5q-76 0 -128.5 18t-84.5 51.5t-46.5 82t-14.5 110.5v75q0 61 14.5 110t46.5 83t84.5 52t128.5 18q59 0 95 -5.5
t57 -10.5q10 -2 15 -6.5t5 -14.5v-113q0 -8 -5.5 -13.5t-13.5 -5.5h-2q-13 1 -24.5 2.5t-26 2.5t-33.5 1.5t-46 0.5q-24 0 -42 -3t-30.5 -11.5t-20 -24t-9.5 -39.5h186q11 0 16 -6.5t5 -14.5v-85q0 -8 -5 -14t-16 -6h-186z" />
    <glyph glyph-name="uni0455" unicode="&#x455;" horiz-adv-x="517" 
d="M478 170q0 -38 -13.5 -70.5t-42 -56.5t-72 -38t-104.5 -14q-54 0 -102 7t-83 17q-19 5 -19 22v103q0 9 5 15t16 6h4q22 -3 47 -6t48.5 -5t44 -3.5t32.5 -1.5q29 0 38 7.5t9 21.5q0 8 -6 15.5t-24 17.5l-122 66q-95 51 -95 158q0 77 54 118.5t166 41.5q57 0 102.5 -7.5
t81.5 -17.5q20 -5 20 -22v-106q0 -20 -17 -20h-3q-11 1 -33 4t-47 5.5t-50 4.5t-42 2q-37 0 -37 -22q0 -11 22 -23l117 -63q61 -33 83 -73.5t22 -82.5z" />
    <glyph glyph-name="uni0456" unicode="&#x456;" horiz-adv-x="313" 
d="M258 657q0 -8 -7 -14t-15 -6h-158q-8 0 -15.5 6t-7.5 14v98q0 8 7.5 14t15.5 6h158q8 0 15 -6t7 -14v-98zM253 22q0 -8 -7 -15t-15 -7h-149q-8 0 -15 7t-7 15v539q0 8 7 14.5t15 6.5h149q8 0 15 -6.5t7 -14.5v-539z" />
    <glyph glyph-name="uni0457" unicode="&#x457;" horiz-adv-x="313" 
d="M253 22q0 -8 -7 -15t-15 -7h-149q-8 0 -15 7t-7 15v539q0 8 7 14.5t15 6.5h149q8 0 15 -6.5t7 -14.5v-539zM354 657q0 -8 -7.5 -14t-15.5 -6h-116q-8 0 -15 6t-7 14v98q0 8 7 14t15 6h116q8 0 15.5 -6t7.5 -14v-98zM120 657q0 -8 -7 -14t-15 -6h-116q-8 0 -15.5 6
t-7.5 14v98q0 8 7.5 14t15.5 6h116q8 0 15 -6t7 -14v-98z" />
    <glyph glyph-name="uni0458" unicode="&#x458;" horiz-adv-x="312" 
d="M257 657q0 -8 -7 -14t-15 -6h-157q-8 0 -15 6t-7 14v98q0 8 7 14t15 6h157q8 0 15 -6t7 -14v-98zM253 -21q0 -54 -12.5 -89.5t-34.5 -57t-53.5 -30t-68.5 -8.5q-23 0 -45.5 2t-48.5 7q-20 3 -20 21v93q0 8 6 14t15 6h43q18 0 22 11t4 31v582q0 8 7 14.5t15 6.5h149
q8 0 15 -6.5t7 -14.5v-582z" />
    </font>
</defs>
</svg>
