<?xml version="1.0" standalone="no"?>
<!DOCTYPE svg PUBLIC "-//W3C//DTD SVG 1.1//EN" "http://www.w3.org/Graphics/SVG/1.1/DTD/svg11.dtd" >
<svg>
<metadata>
Created by FontForge 20120731 at Mon Jun 19 13:27:48 2017
 By www
</metadata>
<defs>
<font id="AllerDisplay" horiz-adv-x="450" >
  <font-face 
    font-family="Aller Display"
    font-weight="400"
    font-stretch="normal"
    units-per-em="1000"
    panose-1="2 0 5 3 0 0 0 2 0 3"
    ascent="800"
    descent="-200"
    x-height="517"
    cap-height="725"
    bbox="-235 -249 1427 994"
    underline-thickness="50"
    underline-position="-50"
    unicode-range="U+0020-FB04"
  />
<missing-glyph horiz-adv-x="500" 
 />
    <glyph glyph-name=".notdef" horiz-adv-x="500" 
 />
    <glyph glyph-name=".null" horiz-adv-x="0" 
 />
    <glyph glyph-name="nonmarkingreturn" horiz-adv-x="500" 
 />
    <glyph glyph-name="space" unicode=" " horiz-adv-x="220" 
 />
    <glyph glyph-name="exclam" unicode="!" horiz-adv-x="302" 
d="M62 719q24 4 46.5 5t42.5 1t42 -1t47 -5l-9 -466q-25 -5 -44 -7t-36 -2q-31 0 -80 9zM151 177q20 0 40.5 -2t43.5 -6q3 -23 5 -43.5t2 -39.5t-2 -40t-5 -44q-23 -4 -43.5 -6t-40.5 -2t-40.5 2t-43.5 6q-3 23 -5 44t-2 40t2 39.5t5 43.5q23 4 43.5 6t40.5 2z" />
    <glyph glyph-name="quotedbl" unicode="&#x22;" horiz-adv-x="456" 
d="M40 717q17 4 39 6t39 2t39 -2t39 -6v-289q-17 -4 -39 -6t-39 -2t-39 2t-39 6v289zM260 717q17 4 39 6t39 2t39 -2t39 -6v-289q-17 -4 -39 -6t-39 -2t-39 2t-39 6v289z" />
    <glyph glyph-name="numbersign" unicode="#" horiz-adv-x="699" 
d="M388 198h-99l-13 -167q-20 -4 -35.5 -5t-32.5 -1q-15 0 -31 1t-36 5l14 167h-105q-2 16 -3.5 30t-1.5 28q0 15 1.5 29.5t3.5 30.5h115l9 110h-105q-6 31 -6 59q0 15 1.5 29t4.5 30h115l12 144q20 4 35.5 5t32.5 1q16 0 32 -1t34 -5l-12 -144h99l12 144q20 4 35.5 5
t31.5 1t32 -1t35 -5l-12 -144h97q3 -16 4.5 -29.5t1.5 -27.5q0 -30 -6 -61h-107l-9 -110h98q2 -16 3.5 -30t1.5 -28t-1.5 -29t-3.5 -31h-108l-13 -167q-19 -4 -35 -5t-32 -1q-17 0 -33 1t-34 5zM299 316h99l9 110h-99z" />
    <glyph glyph-name="dollar" unicode="$" horiz-adv-x="585" 
d="M238 -11q-29 0 -53.5 2.5t-48 7.5t-46.5 13t-50 19q4 36 13.5 73t23.5 79q47 -20 85 -29.5t73 -9.5q50 0 77 16.5t27 51.5q0 31 -23.5 47.5t-57.5 30.5l-53 22q-30 13 -57 29t-46.5 38.5t-31 53t-11.5 72.5q0 88 47.5 140.5t131.5 67.5v90q16 5 32 6.5t27 1.5t27.5 -1.5
t31.5 -6.5v-87q35 -4 70.5 -13t75.5 -23q-7 -67 -41 -142q-34 15 -67 25t-85 10q-13 0 -25.5 -1.5t-23 -7t-17 -15t-6.5 -25.5q0 -29 20.5 -43.5t44.5 -23.5l56 -21q34 -13 64 -29t53 -40t36.5 -59t13.5 -86q0 -81 -43.5 -139t-125.5 -81v-118q-15 -5 -31.5 -6.5t-27.5 -1.5
t-27 1.5t-32 6.5v105z" />
    <glyph glyph-name="percent" unicode="%" horiz-adv-x="1016" 
d="M280 505q0 46 -13 73t-42 27t-42 -27t-13 -73q0 -45 13 -73t42 -28t42 28t13 73zM33 505q0 41 11.5 79.5t35 68.5t59.5 48t86 18q49 0 85 -18t60 -48t35.5 -68.5t11.5 -79.5t-11.5 -79.5t-35.5 -68.5t-60 -48t-85 -18q-50 0 -86 18t-59.5 48t-35 68.5t-11.5 79.5zM378 2
q-17 -3 -36.5 -4.5t-37.5 -1.5q-16 0 -34 0.5t-45 5.5l413 707q17 3 36.5 4.5t37.5 1.5q16 0 34 -0.5t45 -5.5zM846 203q0 46 -13 73t-42 27t-42 -27t-13 -73q0 -45 13 -73t42 -28t42 28t13 73zM599 203q0 41 11.5 79.5t35 68.5t59.5 48t86 18q49 0 85 -18t60 -48
t35.5 -68.5t11.5 -79.5t-11.5 -79.5t-35.5 -68.5t-60 -48t-85 -18q-50 0 -86 18t-59.5 48t-35 68.5t-11.5 79.5z" />
    <glyph glyph-name="ampersand" unicode="&#x26;" horiz-adv-x="724" 
d="M569 609q16 5 49 2v-136h93q5 -19 6 -34.5t1 -30.5q0 -17 -1 -32.5t-6 -36.5h-93v-98q0 -63 -21.5 -110.5t-61.5 -79.5t-97 -48t-127 -16q-52 0 -101 12t-87.5 38.5t-61.5 69t-23 102.5q0 32 8 61t21.5 53t31 43t36.5 32q-28 23 -48.5 58.5t-20.5 83.5q0 47 17.5 82.5
t48.5 59t72 35.5t88 12q30 0 68 -4.5t81 -20.5q2 -37 -8.5 -69t-30.5 -61q-38 14 -62 17t-41 3q-36 0 -52 -18t-16 -41q0 -26 15.5 -44t51.5 -18h165zM326 135q40 0 65 12t39.5 31.5t20 44.5t5.5 52v66h-142q-44 0 -69.5 -29t-25.5 -74q0 -47 26.5 -75t80.5 -28z" />
    <glyph glyph-name="quotesingle" unicode="'" horiz-adv-x="236" 
d="M40 717q17 4 39 6t39 2t39 -2t39 -6v-289q-17 -4 -39 -6t-39 -2t-39 2t-39 6v289z" />
    <glyph glyph-name="parenleft" unicode="(" horiz-adv-x="367" 
d="M50 305q0 80 9 149.5t25 128t36.5 106.5t43.5 84q14 5 37 7t43 2q19 0 45 -3t48 -8q-12 -21 -31.5 -62.5t-38.5 -101.5t-32.5 -136.5t-13.5 -165.5t13.5 -165.5t32.5 -136.5t38.5 -101.5t31.5 -62.5q-22 -5 -48 -8t-45 -3q-20 0 -43 2t-37 7q-23 36 -43.5 84t-36.5 106.5
t-25 128t-9 149.5z" />
    <glyph glyph-name="parenright" unicode=")" horiz-adv-x="367" 
d="M317 305q0 -80 -9 -149.5t-25 -128t-36.5 -106.5t-43.5 -84q-14 -5 -37 -7t-43 -2q-19 0 -45 3t-48 8q12 21 31.5 62.5t38.5 101.5t32.5 136.5t13.5 165.5t-13.5 165.5t-32.5 136.5t-38.5 101.5t-31.5 62.5q22 5 48 8t45 3q20 0 43 -2t37 -7q23 -36 43.5 -84t36.5 -106.5
t25 -128t9 -149.5z" />
    <glyph glyph-name="asterisk" unicode="*" horiz-adv-x="464" 
d="M416 615q14 -23 21 -47t11 -44l-122 -52l72 -114q-17 -17 -37 -31.5t-43 -25.5l-86 98l-86 -99q-22 11 -42 25.5t-37 31.5l70 114l-121 51q2 25 11 48.5t19 43.5l126 -28l11 131q14 2 25.5 3.5t20.5 1.5q11 0 23.5 -1.5t26.5 -3.5l12 -131zM229 560q-17 0 -38 3
q-5 -23 -12.5 -44.5t-17.5 -41.5q18 -11 35.5 -23.5t34.5 -27.5q36 31 70 51q-10 22 -16.5 43.5t-11.5 41.5q-13 -2 -23.5 -2h-20.5z" />
    <glyph glyph-name="plus" unicode="+" horiz-adv-x="579" 
d="M218 282h-147q-3 20 -5 36.5t-2 34.5q0 17 2 34.5t5 37.5h147v159q19 4 36 6t35 2q17 0 34.5 -2t37.5 -6v-159h146q4 -20 6 -37t2 -34t-2 -34.5t-6 -37.5h-146v-159q-20 -4 -37 -6t-34 -2q-32 0 -72 8v159z" />
    <glyph glyph-name="comma" unicode="," horiz-adv-x="302" 
d="M93 160q22 5 41.5 7.5t35.5 2.5t39.5 -2.5t49.5 -9.5l-76 -267q-24 -6 -43 -7.5t-34 -1.5q-16 0 -34.5 2t-47.5 9z" />
    <glyph glyph-name="hyphen" unicode="-" horiz-adv-x="369" 
d="M42 273q0 34 9 76h268q5 -21 6.5 -39.5t1.5 -35.5t-1.5 -36t-6.5 -40h-268q-9 42 -9 75z" />
    <glyph glyph-name="period" unicode="." horiz-adv-x="296" 
d="M148 179q20 0 41 -2t44 -5q4 -23 6 -44t2 -41t-2 -41t-6 -44q-23 -4 -44 -6t-41 -2t-41 2t-44 6q-4 23 -6 44t-2 41t2 41t6 44q23 3 44 5t41 2z" />
    <glyph glyph-name="slash" unicode="/" horiz-adv-x="416" 
d="M247 717q21 4 40 6t39 2q17 0 38 -1.5t47 -6.5l-242 -715q-21 -4 -40 -6t-39 -2q-17 0 -38 1.5t-47 6.5z" />
    <glyph glyph-name="zero" unicode="0" horiz-adv-x="598" 
d="M301 662q67 0 116 -26t81 -71.5t47 -107.5t15 -134t-16 -133t-48 -106t-82 -70.5t-117 -25.5t-116 25.5t-80.5 70.5t-47 106t-15.5 133t16 134t48 107.5t81.5 71.5t117.5 26zM299 511q-40 0 -62 -47t-22 -141q0 -93 22.5 -140t61.5 -47q38 0 60 47t22 140q0 94 -22 141
t-60 47z" />
    <glyph glyph-name="one" unicode="1" horiz-adv-x="536" 
d="M96 392q-9 13 -18 30t-17 35t-14 36.5t-9 35.5l293 125h43v-504h128q9 -39 9 -74q0 -37 -9 -76h-428q-9 39 -9 76q0 35 9 74h130v284z" />
    <glyph glyph-name="two" unicode="2" horiz-adv-x="528" 
d="M28 0l-12 29l178 234q46 62 68.5 104.5t22.5 76.5q0 31 -22.5 49.5t-62.5 18.5q-38 0 -71 -13.5t-59 -28.5q-16 35 -28 71t-14 74q34 19 83 33t111 14q51 0 94.5 -12t75.5 -36.5t50 -61.5t18 -88q0 -36 -9 -68t-23 -61t-31.5 -55t-34.5 -50l-57 -80h175q9 -42 9 -73
q0 -35 -9 -77h-452z" />
    <glyph glyph-name="three" unicode="3" horiz-adv-x="539" 
d="M48 502q-9 39 -9 76q0 36 9 75h423l18 -28l-142 -245q72 -13 112 -62.5t40 -127.5q0 -62 -22.5 -110t-62 -80.5t-93 -49t-114.5 -16.5q-28 0 -52 1.5t-47.5 6t-47 11t-50.5 17.5q2 37 14.5 75t29.5 68q38 -13 73 -21.5t74 -8.5q59 0 93.5 24t34.5 73q0 21 -9 37t-24 26.5
t-34 16t-40 5.5q-16 0 -33.5 -1.5t-40.5 -7.5l-22 33l123 213h-201z" />
    <glyph glyph-name="four" unicode="4" horiz-adv-x="627" 
d="M579 211q9 -39 9 -74t-9 -74h-53v-118q-21 -5 -41.5 -6.5t-39.5 -1.5q-20 0 -40.5 1.5t-42.5 6.5v118h-318l-17 30l269 576q39 -5 76.5 -17.5t72.5 -39.5l-182 -401h99v112q22 5 42.5 6.5t40.5 1.5q19 0 39.5 -1.5t41.5 -6.5v-112h53z" />
    <glyph glyph-name="five" unicode="5" horiz-adv-x="539" 
d="M449 653q9 -42 9 -73q0 -35 -9 -77h-211l-2 -104q9 2 17 2h19q49 0 90 -14t70 -41t45 -67t16 -92q0 -62 -21 -109t-60.5 -79t-95.5 -48t-125 -16q-13 0 -32.5 2t-43.5 5.5t-50.5 10t-51.5 15.5q1 19 5.5 39.5t10.5 40t12.5 37t13.5 31.5q39 -14 71 -21.5t62 -7.5
q36 0 61 8t40 20.5t21.5 29t6.5 34.5q0 38 -27 61t-86 23q-24 0 -51.5 -5.5t-57.5 -19.5l-26 17l15 398h365z" />
    <glyph glyph-name="six" unicode="6" horiz-adv-x="596" 
d="M448 727q8 -8 15 -28.5t7 -49.5q0 -24 -3 -43t-8 -31q-39 -3 -74 -14.5t-64 -30.5t-50.5 -44t-32.5 -56l3 -2q11 14 40.5 26t71.5 12q43 0 80.5 -13t66 -40.5t45 -70.5t16.5 -104t-20 -107.5t-54.5 -78t-80.5 -47.5t-98 -16q-126 0 -192 72t-66 218q0 84 23 160.5
t71.5 137.5t124 101t179.5 49zM309 333q-38 0 -62 -25t-24 -73q0 -53 23 -80t59 -27t61 25t25 77q0 54 -23.5 78.5t-58.5 24.5z" />
    <glyph glyph-name="seven" unicode="7" horiz-adv-x="550" 
d="M34 502q-5 21 -7 41t-2 37q0 31 9 73h486l15 -27l-285 -699q-42 10 -77.5 23t-75.5 40l210 512h-273z" />
    <glyph glyph-name="eight" unicode="8" horiz-adv-x="581" 
d="M514 526q0 -45 -20.5 -82t-58.5 -63q46 -25 77.5 -70.5t31.5 -111.5q0 -56 -21.5 -95.5t-57.5 -65t-81.5 -37.5t-93.5 -12t-93.5 12t-81 37.5t-57 65t-21.5 95.5q0 66 31 111t76 71q-39 26 -58.5 63t-19.5 82q0 43 17.5 78.5t47.5 61t71 39.5t88 14q48 0 89 -14t71 -39.5
t47 -61t17 -78.5zM377 206q0 38 -25 64t-63 39q-38 -13 -61.5 -39t-23.5 -64q0 -35 22 -58t64 -23q44 0 65.5 23t21.5 58zM224 527q0 -31 18.5 -52.5t47.5 -32.5q31 11 49 32t18 53q0 25 -16.5 43.5t-49.5 18.5t-50 -18.5t-17 -43.5z" />
    <glyph glyph-name="nine" unicode="9" horiz-adv-x="596" 
d="M149 -75q-8 8 -15 28.5t-7 49.5q0 24 3 43t8 31q39 3 74 14.5t64 30t50.5 44t32.5 56.5l-3 2q-11 -14 -40.5 -26t-71.5 -12q-43 0 -80.5 13t-66 40.5t-45 70.5t-16.5 104t20 107.5t54.5 78t80.5 47.5t98 16q126 0 192 -72t66 -218q0 -84 -23 -161t-71.5 -137.5
t-124 -100.5t-179.5 -49zM288 319q38 0 62 25t24 73q0 53 -23 80t-59 27t-61 -25t-25 -77q0 -54 23.5 -78.5t58.5 -24.5z" />
    <glyph glyph-name="colon" unicode=":" horiz-adv-x="296" 
d="M148 179q20 0 41 -2t44 -5q4 -23 6 -44t2 -41t-2 -41t-6 -44q-23 -4 -44 -6t-41 -2t-41 2t-44 6q-4 23 -6 44t-2 41t2 41t6 44q23 3 44 5t41 2zM148 517q20 0 41 -2t44 -5q4 -23 6 -44t2 -41t-2 -41t-6 -44q-23 -4 -44 -6t-41 -2t-41 2t-44 6q-4 23 -6 44t-2 41t2 41
t6 44q23 3 44 5t41 2z" />
    <glyph glyph-name="semicolon" unicode=";" horiz-adv-x="320" 
d="M87 160q22 5 41.5 7.5t35.5 2.5t39.5 -2.5t49.5 -9.5l-76 -267q-24 -6 -43 -7.5t-34 -1.5q-16 0 -34.5 2t-47.5 9zM172 517q20 0 41 -2t44 -5q4 -23 6 -44t2 -41t-2 -41t-6 -44q-23 -4 -44 -6t-41 -2t-41 2t-44 6q-4 23 -6 44t-2 41t2 41t6 44q23 3 44 5t41 2z" />
    <glyph glyph-name="less" unicode="&#x3c;" horiz-adv-x="579" 
d="M240 353l260 -87q5 -20 5.5 -38t0.5 -35q0 -7 -0.5 -18t-1.5 -23t-2.5 -23.5t-3.5 -20.5l-415 169q-10 41 -10 79q0 37 10 73l415 169q4 -17 6 -42.5t2 -39.5q0 -17 -0.5 -34t-5.5 -37z" />
    <glyph glyph-name="equal" unicode="=" horiz-adv-x="579" 
d="M71 174q-3 20 -5 36.5t-2 34.5q0 17 2 34.5t5 37.5h436q4 -20 6 -37t2 -34t-2 -34.5t-6 -37.5h-436zM71 389q-3 20 -5 36.5t-2 34.5q0 17 2 34.5t5 37.5h436q4 -20 6 -37t2 -34t-2 -34.5t-6 -37.5h-436z" />
    <glyph glyph-name="greater" unicode="&#x3e;" horiz-adv-x="579" 
d="M79 445q-5 20 -5.5 37t-0.5 34q0 14 2 39.5t6 42.5l415 -169q10 -36 10 -73q0 -38 -10 -79l-415 -169q-2 9 -3.5 20.5t-2.5 23.5t-1.5 23t-0.5 18q0 17 0.5 35t5.5 38l260 87z" />
    <glyph glyph-name="question" unicode="?" horiz-adv-x="479" 
d="M71 550q-6 13 -12.5 30t-11.5 35t-9 35.5t-5 32.5q28 10 51.5 17t45 11t42.5 6t44 2q121 0 182 -55t61 -152q0 -44 -15.5 -77t-38 -56t-47.5 -38t-45 -24v-91q-22 -3 -43 -5t-38 -2q-18 0 -38.5 2t-40.5 5v188q26 3 51 9.5t44.5 17.5t31.5 27.5t12 39.5q0 34 -25 51.5
t-67 17.5q-19 0 -34 -1.5t-29.5 -5t-30.5 -8.5t-35 -12zM229 179q20 0 41 -2t44 -5q4 -23 6 -44t2 -41t-2 -41t-6 -44q-23 -4 -44 -6t-41 -2t-41 2t-44 6q-4 23 -6 44t-2 41t2 41t6 44q23 3 44 5t41 2z" />
    <glyph glyph-name="at" unicode="@" horiz-adv-x="982" 
d="M553 401q-8 1 -14 1.5t-14 0.5q-29 0 -52 -13.5t-39 -36t-24.5 -52t-8.5 -60.5q0 -38 16 -55t43 -17q15 0 28 1.5t27 6.5zM660 50q-71 0 -109 35q-28 -14 -59 -24.5t-79 -10.5q-32 0 -61 10t-51 30.5t-34.5 52.5t-12.5 76q0 67 22.5 123.5t61.5 97.5t90.5 63.5
t109.5 22.5q43 0 87.5 -7.5t86.5 -22.5l-62 -327q9 -3 25 -3q34 0 60.5 20.5t44.5 52.5t27.5 71t9.5 77q0 106 -67.5 166t-196.5 60q-90 0 -161.5 -32.5t-120.5 -87t-75 -124.5t-26 -145q0 -66 20.5 -114.5t55.5 -80t82 -46.5t100 -15q50 0 94 7t83 22q25 -57 38 -106
q-40 -20 -103.5 -30.5t-127.5 -10.5q-78 0 -147 23t-120.5 69t-82 115.5t-30.5 163.5q0 58 14 118t43 116.5t72.5 106.5t102.5 87t134 58.5t167 21.5q81 0 151.5 -21.5t122 -64.5t81.5 -107t30 -149q0 -62 -20.5 -122.5t-58.5 -108t-91.5 -77t-119.5 -29.5z" />
    <glyph glyph-name="A" unicode="A" horiz-adv-x="642" 
d="M178 2q-23 -4 -42 -6t-37 -2t-41.5 2.5t-52.5 7.5l224 714q26 3 48.5 5t45.5 2q19 0 41.5 -2t51.5 -5l221 -715q-57 -9 -100 -9q-20 0 -40 2t-43 6l-38 139q-28 -8 -53.5 -12t-50.5 -4q-23 0 -47 3.5t-50 10.5zM318 530l-67 -257q17 -5 32 -8t31 -3q17 0 33.5 2.5
t34.5 7.5z" />
    <glyph glyph-name="B" unicode="B" horiz-adv-x="597" 
d="M566 210q0 -66 -24 -109t-66 -68t-100 -35t-126 -10q-54 0 -97 4t-93 10v715q38 6 83 10t105 4q57 0 106.5 -9.5t86.5 -32t58.5 -60t21.5 -94.5q0 -47 -21 -85.5t-53 -59.5q23 -9 44.5 -23.5t38 -36t26.5 -51.5t10 -69zM233 302v-168q7 -1 17.5 -1.5t27.5 -0.5
q19 0 38.5 4t35.5 13.5t25.5 26t9.5 41.5q0 48 -31.5 66.5t-81.5 18.5h-41zM233 444h28q43 0 67 17.5t24 60.5q0 21 -8.5 35t-21.5 22t-29 11t-31 3h-14.5t-14.5 -1v-148z" />
    <glyph glyph-name="C" unicode="C" horiz-adv-x="609" 
d="M228 358q0 -212 178 -212q32 0 60.5 6t69.5 20q33 -72 44 -148q-29 -11 -54 -18t-48 -10.5t-45.5 -5t-46.5 -1.5q-85 0 -149.5 27.5t-108 76.5t-65.5 117t-22 148t23 148.5t66.5 118.5t107.5 78t145 28q48 0 91 -7t96 -28q-2 -41 -15 -79.5t-27 -67.5q-20 7 -36.5 12
t-31.5 8t-30 4.5t-32 1.5q-81 0 -125.5 -54.5t-44.5 -162.5z" />
    <glyph glyph-name="D" unicode="D" horiz-adv-x="685" 
d="M259 731q189 0 287 -94.5t98 -281.5q0 -190 -100 -278.5t-296 -88.5q-50 0 -96.5 4.5t-91.5 10.5v714q15 2 38 4.5t50 4.5t55.5 3.5t55.5 1.5zM237 145q7 -1 16 -1h19q39 0 73.5 9.5t59.5 33.5t39.5 65t14.5 105q0 63 -15 105t-39.5 66.5t-57.5 35t-69 10.5
q-20 0 -29 -0.5t-12 -0.5v-428z" />
    <glyph glyph-name="E" unicode="E" horiz-adv-x="527" 
d="M439 375q0 -35 -9 -78h-193v-142h251q9 -42 9 -76q0 -37 -9 -79h-428v719h422q4 -22 6 -41t2 -36q0 -33 -8 -79h-245v-110h193q9 -44 9 -78z" />
    <glyph glyph-name="F" unicode="F" horiz-adv-x="510" 
d="M60 719h422q4 -22 6 -41t2 -36q0 -33 -8 -79h-245v-122h193q9 -45 9 -78q0 -34 -9 -79h-193v-281q-53 -9 -88 -9q-37 0 -89 9v716z" />
    <glyph glyph-name="G" unicode="G" horiz-adv-x="659" 
d="M434 389q27 4 48 6t39 2q17 0 41 -2t47 -6v-364q-59 -22 -116.5 -29t-98.5 -7q-88 0 -154 27.5t-110.5 76.5t-66.5 117t-22 148t23 148.5t66.5 118.5t107.5 78t145 28q48 0 91.5 -7t95.5 -29q-2 -41 -15 -80t-27 -66q-20 7 -36.5 12t-31.5 8t-30 4.5t-32 1.5
q-81 0 -125 -54.5t-44 -162.5q0 -107 43 -159.5t128 -52.5q19 0 34 3v240z" />
    <glyph glyph-name="H" unicode="H" horiz-adv-x="651" 
d="M503 -6q-37 0 -89 9v292h-177v-292q-53 -9 -88 -9q-37 0 -89 9v714q27 4 49 6t39 2q18 0 40.5 -2t48.5 -6v-265h177v265q27 4 48.5 6t39.5 2t40.5 -2t48.5 -6v-714q-53 -9 -88 -9z" />
    <glyph glyph-name="I" unicode="I" horiz-adv-x="297" 
d="M149 -6q-37 0 -89 9v714q27 4 49 6t39 2q18 0 40.5 -2t48.5 -6v-714q-53 -9 -88 -9z" />
    <glyph glyph-name="J" unicode="J" horiz-adv-x="411" 
d="M35 152q9 -2 27 -5t38 -3q12 0 26 1.5t25.5 9t19.5 22.5t8 42v344h-109q-9 42 -9 79q0 35 9 77h286v-520q0 -57 -18 -97.5t-49 -65.5t-72.5 -36.5t-89.5 -11.5q-29 0 -58 4.5t-52 11.5q-1 8 -1.5 16t-0.5 17q0 58 20 115z" />
    <glyph glyph-name="K" unicode="K" horiz-adv-x="633" 
d="M446 372l187 -369q-17 -4 -45.5 -6.5t-51.5 -2.5q-29 0 -56 2.5t-46 6.5l-183 360l169 354q30 5 52 6.5t45 1.5q11 0 25 -0.5t27.5 -2t26 -3t21.5 -2.5zM60 717q27 4 49 6t39 2q18 0 40.5 -2t48.5 -6v-714q-53 -9 -88 -9q-37 0 -89 9v714z" />
    <glyph glyph-name="L" unicode="L" horiz-adv-x="491" 
d="M60 717q27 4 49 6t39 2q18 0 40.5 -2t48.5 -6v-560h231q5 -25 6.5 -43.5t1.5 -33.5q0 -17 -1.5 -35.5t-6.5 -44.5h-408v717z" />
    <glyph glyph-name="M" unicode="M" horiz-adv-x="801" 
d="M81 717q21 3 45.5 5.5t45.5 2.5q20 0 43.5 -2.5t43.5 -5.5l142 -372l147 372q20 3 40.5 5.5t40.5 2.5q21 0 43 -2.5t43 -5.5l34 -714q-16 -3 -35.5 -6t-51.5 -3q-35 0 -83 9l-14 414l-110 -273q-18 -3 -36 -5t-33 -2t-31 1.5t-33 5.5l-98 269l-11 -410q-42 -9 -80 -9
q-35 0 -81 9z" />
    <glyph glyph-name="N" unicode="N" horiz-adv-x="659" 
d="M60 717q22 4 40 6t35 2q18 0 37.5 -2.5t33.5 -5.5l232 -392v392q26 4 47 6t38 2t36 -2t40 -6l-1 -714q-10 -3 -29 -6t-41 -3q-25 0 -45 3.5t-29 5.5l-233 390v-390q-44 -9 -80 -9t-81 9v714z" />
    <glyph glyph-name="O" unicode="O" horiz-adv-x="711" 
d="M41 357q0 80 18.5 148.5t57 118.5t98 78.5t141.5 28.5t141 -28.5t97.5 -78.5t57 -118.5t18.5 -148.5t-18.5 -147.5t-57 -117t-97.5 -77t-141 -27.5t-141.5 27.5t-98 77t-57 117t-18.5 147.5zM484 357q0 218 -127 218q-130 0 -130 -218q0 -109 31.5 -162.5t97.5 -53.5
q128 0 128 216z" />
    <glyph glyph-name="P" unicode="P" horiz-adv-x="585" 
d="M233 379q5 -2 17 -3t25 -1q43 0 70 25t27 76q0 30 -8.5 50.5t-23.5 33t-35 17.5t-42 5h-14t-16 -1v-202zM60 717q23 3 70.5 8.5t119.5 5.5q53 0 107 -10t97.5 -37.5t70.5 -77.5t27 -130q0 -71 -21.5 -118t-57 -75t-81 -40t-93.5 -12q-19 0 -38.5 1.5t-27.5 3.5v-233
q-26 -5 -47 -7t-39 -2q-35 0 -87 9v714z" />
    <glyph glyph-name="Q" unicode="Q" horiz-adv-x="711" 
d="M317 -169v28.5t1 15.5q5 49 28 102l331 -54q-1 -38 -7 -75t-19 -74zM41 357q0 80 18.5 148.5t57 118.5t98 78.5t141.5 28.5t141 -28.5t97.5 -78.5t57 -118.5t18.5 -148.5t-18.5 -147.5t-57 -117t-97.5 -77t-141 -27.5t-141.5 27.5t-98 77t-57 117t-18.5 147.5zM484 357
q0 218 -127 218q-130 0 -130 -218q0 -109 31.5 -162.5t97.5 -53.5q128 0 128 216z" />
    <glyph glyph-name="R" unicode="R" horiz-adv-x="616" 
d="M60 717q49 5 90.5 9.5t87.5 4.5q55 0 110 -10.5t98 -36.5t70 -71t27 -114q0 -37 -8.5 -66.5t-22 -52.5t-30 -40t-32.5 -29l156 -308q-24 -4 -52.5 -6t-51.5 -2q-20 0 -46.5 2t-46.5 6l-142 327l9 5q12 6 26.5 20t27 33.5t21 43.5t8.5 50q0 50 -28 73t-69 23q-10 0 -17 -1
t-9 -2v-572q-53 -9 -87 -9q-37 0 -89 9v714z" />
    <glyph glyph-name="S" unicode="S" horiz-adv-x="564" 
d="M340 439q42 -17 75.5 -34.5t57.5 -42t37 -59t13 -83.5q0 -53 -18.5 -95.5t-54.5 -73t-88.5 -47t-120.5 -16.5q-62 0 -109.5 10t-102.5 31q4 35 14 74.5t24 80.5q92 -40 160 -40q51 0 79.5 15.5t28.5 53.5q0 16 -6 27.5t-16 19.5t-22.5 13.5t-25.5 10.5l-56 21
q-36 13 -65.5 31t-50.5 42.5t-32.5 56.5t-11.5 75q0 53 18 94t50.5 69.5t78.5 43t103 14.5q51 0 98.5 -10t101.5 -29q-4 -32 -14.5 -70.5t-26.5 -72.5q-26 11 -61 23t-87 12q-16 0 -30.5 -3t-26 -9.5t-18.5 -18t-7 -28.5q0 -29 19 -43t45 -24z" />
    <glyph glyph-name="T" unicode="T" horiz-adv-x="558" 
d="M191 563h-167q-9 43 -9 79q0 33 9 77h511q4 -22 6 -41t2 -36q0 -33 -8 -79h-167v-560q-53 -9 -88 -9q-37 0 -89 9v560z" />
    <glyph glyph-name="U" unicode="U" horiz-adv-x="662" 
d="M331 -11q-81 0 -134.5 22t-84.5 63.5t-43.5 100.5t-12.5 133v409q29 4 50 5.5t40 1.5q17 0 37.5 -1.5t49.5 -5.5v-388q0 -50 4 -85t14.5 -57t29.5 -31.5t50 -9.5t50.5 9.5t30 31.5t14 57t3.5 85v388q30 4 50.5 5.5t37.5 1.5q18 0 39 -1.5t50 -5.5v-409q0 -74 -12.5 -133
t-43.5 -100.5t-84.5 -63.5t-134.5 -22z" />
    <glyph glyph-name="V" unicode="V" horiz-adv-x="652" 
d="M328 233l137 484q23 4 46.5 6t49.5 2q17 0 42 -2.5t44 -5.5l-230 -715q-26 -4 -48.5 -6t-43.5 -2q-20 0 -41 2t-50 6l-229 715q17 3 45 5.5t54 2.5q21 0 46 -2.5t44 -5.5z" />
    <glyph glyph-name="W" unicode="W" horiz-adv-x="896" 
d="M720 717q26 5 44 6.5t37 1.5q20 0 42 -1.5t50 -6.5l-172 -714q-15 -3 -38.5 -6t-51.5 -3t-54.5 3.5t-35.5 5.5l-95 414l-101 -414q-9 -2 -33.5 -5.5t-52.5 -3.5t-50 3t-37 6l-169 713q28 5 54 7t46 2q19 0 39.5 -1.5t46.5 -6.5l83 -457q25 110 50 229.5t49 227.5
q18 3 40 5.5t45 2.5q20 0 41 -2.5t36 -5.5l104 -462z" />
    <glyph glyph-name="X" unicode="X" horiz-adv-x="645" 
d="M39 717q26 5 50.5 6.5t50.5 1.5q17 0 44 -2.5t43 -5.5l95 -347l97 347q16 4 43 6t44 2q26 0 50 -1.5t50 -6.5l-117 -343l144 -371q-51 -9 -101 -9q-17 0 -44 2.5t-43 6.5l-123 357l-122 -357q-16 -4 -43 -6.5t-44 -2.5q-50 0 -101 9l145 371z" />
    <glyph glyph-name="Y" unicode="Y" horiz-adv-x="622" 
d="M433 717q23 4 48 6t51 2q17 0 44 -2.5t46 -5.5l-223 -459v-255q-53 -9 -88 -9q-37 0 -89 9v255q-26 54 -54.5 112.5l-57 117t-56.5 117t-54 112.5q17 3 46 5.5t55 2.5q21 0 46.5 -2.5t44.5 -5.5l123 -278z" />
    <glyph glyph-name="Z" unicode="Z" horiz-adv-x="577" 
d="M529 79q0 -37 -9 -79h-482l-18 27l276 536h-245q-5 22 -6.5 41t-1.5 36t1.5 37t6.5 42h487l15 -29l-274 -535h241q9 -42 9 -76z" />
    <glyph glyph-name="bracketleft" unicode="[" horiz-adv-x="344" 
d="M314 -97q0 -17 -2 -33.5t-7 -37.5h-255v944h255q5 -20 7 -36.5t2 -33.5q0 -31 -9 -73h-90v-658h90q5 -21 7 -38t2 -34z" />
    <glyph glyph-name="backslash" unicode="\" horiz-adv-x="416" 
d="M411 2q-26 -5 -47 -6.5t-38 -1.5q-20 0 -39 2t-40 6l-242 715q26 5 47 6.5t38 1.5q20 0 39 -2t40 -6z" />
    <glyph glyph-name="bracketright" unicode="]" horiz-adv-x="344" 
d="M30 -97q0 17 2 34t7 38h90v658h-90q-9 42 -9 73q0 17 2 33.5t7 36.5h255v-944h-255q-5 21 -7 37.5t-2 33.5z" />
    <glyph glyph-name="asciicircum" unicode="^" horiz-adv-x="549" 
d="M273 549l-71 -184q-17 -4 -37.5 -6.5t-45.5 -2.5q-37 0 -79 9l162 352q13 3 35.5 5.5t38.5 2.5t38.5 -2.5t36.5 -5.5l158 -352q-42 -9 -79 -9q-25 0 -45.5 2.5t-37.5 6.5z" />
    <glyph glyph-name="underscore" unicode="_" horiz-adv-x="500" 
d="M492 -2q5 -21 6.5 -36t1.5 -30q0 -11 -2 -24.5t-7 -37.5h-483q-5 21 -6.5 36.5t-1.5 29.5q0 11 2 25.5t7 36.5h483z" />
    <glyph glyph-name="grave" unicode="`" horiz-adv-x="480" 
d="M94 709q18 3 42.5 4.5t50.5 1.5q53 0 92 -6l107 -123q-17 -4 -35.5 -5t-37.5 -1q-43 0 -73 6z" />
    <glyph glyph-name="a" unicode="a" horiz-adv-x="523" 
d="M30 169q0 49 21 81t54 51t73 26.5t78 7.5h61q-1 18 -10 30t-23 18.5t-31 9t-35 2.5q-24 0 -56 -5.5t-66 -17.5q-9 17 -15.5 31t-10 28.5t-5 30t-1.5 35.5q48 16 95.5 24t85.5 8q52 0 94 -12.5t71.5 -38.5t45.5 -66.5t16 -96.5v-293q-38 -11 -92 -22t-114 -11
q-52 0 -95.5 9.5t-74.5 30.5t-48.5 55.5t-17.5 84.5zM266 113q9 0 26 2t25 4v110h-57q-35 0 -59 -15t-24 -42q0 -20 9 -31.5t22.5 -17.5t29 -8t28.5 -2z" />
    <glyph glyph-name="b" unicode="b" horiz-adv-x="562" 
d="M56 515q20 3 46 5.5t53 4.5t52.5 3t44.5 1q125 0 187 -35.5t62 -110.5q0 -38 -17.5 -64.5t-47.5 -45.5q42 -15 69 -43t27 -79q0 -92 -68 -127.5t-201 -35.5q-35 0 -91.5 2.5t-115.5 10.5v514zM223 214v-103q3 0 16 -1t35 -1q42 0 60 14t18 39q0 10 -3.5 19.5t-12.5 16.5
t-25 11.5t-42 4.5h-46zM223 319h49q38 0 51 16.5t13 34.5q0 17 -13.5 31.5t-49.5 14.5q-11 0 -25.5 -0.5t-24.5 -1.5v-95z" />
    <glyph glyph-name="c" unicode="c" horiz-adv-x="471" 
d="M31 258q0 60 17 110t50 85.5t81 55.5t110 20q21 0 40 -1t37.5 -4t38 -9t43.5 -15q2 -34 -6 -67.5t-25 -65.5q-17 6 -30.5 9.5t-25.5 5.5t-23.5 2.5t-24.5 0.5q-48 0 -79.5 -28.5t-31.5 -98.5q0 -37 9.5 -61.5t25 -38.5t36 -20t43.5 -6q29 0 50.5 5t50.5 16
q17 -27 27 -60.5t10 -76.5q-46 -18 -84 -23t-76 -5q-64 0 -113 19t-82.5 54.5t-50.5 85t-17 111.5z" />
    <glyph glyph-name="d" unicode="d" horiz-adv-x="568" 
d="M233 529q81 0 138.5 -19t94.5 -53.5t54 -83.5t17 -109q0 -63 -17.5 -114t-55 -87t-97 -55.5t-143.5 -19.5q-49 0 -87.5 3.5t-80.5 9.5v514q42 5 89 9.5t88 4.5zM225 131q4 0 10.5 -1t19.5 -1q56 0 83.5 31.5t27.5 103.5q0 64 -27 93.5t-77 29.5q-12 0 -22 -1t-15 -2v-253
z" />
    <glyph glyph-name="e" unicode="e" horiz-adv-x="538" 
d="M201 205q11 -41 38.5 -58t72.5 -17q29 0 65 7t71 21q14 -26 24.5 -62t11.5 -75q-89 -33 -182 -33q-72 0 -123.5 20t-84 55.5t-48 84.5t-15.5 107q0 57 16 107t48 87t80 58.5t112 21.5q53 0 94.5 -18t70.5 -49.5t44.5 -76t15.5 -96.5q0 -27 -2.5 -48.5t-4.5 -35.5h-304z
M281 402q-32 0 -55 -20t-27 -62h160q-2 35 -21.5 58.5t-56.5 23.5z" />
    <glyph glyph-name="f" unicode="f" horiz-adv-x="461" 
d="M225 155v-153q-21 -5 -43 -6.5t-41 -1.5q-20 0 -41.5 1.5t-43.5 6.5v515h382q5 -20 6.5 -37t1.5 -33t-1.5 -33.5t-6.5 -37.5h-213v-80h172q5 -20 6.5 -37t1.5 -33t-1.5 -33.5t-6.5 -37.5h-172z" />
    <glyph glyph-name="g" unicode="g" horiz-adv-x="536" 
d="M297 -12q-72 0 -122.5 21.5t-82.5 58.5t-46.5 87t-14.5 107q0 55 17.5 104t52 85t85.5 57t118 21q35 0 77 -8t92 -28q-1 -17 -4 -32t-7.5 -30.5t-11 -33t-15.5 -39.5q-34 14 -63 20.5t-50 6.5q-33 0 -56 -10t-37 -27t-20.5 -39.5t-6.5 -46.5q0 -67 29 -98.5t85 -31.5h18
v147q25 5 44.5 7t37.5 2q35 0 83 -9v-254q-29 -11 -81 -24t-121 -13z" />
    <glyph glyph-name="h" unicode="h" horiz-adv-x="598" 
d="M373 191h-148v-190q-26 -4 -47 -6t-38 -2t-38 2t-46 6v516q22 5 43.5 7t41.5 2q19 0 41 -2t43 -7v-176h148v176q22 5 43.5 7t41.5 2q19 0 41 -2t43 -7v-516q-26 -4 -47 -6t-38 -2t-38 2t-46 6v190z" />
    <glyph glyph-name="i" unicode="i" horiz-adv-x="281" 
d="M225 1q-26 -4 -47 -6t-38 -2t-38 2t-46 6v516q22 5 43.5 7t41.5 2q19 0 41 -2t43 -7v-516z" />
    <glyph glyph-name="j" unicode="j" horiz-adv-x="377" 
d="M60 376q-5 20 -6.5 37.5t-1.5 33.5t1.5 33t6.5 37h269v-318q0 -57 -16.5 -97.5t-46 -65.5t-69 -36.5t-85.5 -11.5q-15 0 -42.5 3.5t-57.5 13.5q-1 8 -1.5 15.5t-0.5 15.5q0 26 5 52t14 54q4 -1 12 -2.5t17.5 -2.5t18 -2t13.5 -1q11 0 23.5 1.5t23 9t17 22.5t6.5 42v167
h-100z" />
    <glyph glyph-name="k" unicode="k" horiz-adv-x="563" 
d="M56 517q22 5 43.5 7t41.5 2q19 0 41 -2t43 -7v-515q-26 -5 -47 -6.5t-37 -1.5q-17 0 -38 1.5t-47 6.5v515zM359 517q18 4 44 6t46 2q26 0 52.5 -2t42.5 -6l-124 -240l138 -275q-18 -4 -45 -6t-47 -2q-26 0 -51.5 2t-40.5 6l-133 268z" />
    <glyph glyph-name="l" unicode="l" horiz-adv-x="437" 
d="M225 141h189q5 -20 6.5 -37t1.5 -33t-1.5 -33.5t-6.5 -37.5h-358l1 517q22 5 43.5 7t41.5 2q19 0 41 -2t43 -7z" />
    <glyph glyph-name="m" unicode="m" horiz-adv-x="842" 
d="M264 527q41 0 81 -6.5t74 -26.5q26 13 61 23t79 10q39 0 80.5 -7.5t75 -31.5t55 -69t21.5 -119v-299q-26 -5 -47 -6.5t-37 -1.5q-17 0 -38 1.5t-47 6.5v281q0 53 -18 76t-59 23q-14 0 -27.5 -3t-18.5 -5q9 -35 9 -80v-292q-26 -5 -47 -6.5t-37 -1.5q-17 0 -38 1.5
t-47 6.5v281q0 53 -17 76t-58 23q-11 0 -23.5 -2t-15.5 -4v-374q-26 -5 -47 -6.5t-37 -1.5q-17 0 -38 1.5t-47 6.5v491q35 12 84 23.5t124 11.5z" />
    <glyph glyph-name="n" unicode="n" horiz-adv-x="565" 
d="M266 527q44 0 88 -7.5t79.5 -31.5t58 -69t22.5 -119v-299q-26 -5 -47 -6.5t-37 -1.5q-17 0 -38 1.5t-47 6.5v281q0 53 -20 76t-61 23q-11 0 -23.5 -2t-15.5 -4v-374q-26 -5 -47 -6.5t-37 -1.5q-17 0 -38 1.5t-47 6.5v491q35 12 85 23.5t125 11.5z" />
    <glyph glyph-name="o" unicode="o" horiz-adv-x="577" 
d="M31 256q0 61 16.5 111.5t49 86.5t80.5 55.5t111 19.5q64 0 112 -19.5t80.5 -55.5t49 -86.5t16.5 -111.5q0 -60 -16.5 -109.5t-49 -85t-80.5 -54.5t-112 -19q-63 0 -111 19t-80.5 54.5t-49 85t-16.5 109.5zM375 256q0 64 -21.5 98t-65.5 34t-65 -34t-21 -98q0 -63 21 -97
t65 -34t65.5 34t21.5 97z" />
    <glyph glyph-name="p" unicode="p" horiz-adv-x="516" 
d="M221 250q5 -1 12.5 -1.5t12.5 -0.5q35 0 57.5 17.5t22.5 59.5q0 36 -22.5 55.5t-55.5 19.5h-11.5t-15.5 -1v-149zM56 515q46 7 94.5 10.5t93.5 3.5q46 0 90 -8.5t79 -31t56.5 -62t21.5 -102.5q0 -57 -19.5 -96t-51.5 -63t-72.5 -34.5t-82.5 -10.5q-17 0 -29 1t-15 2v-123
q-26 -5 -46.5 -6.5t-36.5 -1.5q-17 0 -36.5 1.5t-45.5 6.5v514z" />
    <glyph glyph-name="q" unicode="q" horiz-adv-x="577" 
d="M256 -139q1 29 6.5 60.5t15.5 58.5l273 -39q-1 -29 -6.5 -60.5t-15.5 -58.5zM31 256q0 61 16.5 111.5t49 86.5t80.5 55.5t111 19.5q64 0 112 -19.5t80.5 -55.5t49 -86.5t16.5 -111.5q0 -60 -16.5 -109.5t-49 -85t-80.5 -54.5t-112 -19q-63 0 -111 19t-80.5 54.5t-49 85
t-16.5 109.5zM375 256q0 64 -21.5 98t-65.5 34t-65 -34t-21 -98q0 -63 21 -97t65 -34t65.5 34t21.5 97z" />
    <glyph glyph-name="r" unicode="r" horiz-adv-x="549" 
d="M56 515q47 6 97.5 10t95.5 4q121 0 181.5 -45.5t60.5 -127.5q0 -31 -7 -54t-17 -39.5t-21 -26.5t-18 -16l114 -218q-20 -4 -44.5 -6t-47.5 -2q-28 0 -54 2t-43 6l-111 236l14 8q35 20 48 42.5t13 48.5t-15.5 42.5t-49.5 16.5q-19 0 -29 -2v-393q-26 -5 -47 -6.5t-37 -1.5
q-17 0 -37 1.5t-46 6.5v514z" />
    <glyph glyph-name="s" unicode="s" horiz-adv-x="470" 
d="M305 324q30 -8 54.5 -19.5t42 -29.5t27.5 -44t10 -63q0 -38 -15.5 -71t-46 -57t-75 -38t-102.5 -14q-48 0 -89 7t-87 24q5 68 37 138q32 -15 67 -22.5t70 -7.5q12 0 25 1t23 4.5t16.5 9.5t6.5 16q0 13 -13 19.5t-30 11.5l-68 19q-53 15 -88 51t-35 98q0 39 16 71t45 54.5
t68.5 34.5t87.5 12q38 0 83 -8t89 -23q-2 -32 -13 -68.5t-25 -64.5q-27 11 -65 20t-70 9q-47 0 -47 -26q0 -11 11 -17t25 -10z" />
    <glyph glyph-name="t" unicode="t" horiz-adv-x="511" 
d="M171 376h-148q-5 20 -6.5 37.5t-1.5 33.5t1.5 33t6.5 37h465q5 -20 6.5 -37t1.5 -33t-1.5 -33.5t-6.5 -37.5h-148v-375q-26 -4 -47 -6t-38 -2t-38 2t-46 6v375z" />
    <glyph glyph-name="u" unicode="u" horiz-adv-x="565" 
d="M509 24q-17 -6 -40.5 -12t-50 -11.5t-54.5 -8.5t-55 -3q-51 0 -98 8t-82.5 32.5t-56.5 71t-21 124.5v292q22 5 43.5 7t41.5 2q19 0 41 -2t43 -7v-278q0 -60 20 -82t61 -22q17 0 26 1t13 2v379q22 5 43.5 7t41.5 2q19 0 41 -2t43 -7v-493z" />
    <glyph glyph-name="v" unicode="v" horiz-adv-x="561" 
d="M371 517q8 2 33 4t51 2q33 0 61.5 -2t39.5 -4l-196 -515q-21 -5 -42.5 -6.5t-41.5 -1.5t-41 1.5t-38 6.5l-192 515q11 2 39.5 4t61.5 2q26 0 52 -2t34 -4l91 -310q23 77 44.5 156t43.5 154z" />
    <glyph glyph-name="w" unicode="w" horiz-adv-x="799" 
d="M556 219l62 298q8 2 31 4t49 2q33 0 58.5 -2t36.5 -4l-162 -515q-17 -5 -37 -6.5t-40 -1.5t-40.5 1.5t-42.5 6.5l-73 280q-19 -67 -38.5 -141t-37.5 -139q-21 -5 -41.5 -6.5t-40.5 -1.5t-40 1.5t-37 6.5l-157 515q11 2 38.5 4t60.5 2q26 0 50.5 -2t32.5 -4l65 -306
l72 306q17 5 37.5 6.5t40.5 1.5t40.5 -1.5t41.5 -6.5z" />
    <glyph glyph-name="x" unicode="x" horiz-adv-x="536" 
d="M268 277l66 240q8 2 31.5 4t49.5 2q33 0 59 -2t37 -4l-90 -248l110 -268q-11 -2 -34.5 -4.5t-53.5 -2.5q-29 0 -52 2.5t-31 4.5l-92 256l-92 -256q-8 -2 -30 -4.5t-48 -2.5q-33 0 -57.5 3t-35.5 5l110 267l-90 248q11 2 36.5 4t58.5 2q26 0 49.5 -2t31.5 -4z" />
    <glyph glyph-name="y" unicode="y" horiz-adv-x="564" 
d="M384 517q8 2 30.5 4t48.5 2q33 0 59 -2t37 -4l-193 -335v-181q-26 -4 -47 -6t-38 -2t-38 2t-46 6v181l-192 335q11 2 38.5 4t60.5 2q26 0 51 -2t33 -4l98 -197z" />
    <glyph glyph-name="z" unicode="z" horiz-adv-x="481" 
d="M252 137h191q7 -41 7 -70q0 -15 -1.5 -30.5t-5.5 -36.5h-420l-16 30l209 350h-171q-5 22 -6.5 38.5t-1.5 31.5t1.5 30.5t6.5 36.5h407l10 -32z" />
    <glyph glyph-name="braceleft" unicode="{" horiz-adv-x="430" 
d="M45 335q25 12 41.5 24.5t26.5 28.5t14 36t5 46l3 100q2 51 12 91.5t33 68.5t61.5 43t98.5 15h19.5t26.5 -2q9 -41 9 -69q0 -30 -9 -70h-31q-20 0 -32 -7t-18 -21.5t-7.5 -36.5t-1.5 -53q0 -54 -4 -90t-12 -60t-20 -39.5t-28 -27.5q16 -12 28 -27.5t20 -40t12 -60.5t4 -90
q0 -31 1.5 -53t7.5 -36.5t18 -21.5t32 -7h31q9 -41 9 -70t-9 -69q-17 -2 -26.5 -2h-19.5q-60 0 -98.5 15t-61.5 43t-33 68.5t-12 91.5l-3 101q-1 26 -5 46t-14 35.5t-26.5 28.5t-41.5 25v46z" />
    <glyph glyph-name="bar" unicode="|" horiz-adv-x="349" 
d="M175 -174q-34 0 -83 9v939q25 4 45 6t37 2t38 -2t45 -6v-939q-50 -9 -82 -9z" />
    <glyph glyph-name="braceright" unicode="}" horiz-adv-x="430" 
d="M385 289q-25 -12 -41.5 -25t-26.5 -28.5t-14 -35.5t-5 -46l-3 -101q-2 -51 -12 -91.5t-33 -68.5t-61.5 -43t-98.5 -15h-19.5t-26.5 2q-9 40 -9 69t9 70h31q20 0 32 7t18 21.5t7.5 36.5t1.5 53q0 54 4 90t12 60.5t20 40t28 27.5q-16 12 -28 27.5t-20 39.5t-12 60t-4 90
q0 31 -1.5 53t-7.5 36.5t-18 21.5t-32 7h-31q-9 40 -9 70q0 28 9 69q17 2 26.5 2h19.5q60 0 98.5 -15t61.5 -43t33 -68.5t12 -91.5l3 -100q1 -26 5 -46t14 -36t26.5 -28.5t41.5 -24.5v-46z" />
    <glyph glyph-name="asciitilde" unicode="~" horiz-adv-x="466" 
d="M150 495q23 0 44 -6t43 -14l38 -12t39 -6q9 0 17 1.5t17.5 6t20.5 12t25 20.5q26 -25 43.5 -55t26.5 -58q-25 -29 -63 -48.5t-86 -19.5q-24 0 -46.5 6t-44.5 14q-20 6 -38 11.5t-35 5.5q-9 0 -17.5 -1t-17.5 -5t-19.5 -12t-25.5 -21q-24 25 -42.5 53.5t-26.5 58.5
q24 28 62 48.5t86 20.5z" />
    <glyph glyph-name="exclamdown" unicode="&#xa1;" horiz-adv-x="302" 
d="M240 0q-24 -4 -46.5 -5t-42.5 -1t-42 1t-47 5l9 466q49 9 80 9q30 0 80 -9zM151 542q-20 0 -40.5 2t-43.5 6q-3 23 -5 43.5t-2 39.5t2 40t5 44q23 4 43.5 6t40.5 2t40.5 -2t43.5 -6q3 -23 5 -44t2 -40t-2 -39.5t-5 -43.5q-23 -4 -43.5 -6t-40.5 -2z" />
    <glyph glyph-name="cent" unicode="&#xa2;" horiz-adv-x="466" 
d="M31 258q0 49 12.5 93t37 79t61.5 59.5t85 33.5v110q8 3 24.5 5.5t31.5 2.5q14 0 30.5 -2.5t26.5 -5.5v-107q24 -2 48 -8.5t55 -18.5q2 -34 -6 -67.5t-25 -65.5q-17 6 -30.5 9.5t-25 5.5t-23 3t-24.5 1q-48 0 -77.5 -32t-29.5 -95q0 -67 31.5 -96.5t76.5 -29.5
q29 0 51 5.5t51 16.5q17 -27 27 -60.5t10 -76.5q-31 -12 -57.5 -18.5t-51.5 -8.5v-106q-10 -3 -26.5 -5.5t-30.5 -2.5q-15 0 -31.5 2.5t-24.5 5.5v110q-49 9 -85.5 33t-61 58.5t-37 78.5t-12.5 94z" />
    <glyph glyph-name="sterling" unicode="&#xa3;" horiz-adv-x="582" 
d="M64 31q16 13 31.5 32.5t27.5 45.5t19 57t7 66q0 19 -3 42h-83q-4 24 -5.5 40t-1.5 31q0 14 1.5 29t5.5 38h61q-2 18 -3 39t-1 41q0 42 14.5 82.5t44.5 72.5t76 52t109 20q53 0 93.5 -9t79.5 -26q-2 -29 -11 -66t-29 -78q-23 11 -50 21t-65 10q-25 0 -42 -8.5t-27.5 -21.5
t-15 -28.5t-4.5 -30.5q0 -19 2 -37.5t4 -32.5h145q4 -24 5.5 -39.5t1.5 -31.5q0 -14 -1.5 -29t-5.5 -38h-125q1 -3 1 -6.5v-6.5q0 -26 -4 -54t-15 -53h231q5 -24 6 -43t1 -33q0 -16 -1 -34.5t-6 -43.5h-459z" />
    <glyph glyph-name="currency" unicode="&#xa4;" horiz-adv-x="579" 
d="M65 342q0 27 7 52.5t18 47.5l-66 67q16 35 41 58.5t59 42.5l69 -69q46 22 97 22t97 -22l69 70q28 -18 54 -42.5t45 -57.5l-66 -65q12 -23 19.5 -49t7.5 -55q0 -26 -6.5 -52t-17.5 -49q15 -16 32.5 -33t31.5 -30q-19 -29 -44 -55t-57 -45l-66 67q-46 -23 -99 -23t-101 23
l-65 -66q-36 17 -59.5 42.5t-41.5 57.5l65 65q-11 22 -17 47t-6 51zM203 342q0 -42 25 -67t62 -25q38 0 63 25t25 67t-25 68t-63 26q-37 0 -62 -26t-25 -68z" />
    <glyph glyph-name="yen" unicode="&#xa5;" horiz-adv-x="587" 
d="M204 308h-150q-5 15 -5 46q0 14 1.5 26.5t3.5 20.5h109l-161 306q14 2 42.5 4t54.5 2q21 0 46.5 -2t40.5 -4l111 -240l106 240q23 4 46 5t49 1q17 0 43.5 -1.5t43.5 -4.5l-163 -306h125q2 -8 3.5 -20.5t1.5 -26.5q0 -31 -5 -46h-166v-62h166q2 -8 3.5 -20.5t1.5 -26.5
q0 -31 -5 -46h-166v-151q-26 -5 -48 -6.5t-40 -1.5q-17 0 -40 1.5t-49 6.5v151h-150q-5 15 -5 46q0 14 1.5 26.5t3.5 20.5h150v62z" />
    <glyph glyph-name="brokenbar" unicode="&#xa6;" horiz-adv-x="349" 
d="M257 443q-24 -4 -45 -6t-38 -2t-37 2t-45 6v331q25 4 45 6t37 2t38 -2t45 -6v-331zM257 -165q-50 -9 -82 -9q-34 0 -83 9v330q25 4 45 6t37 2t38 -2t45 -6v-330z" />
    <glyph glyph-name="section" unicode="&#xa7;" horiz-adv-x="571" 
d="M54 347q0 70 61 116q-20 17 -27 40t-7 48q0 79 61.5 123.5t168.5 44.5q46 0 88 -7t87 -24q-2 -32 -13.5 -67.5t-25.5 -62.5q-9 4 -23.5 9t-32.5 10t-38.5 8.5t-39.5 3.5q-34 0 -48 -8.5t-14 -22.5q0 -10 10.5 -17.5t24.5 -11.5l118 -34q66 -20 90.5 -55.5t24.5 -77.5
q0 -35 -15 -64.5t-47 -53.5q20 -17 27.5 -40t7.5 -48q0 -40 -19 -71t-52.5 -52.5t-79 -33t-98.5 -11.5q-46 0 -92 7.5t-91 24.5q2 32 14.5 68t28.5 64q23 -11 62 -22t87 -11q39 0 54.5 7.5t15.5 19.5q0 14 -12 21t-29 12l-104 31q-68 21 -95.5 58.5t-27.5 78.5zM220 409
q-7 -8 -12 -19t-5 -22t9.5 -21.5t32.5 -17.5l106 -29q16 16 16 38q0 12 -9 24t-41 21z" />
    <glyph glyph-name="dieresis" unicode="&#xa8;" horiz-adv-x="480" 
d="M277 646q0 30 6 60q15 3 35 4.5t34 1.5t34 -1.5t36 -4.5q6 -30 6 -60t-6 -60q-16 -3 -36 -4.5t-34 -1.5t-34 1.5t-35 4.5q-6 30 -6 60zM52 646q0 30 6 60q15 3 35 4.5t34 1.5t34 -1.5t36 -4.5q6 -30 6 -60t-6 -60q-16 -3 -36 -4.5t-34 -1.5t-34 1.5t-35 4.5q-6 30 -6 60z
" />
    <glyph glyph-name="copyright" unicode="&#xa9;" horiz-adv-x="802" 
d="M503 293q4 -8 9.5 -21.5t9.5 -30t7 -34.5t3 -34q-35 -14 -65 -18t-60 -4q-48 0 -85 15.5t-62.5 43.5t-39 66.5t-13.5 83.5q0 42 13.5 80t38.5 66.5t61.5 45.5t82.5 17q36 0 63 -4t62 -18q0 -27 -6 -59t-20 -60q-20 8 -40.5 12.5t-37.5 4.5q-35 0 -56.5 -22.5t-21.5 -62.5
q0 -44 22 -65t59 -21q38 0 76 19zM401 79q64 0 114.5 21.5t86 59t54.5 89t19 110.5t-19 110.5t-54.5 89t-86 59t-114.5 21.5t-114.5 -21.5t-86 -59t-54.5 -89t-19 -110.5t19 -110.5t54.5 -89t86 -59t114.5 -21.5zM401 -13q-83 0 -151.5 28.5t-117 78t-75.5 117.5t-27 148
q0 79 27 147.5t75.5 118t117 78t151.5 28.5t151.5 -28t117 -78t75.5 -118t27 -148t-27 -148t-75.5 -117.5t-117 -78t-151.5 -28.5z" />
    <glyph glyph-name="ordfeminine" unicode="&#xaa;" horiz-adv-x="427" 
d="M241 487q-8 1 -15.5 1h-20.5q-27 0 -42.5 -10t-15.5 -33q0 -13 7 -20.5t16.5 -11t20.5 -4t19 -0.5t16 0.5t15 1.5v76zM205 573h19t17 -1q-2 24 -17 34.5t-50 10.5q-42 0 -96 -17q-15 24 -21.5 48t-6.5 47q36 11 73.5 17.5t67.5 6.5q84 0 130.5 -39.5t46.5 -126.5v-222
q-27 -9 -70 -17.5t-90 -8.5q-41 0 -75 7t-58 23.5t-37.5 42t-13.5 63.5q0 39 16.5 64.5t42.5 40.5t58 21t64 6z" />
    <glyph glyph-name="guillemotleft" unicode="&#xab;" horiz-adv-x="653" 
d="M211 266l154 -222q-47 -9 -95 -9q-24 0 -46.5 2.5t-37.5 6.5l-156 222l156 222q15 4 37.5 6.5t46.5 2.5q48 0 95 -9zM478 266l154 -222q-47 -9 -95 -9q-24 0 -46.5 2.5t-37.5 6.5l-156 222l156 222q15 4 37.5 6.5t46.5 2.5q48 0 95 -9z" />
    <glyph glyph-name="logicalnot" unicode="&#xac;" horiz-adv-x="579" 
d="M513 126q-20 -4 -37 -6t-34 -2q-32 0 -72 8v156h-296q-4 20 -6 36.5t-2 33.5t2 35t6 38h439v-299z" />
    <glyph glyph-name="registered" unicode="&#xae;" horiz-adv-x="802" 
d="M399 365q11 8 25.5 25.5t14.5 37.5t-12.5 32t-39.5 12h-20v-297q-17 -3 -30.5 -4t-27.5 -1q-13 0 -28.5 1t-32.5 4v386q31 5 59 8t61 3q98 0 147 -35.5t49 -98.5q0 -40 -15.5 -65t-35.5 -41l68 -156q-20 -2 -38.5 -3.5t-38.5 -1.5q-15 0 -27.5 0.5t-27.5 3.5l-68 176z
M401 79q64 0 114.5 21.5t86 59t54.5 89t19 110.5t-19 110.5t-54.5 89t-86 59t-114.5 21.5t-114.5 -21.5t-86 -59t-54.5 -89t-19 -110.5t19 -110.5t54.5 -89t86 -59t114.5 -21.5zM401 -13q-83 0 -151.5 28.5t-117 78t-75.5 117.5t-27 148q0 79 27 147.5t75.5 118t117 78
t151.5 28.5t151.5 -28t117 -78t75.5 -118t27 -148t-27 -148t-75.5 -117.5t-117 -78t-151.5 -28.5z" />
    <glyph glyph-name="macron" unicode="&#xaf;" horiz-adv-x="480" 
d="M391 713q7 -27 7 -56q0 -12 -1.5 -27t-5.5 -29h-302q-4 14 -5.5 28.5t-1.5 27.5t1.5 27.5t5.5 28.5h302z" />
    <glyph glyph-name="degree" unicode="&#xb0;" horiz-adv-x="387" 
d="M28 565q0 34 13 63t35.5 51t52.5 34.5t64 12.5t64.5 -12.5t53 -34.5t35.5 -51t13 -63q0 -33 -13 -62t-35.5 -50.5t-53 -34t-64.5 -12.5t-64 12.5t-52.5 34t-35.5 50.5t-13 62zM136 565q0 -25 17.5 -42t39.5 -17t40 17t18 42q0 26 -18 43.5t-40 17.5t-39.5 -17.5
t-17.5 -43.5z" />
    <glyph glyph-name="plusminus" unicode="&#xb1;" horiz-adv-x="579" 
d="M71 -11q-3 20 -5 36.5t-2 34.5q0 17 2 34.5t5 37.5h147v150h-147q-3 20 -5 36.5t-2 34.5q0 17 2 34.5t5 37.5h147v159q19 4 36 6t35 2q17 0 34.5 -2t37.5 -6v-159h146q4 -20 6 -37t2 -34t-2 -34.5t-6 -37.5h-146v-150h146q4 -20 6 -37t2 -34t-2 -34.5t-6 -37.5h-436z" />
    <glyph glyph-name="twosuperior" unicode="&#xb2;" 
d="M255 414h108q4 -17 5 -29.5t1 -24.5t-1 -25t-5 -30h-318l-9 23l109 132q35 42 51 68.5t16 43.5q0 18 -13 28t-36 10q-24 0 -42.5 -6.5t-47.5 -19.5q-10 20 -19 46.5t-12 55.5q25 14 63 23.5t75 9.5q75 0 120.5 -35.5t45.5 -99.5q0 -24 -8 -46.5t-20 -42.5t-26 -37
t-26 -31z" />
    <glyph glyph-name="threesuperior" unicode="&#xb3;" 
d="M72 600q-4 15 -5 28t-1 25t1 24.5t5 27.5h279l12 -21l-85 -129q46 -11 69.5 -42.5t23.5 -73.5q0 -37 -14.5 -64.5t-40 -46t-60.5 -28t-75 -9.5q-44 0 -77.5 7t-58.5 16q1 29 11 57.5t22 46.5q17 -8 42.5 -16t51.5 -8q28 0 48.5 11t20.5 35q0 17 -14.5 29.5t-46.5 12.5
q-8 0 -17.5 -1t-29.5 -7l-18 21l72 105h-115z" />
    <glyph glyph-name="acute" unicode="&#xb4;" horiz-adv-x="480" 
d="M240 586q-30 -6 -73 -6q-19 0 -37.5 1t-35.5 5l107 123q39 6 92 6q26 0 50.5 -1.5t42.5 -4.5z" />
    <glyph glyph-name="mu" unicode="&#xb5;" horiz-adv-x="571" 
d="M328 -11q-45 0 -70 9t-33 17v-240q-21 -5 -43 -7t-41 -2q-20 0 -41.5 2t-43.5 7v742q22 5 44 7t42 2q19 0 41 -2t43 -7v-278q0 -60 20 -82t61 -22q17 0 26 1t13 2v379q22 5 43.5 7t41.5 2q19 0 41 -2t43 -7v-493q-35 -12 -83 -23.5t-104 -11.5z" />
    <glyph glyph-name="paragraph" unicode="&#xb6;" horiz-adv-x="620" 
d="M434 725q20 0 55 -1t66 -5v-719q-9 -2 -42.5 -4t-78.5 -2v731zM260 306q-42 1 -81.5 12.5t-70 34.5t-49.5 60.5t-19 91.5q0 119 85 169.5t256 50.5v-731q-45 0 -78.5 2t-42.5 4v306z" />
    <glyph glyph-name="periodcentered" unicode="&#xb7;" horiz-adv-x="296" 
d="M148 415q20 0 41 -2t44 -5q4 -23 6 -44t2 -41t-2 -41t-6 -44q-23 -4 -44 -6t-41 -2t-41 2t-44 6q-4 23 -6 44t-2 41t2 41t6 44q23 3 44 5t41 2z" />
    <glyph glyph-name="cedilla" unicode="&#xb8;" horiz-adv-x="480" 
d="M210 -115q-10 0 -22 -1.5t-37 -9.5l-20 20l84 132h84l-49 -76q55 -2 86 -25.5t31 -61.5q0 -52 -43.5 -78.5t-117.5 -26.5q-23 0 -47.5 3t-44.5 11q0 11 5 31t16 36q19 -6 34.5 -8.5t34.5 -2.5q26 0 36 9t10 21t-10 19.5t-30 7.5z" />
    <glyph glyph-name="onesuperior" unicode="&#xb9;" 
d="M91 305q-4 17 -5 30t-1 25t1 24t5 29h81v148l-69 -27q-17 23 -28.5 49t-17.5 49l203 80h33v-299h79q4 -17 5 -29t1 -24t-1 -25t-5 -30h-281z" />
    <glyph glyph-name="ordmasculine" unicode="&#xba;" horiz-adv-x="437" 
d="M275 507q0 48 -14 73.5t-44 25.5q-29 0 -42.5 -25.5t-13.5 -73.5q0 -47 13.5 -73t42.5 -26q30 0 44 26t14 73zM22 507q0 41 11.5 79t35.5 67.5t60.5 47.5t87.5 18t88.5 -18t61.5 -47.5t36 -67.5t12 -79t-12 -79t-36 -67t-61.5 -47t-88.5 -18t-87.5 18t-60.5 47t-35.5 67
t-11.5 79z" />
    <glyph glyph-name="guillemotright" unicode="&#xbb;" horiz-adv-x="652" 
d="M21 488q46 9 95 9q24 0 46.5 -2.5t37.5 -6.5l156 -222l-156 -222q-15 -4 -37.5 -6.5t-46.5 -2.5q-49 0 -95 9l154 222zM287 488q46 9 95 9q24 0 46.5 -2.5t37.5 -6.5l156 -222l-156 -222q-15 -4 -37.5 -6.5t-46.5 -2.5q-49 0 -95 9l154 222z" />
    <glyph glyph-name="questiondown" unicode="&#xbf;" horiz-adv-x="479" 
d="M408 163q6 -13 12.5 -30t11.5 -35t9 -35.5t5 -32.5q-56 -20 -96.5 -28t-86.5 -8q-121 0 -182 55t-61 152q0 44 15.5 76.5t38 56t47.5 38.5t45 24v91q22 3 43 5t38 2q18 0 38.5 -2t40.5 -5v-188q-26 -3 -51 -9.5t-44.5 -17.5t-31.5 -27.5t-12 -39.5q0 -34 25 -51.5
t67 -17.5q19 0 34 1.5t29.5 5t30 8.5t35.5 12zM250 534q-20 0 -41 2t-44 5q-4 23 -6 44t-2 41t2 41t6 44q23 4 44 6t41 2t41 -2t44 -6q4 -23 6 -44t2 -41t-2 -41t-6 -44q-23 -3 -44 -5t-41 -2z" />
    <glyph glyph-name="Agrave" unicode="&#xc0;" horiz-adv-x="642" 
d="M178 2q-23 -4 -42 -6t-37 -2t-41.5 2.5t-52.5 7.5l224 714q26 3 48.5 5t45.5 2q19 0 41.5 -2t51.5 -5l221 -715q-57 -9 -100 -9q-20 0 -40 2t-43 6l-38 139q-28 -8 -53.5 -12t-50.5 -4q-23 0 -47 3.5t-50 10.5zM318 530l-67 -257q17 -5 32 -8t31 -3q17 0 33.5 2.5
t34.5 7.5zM115 904q18 3 42.5 4.5t50.5 1.5q53 0 92 -6l107 -123q-17 -4 -35.5 -5t-37.5 -1q-43 0 -73 6z" />
    <glyph glyph-name="Aacute" unicode="&#xc1;" horiz-adv-x="642" 
d="M178 2q-23 -4 -42 -6t-37 -2t-41.5 2.5t-52.5 7.5l224 714q26 3 48.5 5t45.5 2q19 0 41.5 -2t51.5 -5l221 -715q-57 -9 -100 -9q-20 0 -40 2t-43 6l-38 139q-28 -8 -53.5 -12t-50.5 -4q-23 0 -47 3.5t-50 10.5zM318 530l-67 -257q17 -5 32 -8t31 -3q17 0 33.5 2.5
t34.5 7.5zM556.006 904q-17.999 3 -42.498 4.5q-24.498 1.5 -50.4961 1.5q-52.9971 0 -91.9951 -6l-106.993 -123q16.999 -4 35.498 -5t37.498 -1q42.9971 0 72.9951 6z" />
    <glyph glyph-name="Acircumflex" unicode="&#xc2;" horiz-adv-x="642" 
d="M178 2q-23 -4 -42 -6t-37 -2t-41.5 2.5t-52.5 7.5l224 714q26 3 48.5 5t45.5 2q19 0 41.5 -2t51.5 -5l221 -715q-57 -9 -100 -9q-20 0 -40 2t-43 6l-38 139q-28 -8 -53.5 -12t-50.5 -4q-23 0 -47 3.5t-50 10.5zM318 530l-67 -257q17 -5 32 -8t31 -3q17 0 33.5 2.5
t34.5 7.5zM321 909q13 0 34 -1t37 -4l127 -123q-13 -4 -33 -5.5t-40 -1.5q-19 0 -38 1t-38 6l-49 48l-49 -48q-19 -5 -38 -6t-38 -1q-20 0 -40 1.5t-33 5.5l127 123q16 3 37 4t34 1z" />
    <glyph glyph-name="Atilde" unicode="&#xc3;" horiz-adv-x="642" 
d="M178 2q-23 -4 -42 -6t-37 -2t-41.5 2.5t-52.5 7.5l224 714q26 3 48.5 5t45.5 2q19 0 41.5 -2t51.5 -5l221 -715q-57 -9 -100 -9q-20 0 -40 2t-43 6l-38 139q-28 -8 -53.5 -12t-50.5 -4q-23 0 -47 3.5t-50 10.5zM318 530l-67 -257q17 -5 32 -8t31 -3q17 0 33.5 2.5
t34.5 7.5zM130 870q19 22 48.5 38t67.5 16q20 0 37.5 -5.5t36.5 -12.5q17 -7 35.5 -12.5t38.5 -5.5t35.5 5.5t36.5 25.5q16 -17 27.5 -40t18.5 -47q-18 -23 -48 -38.5t-65 -15.5q-22 0 -42 6t-38 12q-19 7 -36.5 12.5t-35.5 5.5q-20 0 -36.5 -6t-34.5 -25q-16 17 -27.5 40
t-18.5 47z" />
    <glyph glyph-name="Adieresis" unicode="&#xc4;" horiz-adv-x="642" 
d="M178 2q-23 -4 -42 -6t-37 -2t-41.5 2.5t-52.5 7.5l224 714q26 3 48.5 5t45.5 2q19 0 41.5 -2t51.5 -5l221 -715q-57 -9 -100 -9q-20 0 -40 2t-43 6l-38 139q-28 -8 -53.5 -12t-50.5 -4q-23 0 -47 3.5t-50 10.5zM318 530l-67 -257q17 -5 32 -8t31 -3q17 0 33.5 2.5
t34.5 7.5zM358 841q0 30 6 60q15 3 35 4.5t34 1.5t34 -1.5t36 -4.5q6 -30 6 -60t-6 -60q-16 -3 -36 -4.5t-34 -1.5t-34 1.5t-35 4.5q-6 30 -6 60zM133 841q0 30 6 60q15 3 35 4.5t34 1.5t34 -1.5t36 -4.5q6 -30 6 -60t-6 -60q-16 -3 -36 -4.5t-34 -1.5t-34 1.5t-35 4.5
q-6 30 -6 60z" />
    <glyph glyph-name="Aring" unicode="&#xc5;" horiz-adv-x="642" 
d="M198 796q0 54 36 84t89 30t89 -30t36 -84q0 -49 -32 -79l221 -714q-57 -9 -100 -9q-20 0 -40 2t-43 6l-38 139q-28 -8 -53.5 -12t-50.5 -4q-23 0 -47 3.5t-50 10.5l-37 -137q-23 -4 -42 -6t-37 -2t-41.5 2.5t-52.5 7.5l224 713q-31 31 -31 79zM318 530l-67 -257
q17 -5 32 -8t31 -3q17 0 33.5 2.5t34.5 7.5zM323 746q21 0 35.5 14t14.5 36q0 21 -14.5 35.5t-35.5 14.5q-22 0 -36 -14t-14 -36t14 -36t36 -14z" />
    <glyph glyph-name="AE" unicode="&#xc6;" horiz-adv-x="941" 
d="M474 166q-9 -2 -34 -5.5t-54 -3.5q-33 0 -62 5.5t-53 13.5l-88 -176q-23 -4 -46 -5t-43 -1q-35 0 -56 1.5t-38 4.5l388 719h508q4 -22 6 -41t2 -36q0 -33 -8 -79h-249v-110h197q9 -44 9 -78q0 -35 -9 -78h-197v-142h255q9 -42 9 -76q0 -37 -9 -79h-428v166zM337 304
q15 -5 34.5 -8t38.5 -3t37 2t27 5v273z" />
    <glyph glyph-name="Ccedilla" unicode="&#xc7;" horiz-adv-x="609" 
d="M310 -115q-10 0 -22 -1.5t-37 -9.5l-20 20l66 104q-63 13 -111 45t-80.5 79t-48.5 107t-16 129q0 80 23 148.5t66.5 118.5t107.5 78t145 28q48 0 91 -7t96 -28q-2 -41 -15 -79.5t-27 -67.5q-20 7 -36.5 12t-31.5 8t-30 4.5t-32 1.5q-81 0 -125.5 -54.5t-44.5 -162.5
q0 -212 178 -212q32 0 60.5 6t69.5 20q33 -72 44 -148q-29 -11 -54 -18t-48 -10.5t-45.5 -5t-46.5 -1.5q-3 0 -5.5 0.5t-5.5 0.5l-25 -40q55 -2 86 -25.5t31 -61.5q0 -52 -43.5 -78.5t-117.5 -26.5q-23 0 -47.5 3t-44.5 11q0 11 5 31t16 36q19 -6 34.5 -8.5t34.5 -2.5
q26 0 36 9t10 21t-10 19.5t-30 7.5z" />
    <glyph glyph-name="Egrave" unicode="&#xc8;" horiz-adv-x="527" 
d="M439 375q0 -35 -9 -78h-193v-142h251q9 -42 9 -76q0 -37 -9 -79h-428v719h422q4 -22 6 -41t2 -36q0 -33 -8 -79h-245v-110h193q9 -44 9 -78zM96 904q18 3 42.5 4.5t50.5 1.5q53 0 92 -6l107 -123q-17 -4 -35.5 -5t-37.5 -1q-43 0 -73 6z" />
    <glyph glyph-name="Eacute" unicode="&#xc9;" horiz-adv-x="527" 
d="M439 375q0 -35 -9 -78h-193v-142h251q9 -42 9 -76q0 -37 -9 -79h-428v719h422q4 -22 6 -41t2 -36q0 -33 -8 -79h-245v-110h193q9 -44 9 -78zM506.006 904q-17.999 3 -42.4971 4.5q-24.499 1.5 -50.4971 1.5q-52.9971 0 -91.9951 -6l-106.993 -123q16.999 -4 35.498 -5
t37.498 -1q42.9971 0 72.9951 6z" />
    <glyph glyph-name="Ecircumflex" unicode="&#xca;" horiz-adv-x="527" 
d="M439 375q0 -35 -9 -78h-193v-142h251q9 -42 9 -76q0 -37 -9 -79h-428v719h422q4 -22 6 -41t2 -36q0 -33 -8 -79h-245v-110h193q9 -44 9 -78zM273 909q13 0 34 -1t37 -4l127 -123q-13 -4 -33 -5.5t-40 -1.5q-19 0 -38 1t-38 6l-49 48l-49 -48q-19 -5 -38 -6t-38 -1
q-20 0 -40 1.5t-33 5.5l127 123q16 3 37 4t34 1z" />
    <glyph glyph-name="Edieresis" unicode="&#xcb;" horiz-adv-x="527" 
d="M439 375q0 -35 -9 -78h-193v-142h251q9 -42 9 -76q0 -37 -9 -79h-428v719h422q4 -22 6 -41t2 -36q0 -33 -8 -79h-245v-110h193q9 -44 9 -78zM309 841q0 30 6 60q15 3 35 4.5t34 1.5t34 -1.5t36 -4.5q6 -30 6 -60t-6 -60q-16 -3 -36 -4.5t-34 -1.5t-34 1.5t-35 4.5
q-6 30 -6 60zM84 841q0 30 6 60q15 3 35 4.5t34 1.5t34 -1.5t36 -4.5q6 -30 6 -60t-6 -60q-16 -3 -36 -4.5t-34 -1.5t-34 1.5t-35 4.5q-6 30 -6 60z" />
    <glyph glyph-name="Igrave" unicode="&#xcc;" horiz-adv-x="297" 
d="M149 -6q-37 0 -89 9v714q27 4 49 6t39 2q18 0 40.5 -2t48.5 -6v-714q-53 -9 -88 -9zM-57 904q18 3 42.5 4.5t50.5 1.5q53 0 92 -6l107 -123q-17 -4 -35.5 -5t-37.5 -1q-43 0 -73 6z" />
    <glyph glyph-name="Iacute" unicode="&#xcd;" horiz-adv-x="297" 
d="M149 -6q-37 0 -89 9v714q27 4 49 6t39 2q18 0 40.5 -2t48.5 -6v-714q-53 -9 -88 -9zM376.006 904q-17.999 3 -42.4971 4.5q-24.499 1.5 -50.4971 1.5q-52.9971 0 -91.9951 -6l-106.993 -123q16.999 -4 35.498 -5t37.498 -1q42.9971 0 72.9951 6z" />
    <glyph glyph-name="Icircumflex" unicode="&#xce;" horiz-adv-x="297" 
d="M149 -6q-37 0 -89 9v714q27 4 49 6t39 2q18 0 40.5 -2t48.5 -6v-714q-53 -9 -88 -9zM149 909q13 0 34 -1t37 -4l127 -123q-13 -4 -33 -5.5t-40 -1.5q-19 0 -38 1t-38 6l-49 48l-49 -48q-19 -5 -38 -6t-38 -1q-20 0 -40 1.5t-33 5.5l127 123q16 3 37 4t34 1z" />
    <glyph glyph-name="Idieresis" unicode="&#xcf;" horiz-adv-x="297" 
d="M149 -6q-37 0 -89 9v714q27 4 49 6t39 2q18 0 40.5 -2t48.5 -6v-714q-53 -9 -88 -9zM186 841q0 30 6 60q15 3 35 4.5t34 1.5t34 -1.5t36 -4.5q6 -30 6 -60t-6 -60q-16 -3 -36 -4.5t-34 -1.5t-34 1.5t-35 4.5q-6 30 -6 60zM-39 841q0 30 6 60q15 3 35 4.5t34 1.5t34 -1.5
t36 -4.5q6 -30 6 -60t-6 -60q-16 -3 -36 -4.5t-34 -1.5t-34 1.5t-35 4.5q-6 30 -6 60z" />
    <glyph glyph-name="Eth" unicode="&#xd0;" horiz-adv-x="685" 
d="M-2 363q0 25 9 55h53v299q15 2 38 4.5t50 4.5t55.5 3.5t55.5 1.5q189 0 287 -94.5t98 -281.5q0 -190 -100 -278.5t-296 -88.5q-50 0 -96.5 4.5t-91.5 10.5v306h-53q-9 30 -9 54zM237 418h93q5 -15 6.5 -28.5t1.5 -25.5t-1.5 -26t-6.5 -29h-93v-164q7 -1 16 -1h19
q39 0 73.5 9.5t59.5 33.5t39.5 65t14.5 105q0 63 -15 105t-39.5 66.5t-57.5 35t-69 10.5q-20 0 -29 -0.5t-12 -0.5v-155z" />
    <glyph glyph-name="Ntilde" unicode="&#xd1;" horiz-adv-x="659" 
d="M60 717q22 4 40 6t35 2q18 0 37.5 -2.5t33.5 -5.5l232 -392v392q26 4 47 6t38 2t36 -2t40 -6l-1 -714q-10 -3 -29 -6t-41 -3q-25 0 -45 3.5t-29 5.5l-233 390v-390q-44 -9 -80 -9t-81 9v714zM138 870q19 22 48.5 38t67.5 16q20 0 37.5 -5.5t36.5 -12.5q17 -7 35.5 -12.5
t38.5 -5.5t35.5 5.5t36.5 25.5q16 -17 27.5 -40t18.5 -47q-18 -23 -48 -38.5t-65 -15.5q-22 0 -42 6t-38 12q-19 7 -36.5 12.5t-35.5 5.5q-20 0 -36.5 -6t-34.5 -25q-16 17 -27.5 40t-18.5 47z" />
    <glyph glyph-name="Ograve" unicode="&#xd2;" horiz-adv-x="711" 
d="M41 357q0 80 18.5 148.5t57 118.5t98 78.5t141.5 28.5t141 -28.5t97.5 -78.5t57 -118.5t18.5 -148.5t-18.5 -147.5t-57 -117t-97.5 -77t-141 -27.5t-141.5 27.5t-98 77t-57 117t-18.5 147.5zM484 357q0 218 -127 218q-130 0 -130 -218q0 -109 31.5 -162.5t97.5 -53.5
q128 0 128 216zM179 904q18 3 42.5 4.5t50.5 1.5q53 0 92 -6l107 -123q-17 -4 -35.5 -5t-37.5 -1q-43 0 -73 6z" />
    <glyph glyph-name="Oacute" unicode="&#xd3;" horiz-adv-x="711" 
d="M41 357q0 80 18.5 148.5t57 118.5t98 78.5t141.5 28.5t141 -28.5t97.5 -78.5t57 -118.5t18.5 -148.5t-18.5 -147.5t-57 -117t-97.5 -77t-141 -27.5t-141.5 27.5t-98 77t-57 117t-18.5 147.5zM484 357q0 218 -127 218q-130 0 -130 -218q0 -109 31.5 -162.5t97.5 -53.5
q128 0 128 216zM586.006 904q-17.999 3 -42.498 4.5q-24.498 1.5 -50.4961 1.5q-52.9971 0 -91.9951 -6l-106.993 -123q16.999 -4 35.498 -5t37.498 -1q42.9971 0 72.9951 6z" />
    <glyph glyph-name="Ocircumflex" unicode="&#xd4;" horiz-adv-x="711" 
d="M41 357q0 80 18.5 148.5t57 118.5t98 78.5t141.5 28.5t141 -28.5t97.5 -78.5t57 -118.5t18.5 -148.5t-18.5 -147.5t-57 -117t-97.5 -77t-141 -27.5t-141.5 27.5t-98 77t-57 117t-18.5 147.5zM484 357q0 218 -127 218q-130 0 -130 -218q0 -109 31.5 -162.5t97.5 -53.5
q128 0 128 216zM355 909q13 0 34 -1t37 -4l127 -123q-13 -4 -33 -5.5t-40 -1.5q-19 0 -38 1t-38 6l-49 48l-49 -48q-19 -5 -38 -6t-38 -1q-20 0 -40 1.5t-33 5.5l127 123q16 3 37 4t34 1z" />
    <glyph glyph-name="Otilde" unicode="&#xd5;" horiz-adv-x="711" 
d="M41 357q0 80 18.5 148.5t57 118.5t98 78.5t141.5 28.5t141 -28.5t97.5 -78.5t57 -118.5t18.5 -148.5t-18.5 -147.5t-57 -117t-97.5 -77t-141 -27.5t-141.5 27.5t-98 77t-57 117t-18.5 147.5zM484 357q0 218 -127 218q-130 0 -130 -218q0 -109 31.5 -162.5t97.5 -53.5
q128 0 128 216zM164 870q19 22 48.5 38t67.5 16q20 0 37.5 -5.5t36.5 -12.5q17 -7 35.5 -12.5t38.5 -5.5t35.5 5.5t36.5 25.5q16 -17 27.5 -40t18.5 -47q-18 -23 -48 -38.5t-65 -15.5q-22 0 -42 6t-38 12q-19 7 -36.5 12.5t-35.5 5.5q-20 0 -36.5 -6t-34.5 -25
q-16 17 -27.5 40t-18.5 47z" />
    <glyph glyph-name="Odieresis" unicode="&#xd6;" horiz-adv-x="711" 
d="M41 357q0 80 18.5 148.5t57 118.5t98 78.5t141.5 28.5t141 -28.5t97.5 -78.5t57 -118.5t18.5 -148.5t-18.5 -147.5t-57 -117t-97.5 -77t-141 -27.5t-141.5 27.5t-98 77t-57 117t-18.5 147.5zM484 357q0 218 -127 218q-130 0 -130 -218q0 -109 31.5 -162.5t97.5 -53.5
q128 0 128 216zM392 841q0 30 6 60q15 3 35 4.5t34 1.5t34 -1.5t36 -4.5q6 -30 6 -60t-6 -60q-16 -3 -36 -4.5t-34 -1.5t-34 1.5t-35 4.5q-6 30 -6 60zM167 841q0 30 6 60q15 3 35 4.5t34 1.5t34 -1.5t36 -4.5q6 -30 6 -60t-6 -60q-16 -3 -36 -4.5t-34 -1.5t-34 1.5t-35 4.5
q-6 30 -6 60z" />
    <glyph glyph-name="multiply" unicode="&#xd7;" horiz-adv-x="579" 
d="M84 455q10 17 22 31.5t23 25.5q11 12 28 25t29 20l104 -105l102 105q12 -7 29 -20t28 -25q11 -11 23 -25.5t22 -31.5l-106 -102l106 -104q-10 -17 -22 -31.5t-23 -25.5q-11 -12 -27.5 -24.5t-28.5 -19.5l-103 107l-104 -107q-12 7 -29 20t-28 25q-11 11 -23 25.5
t-22 31.5l107 103z" />
    <glyph glyph-name="Oslash" unicode="&#xd8;" horiz-adv-x="727" 
d="M51 357q0 80 18.5 148.5t57 118.5t98 78.5t141.5 28.5q55 0 100 -13.5t80 -37.5l29 39q7 2 20.5 3t30.5 1t33 -1t27 -3l-76 -102q35 -50 52.5 -116t17.5 -144q0 -80 -18.5 -147.5t-57 -117t-97.5 -77t-141 -27.5q-112 0 -184 52l-30 -40q-7 -2 -20.5 -3t-30.5 -1t-33 1
t-27 3l77 104q-35 48 -51 112.5t-16 140.5zM494 357q0 50 -8 93l-204 -275q31 -34 84 -34q128 0 128 216zM237 357q0 -48 6 -85l202 272q-31 31 -78 31q-130 0 -130 -218z" />
    <glyph glyph-name="Ugrave" unicode="&#xd9;" horiz-adv-x="662" 
d="M331 -11q-81 0 -134.5 22t-84.5 63.5t-43.5 100.5t-12.5 133v409q29 4 50 5.5t40 1.5q17 0 37.5 -1.5t49.5 -5.5v-388q0 -50 4 -85t14.5 -57t29.5 -31.5t50 -9.5t50.5 9.5t30 31.5t14 57t3.5 85v388q30 4 50.5 5.5t37.5 1.5q18 0 39 -1.5t50 -5.5v-409q0 -74 -12.5 -133
t-43.5 -100.5t-84.5 -63.5t-134.5 -22zM125 904q18 3 42.5 4.5t50.5 1.5q53 0 92 -6l107 -123q-17 -4 -35.5 -5t-37.5 -1q-43 0 -73 6z" />
    <glyph glyph-name="Uacute" unicode="&#xda;" horiz-adv-x="662" 
d="M331 -11q-81 0 -134.5 22t-84.5 63.5t-43.5 100.5t-12.5 133v409q29 4 50 5.5t40 1.5q17 0 37.5 -1.5t49.5 -5.5v-388q0 -50 4 -85t14.5 -57t29.5 -31.5t50 -9.5t50.5 9.5t30 31.5t14 57t3.5 85v388q30 4 50.5 5.5t37.5 1.5q18 0 39 -1.5t50 -5.5v-409q0 -74 -12.5 -133
t-43.5 -100.5t-84.5 -63.5t-134.5 -22zM562.006 904q-17.999 3 -42.498 4.5q-24.498 1.5 -50.4961 1.5q-52.9971 0 -91.9951 -6l-106.993 -123q16.999 -4 35.498 -5t37.498 -1q42.9971 0 72.9951 6z" />
    <glyph glyph-name="Ucircumflex" unicode="&#xdb;" horiz-adv-x="662" 
d="M331 -11q-81 0 -134.5 22t-84.5 63.5t-43.5 100.5t-12.5 133v409q29 4 50 5.5t40 1.5q17 0 37.5 -1.5t49.5 -5.5v-388q0 -50 4 -85t14.5 -57t29.5 -31.5t50 -9.5t50.5 9.5t30 31.5t14 57t3.5 85v388q30 4 50.5 5.5t37.5 1.5q18 0 39 -1.5t50 -5.5v-409q0 -74 -12.5 -133
t-43.5 -100.5t-84.5 -63.5t-134.5 -22zM331 909q13 0 34 -1t37 -4l127 -123q-13 -4 -33 -5.5t-40 -1.5q-19 0 -38 1t-38 6l-49 48l-49 -48q-19 -5 -38 -6t-38 -1q-20 0 -40 1.5t-33 5.5l127 123q16 3 37 4t34 1z" />
    <glyph glyph-name="Udieresis" unicode="&#xdc;" horiz-adv-x="662" 
d="M331 -11q-81 0 -134.5 22t-84.5 63.5t-43.5 100.5t-12.5 133v409q29 4 50 5.5t40 1.5q17 0 37.5 -1.5t49.5 -5.5v-388q0 -50 4 -85t14.5 -57t29.5 -31.5t50 -9.5t50.5 9.5t30 31.5t14 57t3.5 85v388q30 4 50.5 5.5t37.5 1.5q18 0 39 -1.5t50 -5.5v-409q0 -74 -12.5 -133
t-43.5 -100.5t-84.5 -63.5t-134.5 -22zM368 841q0 30 6 60q15 3 35 4.5t34 1.5t34 -1.5t36 -4.5q6 -30 6 -60t-6 -60q-16 -3 -36 -4.5t-34 -1.5t-34 1.5t-35 4.5q-6 30 -6 60zM143 841q0 30 6 60q15 3 35 4.5t34 1.5t34 -1.5t36 -4.5q6 -30 6 -60t-6 -60q-16 -3 -36 -4.5
t-34 -1.5t-34 1.5t-35 4.5q-6 30 -6 60z" />
    <glyph glyph-name="Yacute" unicode="&#xdd;" horiz-adv-x="622" 
d="M433 717q23 4 48 6t51 2q17 0 44 -2.5t46 -5.5l-223 -459v-255q-53 -9 -88 -9q-37 0 -89 9v255q-26 54 -54.5 112.5l-57 117t-56.5 117t-54 112.5q17 3 46 5.5t55 2.5q21 0 46.5 -2.5t44.5 -5.5l123 -278zM546.006 904q-17.999 3 -42.4971 4.5q-24.499 1.5 -50.4971 1.5
q-52.9971 0 -91.9951 -6l-106.993 -123q16.999 -4 35.498 -5t37.498 -1q42.9971 0 72.9951 6z" />
    <glyph glyph-name="Thorn" unicode="&#xde;" horiz-adv-x="587" 
d="M235 616h28q49 0 100.5 -9t94 -36t69.5 -76t27 -129q0 -71 -22 -118t-58.5 -76t-83.5 -41t-97 -12q-14 0 -32 1.5t-26 3.5v-121q-53 -9 -87 -9q-36 0 -88 9v713q52 9 88 9q34 0 87 -9v-100zM235 269q5 -2 16 -3t24 -1q43 0 70 24t27 75q0 30 -8.5 50t-23.5 32t-35 17
t-42 5h-13t-15 -1v-198z" />
    <glyph glyph-name="germandbls" unicode="&#xdf;" horiz-adv-x="940" 
d="M305 324q30 -8 54.5 -19.5t42 -29.5t27.5 -44t10 -63q0 -38 -15.5 -71t-46 -57t-75 -38t-102.5 -14q-48 0 -89 7t-87 24q5 68 37 138q32 -15 67 -22.5t70 -7.5q12 0 25 1t23 4.5t16.5 9.5t6.5 16q0 13 -13 19.5t-30 11.5l-68 19q-53 15 -88 51t-35 98q0 39 16 71t45 54.5
t68.5 34.5t87.5 12q38 0 83 -8t89 -23q-2 -32 -13 -68.5t-25 -64.5q-27 11 -65 20t-70 9q-47 0 -47 -26q0 -11 11 -17t25 -10zM775 324q30 -8 54.5 -19.5t42 -29.5t27.5 -44t10 -63q0 -38 -15.5 -71t-46 -57t-75 -38t-102.5 -14q-48 0 -89 7t-87 24q5 68 37 138
q32 -15 67 -22.5t70 -7.5q12 0 25 1t23 4.5t16.5 9.5t6.5 16q0 13 -13 19.5t-30 11.5l-68 19q-53 15 -88 51t-35 98q0 39 16 71t45 54.5t68.5 34.5t87.5 12q38 0 83 -8t89 -23q-2 -32 -13 -68.5t-25 -64.5q-27 11 -65 20t-70 9q-47 0 -47 -26q0 -11 11 -17t25 -10z" />
    <glyph glyph-name="agrave" unicode="&#xe0;" horiz-adv-x="523" 
d="M30 169q0 49 21 81t54 51t73 26.5t78 7.5h61q-1 18 -10 30t-23 18.5t-31 9t-35 2.5q-24 0 -56 -5.5t-66 -17.5q-9 17 -15.5 31t-10 28.5t-5 30t-1.5 35.5q48 16 95.5 24t85.5 8q52 0 94 -12.5t71.5 -38.5t45.5 -66.5t16 -96.5v-293q-38 -11 -92 -22t-114 -11
q-52 0 -95.5 9.5t-74.5 30.5t-48.5 55.5t-17.5 84.5zM266 113q9 0 26 2t25 4v110h-57q-35 0 -59 -15t-24 -42q0 -20 9 -31.5t22.5 -17.5t29 -8t28.5 -2zM76 709q18 3 42.5 4.5t50.5 1.5q53 0 92 -6l107 -123q-17 -4 -35.5 -5t-37.5 -1q-43 0 -73 6z" />
    <glyph glyph-name="aacute" unicode="&#xe1;" horiz-adv-x="523" 
d="M30 169q0 49 21 81t54 51t73 26.5t78 7.5h61q-1 18 -10 30t-23 18.5t-31 9t-35 2.5q-24 0 -56 -5.5t-66 -17.5q-9 17 -15.5 31t-10 28.5t-5 30t-1.5 35.5q48 16 95.5 24t85.5 8q52 0 94 -12.5t71.5 -38.5t45.5 -66.5t16 -96.5v-293q-38 -11 -92 -22t-114 -11
q-52 0 -95.5 9.5t-74.5 30.5t-48.5 55.5t-17.5 84.5zM266 113q9 0 26 2t25 4v110h-57q-35 0 -59 -15t-24 -42q0 -20 9 -31.5t22.5 -17.5t29 -8t28.5 -2zM471.006 709q-17.999 3 -42.4971 4.5q-24.499 1.5 -50.4971 1.5q-52.9971 0 -91.9951 -6l-106.993 -123
q16.999 -4 35.498 -5t37.498 -1q42.9971 0 72.9951 6z" />
    <glyph glyph-name="acircumflex" unicode="&#xe2;" horiz-adv-x="523" 
d="M30 169q0 49 21 81t54 51t73 26.5t78 7.5h61q-1 18 -10 30t-23 18.5t-31 9t-35 2.5q-24 0 -56 -5.5t-66 -17.5q-9 17 -15.5 31t-10 28.5t-5 30t-1.5 35.5q48 16 95.5 24t85.5 8q52 0 94 -12.5t71.5 -38.5t45.5 -66.5t16 -96.5v-293q-38 -11 -92 -22t-114 -11
q-52 0 -95.5 9.5t-74.5 30.5t-48.5 55.5t-17.5 84.5zM266 113q9 0 26 2t25 4v110h-57q-35 0 -59 -15t-24 -42q0 -20 9 -31.5t22.5 -17.5t29 -8t28.5 -2zM253 714q13 0 34 -1t37 -4l127 -123q-13 -4 -33 -5.5t-40 -1.5q-19 0 -38 1t-38 6l-49 48l-49 -48q-19 -5 -38 -6
t-38 -1q-20 0 -40 1.5t-33 5.5l127 123q16 3 37 4t34 1z" />
    <glyph glyph-name="atilde" unicode="&#xe3;" horiz-adv-x="523" 
d="M30 169q0 49 21 81t54 51t73 26.5t78 7.5h61q-1 18 -10 30t-23 18.5t-31 9t-35 2.5q-24 0 -56 -5.5t-66 -17.5q-9 17 -15.5 31t-10 28.5t-5 30t-1.5 35.5q48 16 95.5 24t85.5 8q52 0 94 -12.5t71.5 -38.5t45.5 -66.5t16 -96.5v-293q-38 -11 -92 -22t-114 -11
q-52 0 -95.5 9.5t-74.5 30.5t-48.5 55.5t-17.5 84.5zM266 113q9 0 26 2t25 4v110h-57q-35 0 -59 -15t-24 -42q0 -20 9 -31.5t22.5 -17.5t29 -8t28.5 -2zM65 675q19 22 48.5 38t67.5 16q20 0 37.5 -5.5t36.5 -12.5q17 -7 35.5 -12.5t38.5 -5.5t35.5 5.5t36.5 25.5
q16 -17 27.5 -40t18.5 -47q-18 -23 -48 -38.5t-65 -15.5q-22 0 -42 6t-38 12q-19 7 -36.5 12.5t-35.5 5.5q-20 0 -36.5 -6t-34.5 -25q-16 17 -27.5 40t-18.5 47z" />
    <glyph glyph-name="adieresis" unicode="&#xe4;" horiz-adv-x="523" 
d="M30 169q0 49 21 81t54 51t73 26.5t78 7.5h61q-1 18 -10 30t-23 18.5t-31 9t-35 2.5q-24 0 -56 -5.5t-66 -17.5q-9 17 -15.5 31t-10 28.5t-5 30t-1.5 35.5q48 16 95.5 24t85.5 8q52 0 94 -12.5t71.5 -38.5t45.5 -66.5t16 -96.5v-293q-38 -11 -92 -22t-114 -11
q-52 0 -95.5 9.5t-74.5 30.5t-48.5 55.5t-17.5 84.5zM266 113q9 0 26 2t25 4v110h-57q-35 0 -59 -15t-24 -42q0 -20 9 -31.5t22.5 -17.5t29 -8t28.5 -2zM298 646q0 30 6 60q15 3 35 4.5t34 1.5t34 -1.5t36 -4.5q6 -30 6 -60t-6 -60q-16 -3 -36 -4.5t-34 -1.5t-34 1.5
t-35 4.5q-6 30 -6 60zM73 646q0 30 6 60q15 3 35 4.5t34 1.5t34 -1.5t36 -4.5q6 -30 6 -60t-6 -60q-16 -3 -36 -4.5t-34 -1.5t-34 1.5t-35 4.5q-6 30 -6 60z" />
    <glyph glyph-name="aring" unicode="&#xe5;" horiz-adv-x="523" 
d="M30 169q0 49 21 81t54 51t73 26.5t78 7.5h61q-1 18 -10 30t-23 18.5t-31 9t-35 2.5q-24 0 -56 -5.5t-66 -17.5q-9 17 -15.5 31t-10 28.5t-5 30t-1.5 35.5q48 16 95.5 24t85.5 8q52 0 94 -12.5t71.5 -38.5t45.5 -66.5t16 -96.5v-293q-38 -11 -92 -22t-114 -11
q-52 0 -95.5 9.5t-74.5 30.5t-48.5 55.5t-17.5 84.5zM266 113q9 0 26 2t25 4v110h-57q-35 0 -59 -15t-24 -42q0 -20 9 -31.5t22.5 -17.5t29 -8t28.5 -2zM146 685q0 54 36 84t89 30t89 -30t36 -84t-36 -84t-89 -30t-89 30t-36 84zM271 635q21 0 35.5 14t14.5 36
q0 21 -14.5 35.5t-35.5 14.5q-22 0 -36 -14t-14 -36t14 -36t36 -14z" />
    <glyph glyph-name="ae" unicode="&#xe6;" horiz-adv-x="811" 
d="M328 124q-11 26 -16.5 50t-6.5 50h-45q-35 0 -59 -13.5t-24 -40.5q0 -20 9 -31t22.5 -17t29 -7.5t28.5 -1.5q22 0 39 4t23 7zM554 402q-32 0 -54 -19t-28 -60h160q-4 35 -22.5 57t-55.5 22zM218 395q-24 0 -56 -5.5t-66 -17.5q-9 17 -15.5 31t-10 28.5t-5 30t-1.5 35.5
q48 16 95.5 24t85.5 8q50 0 90.5 -11.5t69.5 -35.5q30 22 68.5 34.5t86.5 12.5q53 0 94.5 -18t70.5 -49.5t44.5 -76t15.5 -96.5q0 -27 -2 -43.5t-4 -30.5h-307q8 -47 38.5 -66t74.5 -19q29 0 65 7t71 21q14 -26 24.5 -62t11.5 -75q-89 -33 -182 -33q-59 0 -95 11t-60 23
q-26 -14 -66.5 -23.5t-94.5 -9.5q-50 0 -91.5 9t-72.5 30t-48 55t-17 84q0 49 21 80.5t54 50t73 25.5t78 7h61q0 20 -8.5 33t-23 20t-32 9.5t-35.5 2.5z" />
    <glyph glyph-name="ccedilla" unicode="&#xe7;" horiz-adv-x="471" 
d="M31 258q0 60 17 110t50 85.5t81 55.5t110 20q21 0 40 -1t37.5 -4t38 -9t43.5 -15q2 -34 -6 -67.5t-25 -65.5q-17 6 -30.5 9.5t-25.5 5.5t-23.5 2.5t-24.5 0.5q-48 0 -79.5 -28.5t-31.5 -98.5q0 -37 9.5 -61.5t25 -38.5t36 -20t43.5 -6q29 0 50.5 5t50.5 16
q17 -27 27 -60.5t10 -76.5q-46 -18 -84 -23t-76 -5q-64 0 -113 19t-82.5 54.5t-50.5 85t-17 111.5zM215 -115q-10 0 -22 -1.5t-37 -9.5l-20 20l84 132h84l-49 -76q55 -2 86 -25.5t31 -61.5q0 -52 -43.5 -78.5t-117.5 -26.5q-23 0 -47.5 3t-44.5 11q0 11 5 31t16 36
q19 -6 34.5 -8.5t34.5 -2.5q26 0 36 9t10 21t-10 19.5t-30 7.5z" />
    <glyph glyph-name="egrave" unicode="&#xe8;" horiz-adv-x="538" 
d="M201 205q11 -41 38.5 -58t72.5 -17q29 0 65 7t71 21q14 -26 24.5 -62t11.5 -75q-89 -33 -182 -33q-72 0 -123.5 20t-84 55.5t-48 84.5t-15.5 107q0 57 16 107t48 87t80 58.5t112 21.5q53 0 94.5 -18t70.5 -49.5t44.5 -76t15.5 -96.5q0 -27 -2.5 -48.5t-4.5 -35.5h-304z
M281 402q-32 0 -55 -20t-27 -62h160q-2 35 -21.5 58.5t-56.5 23.5zM93 709q18 3 42.5 4.5t50.5 1.5q53 0 92 -6l107 -123q-17 -4 -35.5 -5t-37.5 -1q-43 0 -73 6z" />
    <glyph glyph-name="eacute" unicode="&#xe9;" horiz-adv-x="538" 
d="M201 205q11 -41 38.5 -58t72.5 -17q29 0 65 7t71 21q14 -26 24.5 -62t11.5 -75q-89 -33 -182 -33q-72 0 -123.5 20t-84 55.5t-48 84.5t-15.5 107q0 57 16 107t48 87t80 58.5t112 21.5q53 0 94.5 -18t70.5 -49.5t44.5 -76t15.5 -96.5q0 -27 -2.5 -48.5t-4.5 -35.5h-304z
M281 402q-32 0 -55 -20t-27 -62h160q-2 35 -21.5 58.5t-56.5 23.5zM506.006 709q-17.999 3 -42.4971 4.5q-24.499 1.5 -50.4971 1.5q-52.9971 0 -91.9951 -6l-106.993 -123q16.999 -4 35.498 -5t37.498 -1q42.9971 0 72.9951 6z" />
    <glyph glyph-name="ecircumflex" unicode="&#xea;" horiz-adv-x="538" 
d="M201 205q11 -41 38.5 -58t72.5 -17q29 0 65 7t71 21q14 -26 24.5 -62t11.5 -75q-89 -33 -182 -33q-72 0 -123.5 20t-84 55.5t-48 84.5t-15.5 107q0 57 16 107t48 87t80 58.5t112 21.5q53 0 94.5 -18t70.5 -49.5t44.5 -76t15.5 -96.5q0 -27 -2.5 -48.5t-4.5 -35.5h-304z
M281 402q-32 0 -55 -20t-27 -62h160q-2 35 -21.5 58.5t-56.5 23.5zM286 714q13 0 34 -1t37 -4l127 -123q-13 -4 -33 -5.5t-40 -1.5q-19 0 -38 1t-38 6l-49 48l-49 -48q-19 -5 -38 -6t-38 -1q-20 0 -40 1.5t-33 5.5l127 123q16 3 37 4t34 1z" />
    <glyph glyph-name="edieresis" unicode="&#xeb;" horiz-adv-x="538" 
d="M201 205q11 -41 38.5 -58t72.5 -17q29 0 65 7t71 21q14 -26 24.5 -62t11.5 -75q-89 -33 -182 -33q-72 0 -123.5 20t-84 55.5t-48 84.5t-15.5 107q0 57 16 107t48 87t80 58.5t112 21.5q53 0 94.5 -18t70.5 -49.5t44.5 -76t15.5 -96.5q0 -27 -2.5 -48.5t-4.5 -35.5h-304z
M281 402q-32 0 -55 -20t-27 -62h160q-2 35 -21.5 58.5t-56.5 23.5zM325 646q0 30 6 60q15 3 35 4.5t34 1.5t34 -1.5t36 -4.5q6 -30 6 -60t-6 -60q-16 -3 -36 -4.5t-34 -1.5t-34 1.5t-35 4.5q-6 30 -6 60zM100 646q0 30 6 60q15 3 35 4.5t34 1.5t34 -1.5t36 -4.5q6 -30 6 -60
t-6 -60q-16 -3 -36 -4.5t-34 -1.5t-34 1.5t-35 4.5q-6 30 -6 60z" />
    <glyph glyph-name="igrave" unicode="&#xec;" horiz-adv-x="285" 
d="M-50 709q18 3 42.5 4.5t50.5 1.5q53 0 92 -6l107 -123q-17 -4 -35.5 -5t-37.5 -1q-43 0 -73 6zM227 1q-26 -4 -47 -6t-38 -2t-38 2t-46 6v516q22 5 43.5 7t41.5 2q19 0 41 -2t43 -7v-516z" />
    <glyph glyph-name="iacute" unicode="&#xed;" horiz-adv-x="285" 
d="M366.006 709q-17.999 3 -42.4971 4.5q-24.499 1.5 -50.4971 1.5q-52.9971 0 -91.9951 -6l-106.993 -123q16.999 -4 35.498 -5t37.498 -1q42.9971 0 72.9951 6zM227 1q-26 -4 -47 -6t-38 -2t-38 2t-46 6v516q22 5 43.5 7t41.5 2q19 0 41 -2t43 -7v-516z" />
    <glyph glyph-name="icircumflex" unicode="&#xee;" horiz-adv-x="285" 
d="M143 714q13 0 34 -1t37 -4l127 -123q-13 -4 -33 -5.5t-40 -1.5q-19 0 -38 1t-38 6l-49 48l-49 -48q-19 -5 -38 -6t-38 -1q-20 0 -40 1.5t-33 5.5l127 123q16 3 37 4t34 1zM227 1q-26 -4 -47 -6t-38 -2t-38 2t-46 6v516q22 5 43.5 7t41.5 2q19 0 41 -2t43 -7v-516z" />
    <glyph glyph-name="idieresis" unicode="&#xef;" horiz-adv-x="285" 
d="M180 646q0 30 6 60q15 3 35 4.5t34 1.5t34 -1.5t36 -4.5q6 -30 6 -60t-6 -60q-16 -3 -36 -4.5t-34 -1.5t-34 1.5t-35 4.5q-6 30 -6 60zM-45 646q0 30 6 60q15 3 35 4.5t34 1.5t34 -1.5t36 -4.5q6 -30 6 -60t-6 -60q-16 -3 -36 -4.5t-34 -1.5t-34 1.5t-35 4.5q-6 30 -6 60
zM227 1q-26 -4 -47 -6t-38 -2t-38 2t-46 6v516q22 5 43.5 7t41.5 2q19 0 41 -2t43 -7v-516z" />
    <glyph glyph-name="eth" unicode="&#xf0;" horiz-adv-x="568" 
d="M233 529q81 0 138.5 -19t94.5 -53.5t54 -83.5t17 -109q0 -63 -17.5 -114t-55 -87t-97 -55.5t-143.5 -19.5q-49 0 -87.5 3.5t-80.5 9.5v218h-46q-5 12 -6 25t-1 22q0 8 1 21t6 25h46v203q42 5 89 9.5t88 4.5zM225 312h61q5 -12 6 -25t1 -21q0 -9 -1 -22t-6 -25h-61v-88
q4 0 10.5 -1t19.5 -1q56 0 83.5 31.5t27.5 103.5q0 64 -27 93.5t-77 29.5q-12 0 -22 -1t-15 -2v-72z" />
    <glyph glyph-name="ntilde" unicode="&#xf1;" horiz-adv-x="565" 
d="M266 527q44 0 88 -7.5t79.5 -31.5t58 -69t22.5 -119v-299q-26 -5 -47 -6.5t-37 -1.5q-17 0 -38 1.5t-47 6.5v281q0 53 -20 76t-61 23q-11 0 -23.5 -2t-15.5 -4v-374q-26 -5 -47 -6.5t-37 -1.5q-17 0 -38 1.5t-47 6.5v491q35 12 85 23.5t125 11.5zM89 675q19 22 48.5 38
t67.5 16q20 0 37.5 -5.5t36.5 -12.5q17 -7 35.5 -12.5t38.5 -5.5t35.5 5.5t36.5 25.5q16 -17 27.5 -40t18.5 -47q-18 -23 -48 -38.5t-65 -15.5q-22 0 -42 6t-38 12q-19 7 -36.5 12.5t-35.5 5.5q-20 0 -36.5 -6t-34.5 -25q-16 17 -27.5 40t-18.5 47z" />
    <glyph glyph-name="ograve" unicode="&#xf2;" horiz-adv-x="577" 
d="M31 256q0 61 16.5 111.5t49 86.5t80.5 55.5t111 19.5q64 0 112 -19.5t80.5 -55.5t49 -86.5t16.5 -111.5q0 -60 -16.5 -109.5t-49 -85t-80.5 -54.5t-112 -19q-63 0 -111 19t-80.5 54.5t-49 85t-16.5 109.5zM375 256q0 64 -21.5 98t-65.5 34t-65 -34t-21 -98q0 -63 21 -97
t65 -34t65.5 34t21.5 97zM102 709q18 3 42.5 4.5t50.5 1.5q53 0 92 -6l107 -123q-17 -4 -35.5 -5t-37.5 -1q-43 0 -73 6z" />
    <glyph glyph-name="oacute" unicode="&#xf3;" horiz-adv-x="577" 
d="M31 256q0 61 16.5 111.5t49 86.5t80.5 55.5t111 19.5q64 0 112 -19.5t80.5 -55.5t49 -86.5t16.5 -111.5q0 -60 -16.5 -109.5t-49 -85t-80.5 -54.5t-112 -19q-63 0 -111 19t-80.5 54.5t-49 85t-16.5 109.5zM375 256q0 64 -21.5 98t-65.5 34t-65 -34t-21 -98q0 -63 21 -97
t65 -34t65.5 34t21.5 97zM506.006 709q-17.999 3 -42.4971 4.5q-24.499 1.5 -50.4971 1.5q-52.9971 0 -91.9951 -6l-106.993 -123q16.999 -4 35.498 -5t37.498 -1q42.9971 0 72.9951 6z" />
    <glyph glyph-name="ocircumflex" unicode="&#xf4;" horiz-adv-x="577" 
d="M31 256q0 61 16.5 111.5t49 86.5t80.5 55.5t111 19.5q64 0 112 -19.5t80.5 -55.5t49 -86.5t16.5 -111.5q0 -60 -16.5 -109.5t-49 -85t-80.5 -54.5t-112 -19q-63 0 -111 19t-80.5 54.5t-49 85t-16.5 109.5zM375 256q0 64 -21.5 98t-65.5 34t-65 -34t-21 -98q0 -63 21 -97
t65 -34t65.5 34t21.5 97zM288 714q13 0 34 -1t37 -4l127 -123q-13 -4 -33 -5.5t-40 -1.5q-19 0 -38 1t-38 6l-49 48l-49 -48q-19 -5 -38 -6t-38 -1q-20 0 -40 1.5t-33 5.5l127 123q16 3 37 4t34 1z" />
    <glyph glyph-name="otilde" unicode="&#xf5;" horiz-adv-x="577" 
d="M31 256q0 61 16.5 111.5t49 86.5t80.5 55.5t111 19.5q64 0 112 -19.5t80.5 -55.5t49 -86.5t16.5 -111.5q0 -60 -16.5 -109.5t-49 -85t-80.5 -54.5t-112 -19q-63 0 -111 19t-80.5 54.5t-49 85t-16.5 109.5zM375 256q0 64 -21.5 98t-65.5 34t-65 -34t-21 -98q0 -63 21 -97
t65 -34t65.5 34t21.5 97zM97 675q19 22 48.5 38t67.5 16q20 0 37.5 -5.5t36.5 -12.5q17 -7 35.5 -12.5t38.5 -5.5t35.5 5.5t36.5 25.5q16 -17 27.5 -40t18.5 -47q-18 -23 -48 -38.5t-65 -15.5q-22 0 -42 6t-38 12q-19 7 -36.5 12.5t-35.5 5.5q-20 0 -36.5 -6t-34.5 -25
q-16 17 -27.5 40t-18.5 47z" />
    <glyph glyph-name="odieresis" unicode="&#xf6;" horiz-adv-x="577" 
d="M31 256q0 61 16.5 111.5t49 86.5t80.5 55.5t111 19.5q64 0 112 -19.5t80.5 -55.5t49 -86.5t16.5 -111.5q0 -60 -16.5 -109.5t-49 -85t-80.5 -54.5t-112 -19q-63 0 -111 19t-80.5 54.5t-49 85t-16.5 109.5zM375 256q0 64 -21.5 98t-65.5 34t-65 -34t-21 -98q0 -63 21 -97
t65 -34t65.5 34t21.5 97zM325 646q0 30 6 60q15 3 35 4.5t34 1.5t34 -1.5t36 -4.5q6 -30 6 -60t-6 -60q-16 -3 -36 -4.5t-34 -1.5t-34 1.5t-35 4.5q-6 30 -6 60zM100 646q0 30 6 60q15 3 35 4.5t34 1.5t34 -1.5t36 -4.5q6 -30 6 -60t-6 -60q-16 -3 -36 -4.5t-34 -1.5
t-34 1.5t-35 4.5q-6 30 -6 60z" />
    <glyph glyph-name="divide" unicode="&#xf7;" horiz-adv-x="579" 
d="M198 571q0 38 27 65t65 27t65 -27t27 -65t-27 -65t-65 -27t-65 27t-27 65zM199 164q0 38 27 65t65 27t65 -27t27 -65t-27 -65t-65 -27t-65 27t-27 65zM71 296q-3 20 -5 36.5t-2 34.5q0 17 2 34.5t5 37.5h436q4 -20 6 -37t2 -34t-2 -34.5t-6 -37.5h-436z" />
    <glyph glyph-name="oslash" unicode="&#xf8;" horiz-adv-x="577" 
d="M487 444q58 -72 58 -188q0 -60 -16.5 -109.5t-49 -85t-80.5 -54.5t-112 -19q-83 0 -142 34l-18 -22q-17 -3 -50 -3q-17 0 -29.5 1t-17.5 2l57 71q-57 69 -57 185q0 61 16.5 111.5t49 86.5t80.5 55.5t111 19.5q43 0 78.5 -9t64.5 -26l19 23q16 3 50 3q17 0 29.5 -1
t17.5 -2zM378 256q0 29 -4 49l-138 -171q19 -16 51 -16q46 0 68.5 36t22.5 102zM197 256q0 -25 3 -46l137 169q-22 16 -50 16q-46 0 -68 -36t-22 -103z" />
    <glyph glyph-name="ugrave" unicode="&#xf9;" horiz-adv-x="565" 
d="M509 24q-17 -6 -40.5 -12t-50 -11.5t-54.5 -8.5t-55 -3q-51 0 -98 8t-82.5 32.5t-56.5 71t-21 124.5v292q22 5 43.5 7t41.5 2q19 0 41 -2t43 -7v-278q0 -60 20 -82t61 -22q17 0 26 1t13 2v379q22 5 43.5 7t41.5 2q19 0 41 -2t43 -7v-493zM88 709q18 3 42.5 4.5t50.5 1.5
q53 0 92 -6l107 -123q-17 -4 -35.5 -5t-37.5 -1q-43 0 -73 6z" />
    <glyph glyph-name="uacute" unicode="&#xfa;" horiz-adv-x="565" 
d="M509 24q-17 -6 -40.5 -12t-50 -11.5t-54.5 -8.5t-55 -3q-51 0 -98 8t-82.5 32.5t-56.5 71t-21 124.5v292q22 5 43.5 7t41.5 2q19 0 41 -2t43 -7v-278q0 -60 20 -82t61 -22q17 0 26 1t13 2v379q22 5 43.5 7t41.5 2q19 0 41 -2t43 -7v-493zM499.006 709
q-17.999 3 -42.4971 4.5q-24.499 1.5 -50.4971 1.5q-52.9971 0 -91.9951 -6l-106.993 -123q16.999 -4 35.498 -5t37.498 -1q42.9971 0 72.9951 6z" />
    <glyph glyph-name="ucircumflex" unicode="&#xfb;" horiz-adv-x="565" 
d="M509 24q-17 -6 -40.5 -12t-50 -11.5t-54.5 -8.5t-55 -3q-51 0 -98 8t-82.5 32.5t-56.5 71t-21 124.5v292q22 5 43.5 7t41.5 2q19 0 41 -2t43 -7v-278q0 -60 20 -82t61 -22q17 0 26 1t13 2v379q22 5 43.5 7t41.5 2q19 0 41 -2t43 -7v-493zM280 714q13 0 34 -1t37 -4
l127 -123q-13 -4 -33 -5.5t-40 -1.5q-19 0 -38 1t-38 6l-49 48l-49 -48q-19 -5 -38 -6t-38 -1q-20 0 -40 1.5t-33 5.5l127 123q16 3 37 4t34 1z" />
    <glyph glyph-name="udieresis" unicode="&#xfc;" horiz-adv-x="565" 
d="M509 24q-17 -6 -40.5 -12t-50 -11.5t-54.5 -8.5t-55 -3q-51 0 -98 8t-82.5 32.5t-56.5 71t-21 124.5v292q22 5 43.5 7t41.5 2q19 0 41 -2t43 -7v-278q0 -60 20 -82t61 -22q17 0 26 1t13 2v379q22 5 43.5 7t41.5 2q19 0 41 -2t43 -7v-493zM317 646q0 30 6 60q15 3 35 4.5
t34 1.5t34 -1.5t36 -4.5q6 -30 6 -60t-6 -60q-16 -3 -36 -4.5t-34 -1.5t-34 1.5t-35 4.5q-6 30 -6 60zM92 646q0 30 6 60q15 3 35 4.5t34 1.5t34 -1.5t36 -4.5q6 -30 6 -60t-6 -60q-16 -3 -36 -4.5t-34 -1.5t-34 1.5t-35 4.5q-6 30 -6 60z" />
    <glyph glyph-name="yacute" unicode="&#xfd;" horiz-adv-x="564" 
d="M384 517q8 2 30.5 4t48.5 2q33 0 59 -2t37 -4l-193 -335v-181q-26 -4 -47 -6t-38 -2t-38 2t-46 6v181l-192 335q11 2 38.5 4t60.5 2q26 0 51 -2t33 -4l98 -197zM500.006 709q-17.999 3 -42.4971 4.5q-24.499 1.5 -50.4971 1.5q-52.9971 0 -91.9951 -6l-106.993 -123
q16.999 -4 35.498 -5t37.498 -1q42.9971 0 72.9951 6z" />
    <glyph glyph-name="thorn" unicode="&#xfe;" horiz-adv-x="516" 
d="M56 589q26 5 45.5 6.5t36.5 1.5q16 0 36.5 -1.5t46.5 -6.5v-80h23q46 0 90 -8.5t79 -31t56.5 -62t21.5 -102.5q0 -57 -19.5 -96t-51.5 -63t-72.5 -34.5t-82.5 -10.5q-17 0 -29 1t-15 2v-103q-26 -5 -46.5 -6.5t-36.5 -1.5q-17 0 -36.5 1.5t-45.5 6.5v588zM221 230
q5 -1 12.5 -1.5t12.5 -0.5q35 0 57.5 17.5t22.5 59.5q0 36 -22.5 55.5t-55.5 19.5h-11.5t-15.5 -1v-149z" />
    <glyph glyph-name="ydieresis" unicode="&#xff;" horiz-adv-x="564" 
d="M384 517q8 2 30.5 4t48.5 2q33 0 59 -2t37 -4l-193 -335v-181q-26 -4 -47 -6t-38 -2t-38 2t-46 6v181l-192 335q11 2 38.5 4t60.5 2q26 0 51 -2t33 -4l98 -197zM319 646q0 30 6 60q15 3 35 4.5t34 1.5t34 -1.5t36 -4.5q6 -30 6 -60t-6 -60q-16 -3 -36 -4.5t-34 -1.5
t-34 1.5t-35 4.5q-6 30 -6 60zM94 646q0 30 6 60q15 3 35 4.5t34 1.5t34 -1.5t36 -4.5q6 -30 6 -60t-6 -60q-16 -3 -36 -4.5t-34 -1.5t-34 1.5t-35 4.5q-6 30 -6 60z" />
    <glyph glyph-name="Amacron" unicode="&#x100;" horiz-adv-x="642" 
d="M178 2q-23 -4 -42 -6t-37 -2t-41.5 2.5t-52.5 7.5l224 714q26 3 48.5 5t45.5 2q19 0 41.5 -2t51.5 -5l221 -715q-57 -9 -100 -9q-20 0 -40 2t-43 6l-38 139q-28 -8 -53.5 -12t-50.5 -4q-23 0 -47 3.5t-50 10.5zM318 530l-67 -257q17 -5 32 -8t31 -3q17 0 33.5 2.5
t34.5 7.5zM472 908q7 -27 7 -56q0 -12 -1.5 -27t-5.5 -29h-302q-4 14 -5.5 28.5t-1.5 27.5t1.5 27.5t5.5 28.5h302z" />
    <glyph glyph-name="amacron" unicode="&#x101;" horiz-adv-x="523" 
d="M30 169q0 49 21 81t54 51t73 26.5t78 7.5h61q-1 18 -10 30t-23 18.5t-31 9t-35 2.5q-24 0 -56 -5.5t-66 -17.5q-9 17 -15.5 31t-10 28.5t-5 30t-1.5 35.5q48 16 95.5 24t85.5 8q52 0 94 -12.5t71.5 -38.5t45.5 -66.5t16 -96.5v-293q-38 -11 -92 -22t-114 -11
q-52 0 -95.5 9.5t-74.5 30.5t-48.5 55.5t-17.5 84.5zM266 113q9 0 26 2t25 4v110h-57q-35 0 -59 -15t-24 -42q0 -20 9 -31.5t22.5 -17.5t29 -8t28.5 -2zM417 713q7 -27 7 -56q0 -12 -1.5 -27t-5.5 -29h-302q-4 14 -5.5 28.5t-1.5 27.5t1.5 27.5t5.5 28.5h302z" />
    <glyph glyph-name="Abreve" unicode="&#x102;" horiz-adv-x="642" 
d="M178 2q-23 -4 -42 -6t-37 -2t-41.5 2.5t-52.5 7.5l224 714q26 3 48.5 5t45.5 2q19 0 41.5 -2t51.5 -5l221 -715q-57 -9 -100 -9q-20 0 -40 2t-43 6l-38 139q-28 -8 -53.5 -12t-50.5 -4q-23 0 -47 3.5t-50 10.5zM318 530l-67 -257q17 -5 32 -8t31 -3q17 0 33.5 2.5
t34.5 7.5zM321 853q29 0 42 13t14 36q15 3 31 5t35 2q20 0 38.5 -1.5t30.5 -4.5q-4 -41 -23 -67t-46 -40.5t-59 -20t-63 -5.5t-63 5.5t-59 20t-46 40.5t-23 67q12 3 30.5 4.5t38.5 1.5q19 0 35 -2t31 -5q1 -23 14 -36t42 -13z" />
    <glyph glyph-name="abreve" unicode="&#x103;" horiz-adv-x="523" 
d="M30 169q0 49 21 81t54 51t73 26.5t78 7.5h61q-1 18 -10 30t-23 18.5t-31 9t-35 2.5q-24 0 -56 -5.5t-66 -17.5q-9 17 -15.5 31t-10 28.5t-5 30t-1.5 35.5q48 16 95.5 24t85.5 8q52 0 94 -12.5t71.5 -38.5t45.5 -66.5t16 -96.5v-293q-38 -11 -92 -22t-114 -11
q-52 0 -95.5 9.5t-74.5 30.5t-48.5 55.5t-17.5 84.5zM266 113q9 0 26 2t25 4v110h-57q-35 0 -59 -15t-24 -42q0 -20 9 -31.5t22.5 -17.5t29 -8t28.5 -2zM255 658q29 0 42 13t14 36q15 3 31 5t35 2q20 0 38.5 -1.5t30.5 -4.5q-4 -41 -23 -67t-46 -40.5t-59 -20t-63 -5.5
t-63 5.5t-59 20t-46 40.5t-23 67q12 3 30.5 4.5t38.5 1.5q19 0 35 -2t31 -5q1 -23 14 -36t42 -13z" />
    <glyph glyph-name="Aogonek" unicode="&#x104;" horiz-adv-x="642" 
d="M178 2q-23 -4 -42 -6t-37 -2t-41.5 2.5t-52.5 7.5l224 714q26 3 48.5 5t45.5 2q19 0 41.5 -2t51.5 -5l221 -715q-57 -9 -100 -9q-20 0 -40 2t-43 6l-38 139q-28 -8 -53.5 -12t-50.5 -4q-23 0 -47 3.5t-50 10.5zM318 530l-67 -257q17 -5 32 -8t31 -3q17 0 33.5 2.5
t34.5 7.5zM629 26q-51 -30 -85 -62.5t-34 -74.5q0 -24 14 -33.5t33 -9.5q12 0 24 3t17 5q12 -16 17.5 -38.5t5.5 -42.5q-15 -6 -41.5 -10.5t-58.5 -4.5q-26 0 -50 5t-43.5 17t-31 32t-11.5 50q0 48 34 92t97 72h113z" />
    <glyph glyph-name="aogonek" unicode="&#x105;" horiz-adv-x="523" 
d="M30 169q0 49 21 81t54 51t73 26.5t78 7.5h61q-1 18 -10 30t-23 18.5t-31 9t-35 2.5q-24 0 -56 -5.5t-66 -17.5q-9 17 -15.5 31t-10 28.5t-5 30t-1.5 35.5q48 16 95.5 24t85.5 8q52 0 94 -12.5t71.5 -38.5t45.5 -66.5t16 -96.5v-293q-38 -11 -92 -22t-114 -11
q-52 0 -95.5 9.5t-74.5 30.5t-48.5 55.5t-17.5 84.5zM266 113q9 0 26 2t25 4v110h-57q-35 0 -59 -15t-24 -42q0 -20 9 -31.5t22.5 -17.5t29 -8t28.5 -2zM471 26q-51 -30 -85 -62.5t-34 -74.5q0 -24 14 -33.5t33 -9.5q12 0 24 3t17 5q12 -16 17.5 -38.5t5.5 -42.5
q-15 -6 -41.5 -10.5t-58.5 -4.5q-26 0 -50 5t-43.5 17t-31 32t-11.5 50q0 48 34 92t97 72h113z" />
    <glyph glyph-name="Cacute" unicode="&#x106;" horiz-adv-x="609" 
d="M228 358q0 -212 178 -212q32 0 60.5 6t69.5 20q33 -72 44 -148q-29 -11 -54 -18t-48 -10.5t-45.5 -5t-46.5 -1.5q-85 0 -149.5 27.5t-108 76.5t-65.5 117t-22 148t23 148.5t66.5 118.5t107.5 78t145 28q48 0 91 -7t96 -28q-2 -41 -15 -79.5t-27 -67.5q-20 7 -36.5 12
t-31.5 8t-30 4.5t-32 1.5q-81 0 -125.5 -54.5t-44.5 -162.5zM587.006 904q-17.999 3 -42.498 4.5q-24.498 1.5 -50.4961 1.5q-52.9971 0 -91.9951 -6l-106.993 -123q16.999 -4 35.498 -5t37.498 -1q42.9971 0 72.9951 6z" />
    <glyph glyph-name="cacute" unicode="&#x107;" horiz-adv-x="471" 
d="M31 258q0 60 17 110t50 85.5t81 55.5t110 20q21 0 40 -1t37.5 -4t38 -9t43.5 -15q2 -34 -6 -67.5t-25 -65.5q-17 6 -30.5 9.5t-25.5 5.5t-23.5 2.5t-24.5 0.5q-48 0 -79.5 -28.5t-31.5 -98.5q0 -37 9.5 -61.5t25 -38.5t36 -20t43.5 -6q29 0 50.5 5t50.5 16
q17 -27 27 -60.5t10 -76.5q-46 -18 -84 -23t-76 -5q-64 0 -113 19t-82.5 54.5t-50.5 85t-17 111.5zM526.006 709q-17.999 3 -42.4971 4.5q-24.499 1.5 -50.4971 1.5q-52.9971 0 -91.9951 -6l-106.993 -123q16.999 -4 35.498 -5t37.498 -1q42.9971 0 72.9951 6z" />
    <glyph glyph-name="Ccircumflex" unicode="&#x108;" horiz-adv-x="609" 
d="M354 909q13 0 34 -1t37 -4l127 -123q-13 -4 -33 -5.5t-40 -1.5q-19 0 -38 1t-38 6l-49 48l-49 -48q-19 -5 -38 -6t-38 -1q-20 0 -40 1.5t-33 5.5l127 123q16 3 37 4t34 1zM228 358q0 -212 178 -212q32 0 60.5 6t69.5 20q33 -72 44 -148q-29 -11 -54 -18t-48 -10.5
t-45.5 -5t-46.5 -1.5q-85 0 -149.5 27.5t-108 76.5t-65.5 117t-22 148t23 148.5t66.5 118.5t107.5 78t145 28q48 0 91 -7t96 -28q-2 -41 -15 -79.5t-27 -67.5q-20 7 -36.5 12t-31.5 8t-30 4.5t-32 1.5q-81 0 -125.5 -54.5t-44.5 -162.5z" />
    <glyph glyph-name="ccircumflex" unicode="&#x109;" horiz-adv-x="471" 
d="M31 258q0 60 17 110t50 85.5t81 55.5t110 20q21 0 40 -1t37.5 -4t38 -9t43.5 -15q2 -34 -6 -67.5t-25 -65.5q-17 6 -30.5 9.5t-25.5 5.5t-23.5 2.5t-24.5 0.5q-48 0 -79.5 -28.5t-31.5 -98.5q0 -37 9.5 -61.5t25 -38.5t36 -20t43.5 -6q29 0 50.5 5t50.5 16
q17 -27 27 -60.5t10 -76.5q-46 -18 -84 -23t-76 -5q-64 0 -113 19t-82.5 54.5t-50.5 85t-17 111.5zM275 714q13 0 34 -1t37 -4l127 -123q-13 -4 -33 -5.5t-40 -1.5q-19 0 -38 1t-38 6l-49 48l-49 -48q-19 -5 -38 -6t-38 -1q-20 0 -40 1.5t-33 5.5l127 123q16 3 37 4t34 1z
" />
    <glyph glyph-name="Cdotaccent" unicode="&#x10a;" horiz-adv-x="609" 
d="M291 845q0 16 2.5 31.5t5.5 32.5q15 3 35 4.5t34 1.5t34 -1.5t36 -4.5q3 -17 5.5 -32t2.5 -32t-2.5 -32t-5.5 -32q-16 -3 -36 -4.5t-34 -1.5t-34 1.5t-35 4.5q-3 17 -5.5 32.5t-2.5 31.5zM228 358q0 -212 178 -212q32 0 60.5 6t69.5 20q33 -72 44 -148q-29 -11 -54 -18
t-48 -10.5t-45.5 -5t-46.5 -1.5q-85 0 -149.5 27.5t-108 76.5t-65.5 117t-22 148t23 148.5t66.5 118.5t107.5 78t145 28q48 0 91 -7t96 -28q-2 -41 -15 -79.5t-27 -67.5q-20 7 -36.5 12t-31.5 8t-30 4.5t-32 1.5q-81 0 -125.5 -54.5t-44.5 -162.5z" />
    <glyph glyph-name="cdotaccent" unicode="&#x10b;" horiz-adv-x="471" 
d="M31 258q0 60 17 110t50 85.5t81 55.5t110 20q21 0 40 -1t37.5 -4t38 -9t43.5 -15q2 -34 -6 -67.5t-25 -65.5q-17 6 -30.5 9.5t-25.5 5.5t-23.5 2.5t-24.5 0.5q-48 0 -79.5 -28.5t-31.5 -98.5q0 -37 9.5 -61.5t25 -38.5t36 -20t43.5 -6q29 0 50.5 5t50.5 16
q17 -27 27 -60.5t10 -76.5q-46 -18 -84 -23t-76 -5q-64 0 -113 19t-82.5 54.5t-50.5 85t-17 111.5zM207 650q0 16 2.5 31.5t5.5 32.5q15 3 35 4.5t34 1.5t34 -1.5t36 -4.5q3 -17 5.5 -32t2.5 -32t-2.5 -32t-5.5 -32q-16 -3 -36 -4.5t-34 -1.5t-34 1.5t-35 4.5
q-3 17 -5.5 32.5t-2.5 31.5z" />
    <glyph glyph-name="Ccaron" unicode="&#x10c;" horiz-adv-x="609" 
d="M228 358q0 -212 178 -212q32 0 60.5 6t69.5 20q33 -72 44 -148q-29 -11 -54 -18t-48 -10.5t-45.5 -5t-46.5 -1.5q-85 0 -149.5 27.5t-108 76.5t-65.5 117t-22 148t23 148.5t66.5 118.5t107.5 78t145 28q48 0 91 -7t96 -28q-2 -41 -15 -79.5t-27 -67.5q-20 7 -36.5 12
t-31.5 8t-30 4.5t-32 1.5q-81 0 -125.5 -54.5t-44.5 -162.5zM362 774q-13 0 -34 1t-37 4l-127 123q13 4 33 5.5t40 1.5q19 0 38 -1t38 -6l49 -48l49 48q19 5 38 6t38 1q20 0 40 -1.5t33 -5.5l-127 -123q-16 -3 -37 -4t-34 -1z" />
    <glyph glyph-name="ccaron" unicode="&#x10d;" horiz-adv-x="471" 
d="M31 258q0 60 17 110t50 85.5t81 55.5t110 20q21 0 40 -1t37.5 -4t38 -9t43.5 -15q2 -34 -6 -67.5t-25 -65.5q-17 6 -30.5 9.5t-25.5 5.5t-23.5 2.5t-24.5 0.5q-48 0 -79.5 -28.5t-31.5 -98.5q0 -37 9.5 -61.5t25 -38.5t36 -20t43.5 -6q29 0 50.5 5t50.5 16
q17 -27 27 -60.5t10 -76.5q-46 -18 -84 -23t-76 -5q-64 0 -113 19t-82.5 54.5t-50.5 85t-17 111.5zM300 579q-13 0 -34 1t-37 4l-127 123q13 4 33 5.5t40 1.5q19 0 38 -1t38 -6l49 -48l49 48q19 5 38 6t38 1q20 0 40 -1.5t33 -5.5l-127 -123q-16 -3 -37 -4t-34 -1z" />
    <glyph glyph-name="Dcaron" unicode="&#x10e;" horiz-adv-x="685" 
d="M259 731q189 0 287 -94.5t98 -281.5q0 -190 -100 -278.5t-296 -88.5q-50 0 -96.5 4.5t-91.5 10.5v714q15 2 38 4.5t50 4.5t55.5 3.5t55.5 1.5zM237 145q7 -1 16 -1h19q39 0 73.5 9.5t59.5 33.5t39.5 65t14.5 105q0 63 -15 105t-39.5 66.5t-57.5 35t-69 10.5
q-20 0 -29 -0.5t-12 -0.5v-428zM320 774q-13 0 -34 1t-37 4l-127 123q13 4 33 5.5t40 1.5q19 0 38 -1t38 -6l49 -48l49 48q19 5 38 6t38 1q20 0 40 -1.5t33 -5.5l-127 -123q-16 -3 -37 -4t-34 -1z" />
    <glyph glyph-name="dcaron" unicode="&#x10f;" horiz-adv-x="568" 
d="M233 529q81 0 138.5 -19t94.5 -53.5t54 -83.5t17 -109q0 -63 -17.5 -114t-55 -87t-97 -55.5t-143.5 -19.5q-49 0 -87.5 3.5t-80.5 9.5v514q42 5 89 9.5t88 4.5zM225 131q4 0 10.5 -1t19.5 -1q56 0 83.5 31.5t27.5 103.5q0 64 -27 93.5t-77 29.5q-12 0 -22 -1t-15 -2v-253
zM288 579q-13 0 -34 1t-37 4l-127 123q13 4 33 5.5t40 1.5q19 0 38 -1t38 -6l49 -48l49 48q19 5 38 6t38 1q20 0 40 -1.5t33 -5.5l-127 -123q-16 -3 -37 -4t-34 -1z" />
    <glyph glyph-name="Dcroat" unicode="&#x110;" horiz-adv-x="685" 
d="M-2 363q0 25 9 55h53v299q15 2 38 4.5t50 4.5t55.5 3.5t55.5 1.5q189 0 287 -94.5t98 -281.5q0 -190 -100 -278.5t-296 -88.5q-50 0 -96.5 4.5t-91.5 10.5v306h-53q-9 30 -9 54zM237 418h93q5 -15 6.5 -28.5t1.5 -25.5t-1.5 -26t-6.5 -29h-93v-164q7 -1 16 -1h19
q39 0 73.5 9.5t59.5 33.5t39.5 65t14.5 105q0 63 -15 105t-39.5 66.5t-57.5 35t-69 10.5q-20 0 -29 -0.5t-12 -0.5v-155z" />
    <glyph glyph-name="dcroat" unicode="&#x111;" horiz-adv-x="568" 
d="M233 529q81 0 138.5 -19t94.5 -53.5t54 -83.5t17 -109q0 -63 -17.5 -114t-55 -87t-97 -55.5t-143.5 -19.5q-49 0 -87.5 3.5t-80.5 9.5v218h-46q-5 12 -6 25t-1 22q0 8 1 21t6 25h46v203q42 5 89 9.5t88 4.5zM225 312h61q5 -12 6 -25t1 -21q0 -9 -1 -22t-6 -25h-61v-88
q4 0 10.5 -1t19.5 -1q56 0 83.5 31.5t27.5 103.5q0 64 -27 93.5t-77 29.5q-12 0 -22 -1t-15 -2v-72z" />
    <glyph glyph-name="Emacron" unicode="&#x112;" horiz-adv-x="527" 
d="M439 375q0 -35 -9 -78h-193v-142h251q9 -42 9 -76q0 -37 -9 -79h-428v719h422q4 -22 6 -41t2 -36q0 -33 -8 -79h-245v-110h193q9 -44 9 -78zM421 908q7 -27 7 -56q0 -12 -1.5 -27t-5.5 -29h-302q-4 14 -5.5 28.5t-1.5 27.5t1.5 27.5t5.5 28.5h302z" />
    <glyph glyph-name="emacron" unicode="&#x113;" horiz-adv-x="538" 
d="M201 205q11 -41 38.5 -58t72.5 -17q29 0 65 7t71 21q14 -26 24.5 -62t11.5 -75q-89 -33 -182 -33q-72 0 -123.5 20t-84 55.5t-48 84.5t-15.5 107q0 57 16 107t48 87t80 58.5t112 21.5q53 0 94.5 -18t70.5 -49.5t44.5 -76t15.5 -96.5q0 -27 -2.5 -48.5t-4.5 -35.5h-304z
M281 402q-32 0 -55 -20t-27 -62h160q-2 35 -21.5 58.5t-56.5 23.5zM434 713q7 -27 7 -56q0 -12 -1.5 -27t-5.5 -29h-302q-4 14 -5.5 28.5t-1.5 27.5t1.5 27.5t5.5 28.5h302z" />
    <glyph glyph-name="Ebreve" unicode="&#x114;" horiz-adv-x="527" 
d="M439 375q0 -35 -9 -78h-193v-142h251q9 -42 9 -76q0 -37 -9 -79h-428v719h422q4 -22 6 -41t2 -36q0 -33 -8 -79h-245v-110h193q9 -44 9 -78zM273 853q29 0 42 13t14 36q15 3 31 5t35 2q20 0 38.5 -1.5t30.5 -4.5q-4 -41 -23 -67t-46 -40.5t-59 -20t-63 -5.5t-63 5.5
t-59 20t-46 40.5t-23 67q12 3 30.5 4.5t38.5 1.5q19 0 35 -2t31 -5q1 -23 14 -36t42 -13z" />
    <glyph glyph-name="ebreve" unicode="&#x115;" horiz-adv-x="538" 
d="M201 205q11 -41 38.5 -58t72.5 -17q29 0 65 7t71 21q14 -26 24.5 -62t11.5 -75q-89 -33 -182 -33q-72 0 -123.5 20t-84 55.5t-48 84.5t-15.5 107q0 57 16 107t48 87t80 58.5t112 21.5q53 0 94.5 -18t70.5 -49.5t44.5 -76t15.5 -96.5q0 -27 -2.5 -48.5t-4.5 -35.5h-304z
M281 402q-32 0 -55 -20t-27 -62h160q-2 35 -21.5 58.5t-56.5 23.5zM283 658q29 0 42 13t14 36q15 3 31 5t35 2q20 0 38.5 -1.5t30.5 -4.5q-4 -41 -23 -67t-46 -40.5t-59 -20t-63 -5.5t-63 5.5t-59 20t-46 40.5t-23 67q12 3 30.5 4.5t38.5 1.5q19 0 35 -2t31 -5q1 -23 14 -36
t42 -13z" />
    <glyph glyph-name="Edotaccent" unicode="&#x116;" horiz-adv-x="527" 
d="M439 375q0 -35 -9 -78h-193v-142h251q9 -42 9 -76q0 -37 -9 -79h-428v719h422q4 -22 6 -41t2 -36q0 -33 -8 -79h-245v-110h193q9 -44 9 -78zM195 845q0 16 2.5 31.5t5.5 32.5q15 3 35 4.5t34 1.5t34 -1.5t36 -4.5q3 -17 5.5 -32t2.5 -32t-2.5 -32t-5.5 -32
q-16 -3 -36 -4.5t-34 -1.5t-34 1.5t-35 4.5q-3 17 -5.5 32.5t-2.5 31.5z" />
    <glyph glyph-name="edotaccent" unicode="&#x117;" horiz-adv-x="538" 
d="M201 205q11 -41 38.5 -58t72.5 -17q29 0 65 7t71 21q14 -26 24.5 -62t11.5 -75q-89 -33 -182 -33q-72 0 -123.5 20t-84 55.5t-48 84.5t-15.5 107q0 57 16 107t48 87t80 58.5t112 21.5q53 0 94.5 -18t70.5 -49.5t44.5 -76t15.5 -96.5q0 -27 -2.5 -48.5t-4.5 -35.5h-304z
M281 402q-32 0 -55 -20t-27 -62h160q-2 35 -21.5 58.5t-56.5 23.5zM210 650q0 16 2.5 31.5t5.5 32.5q15 3 35 4.5t34 1.5t34 -1.5t36 -4.5q3 -17 5.5 -32t2.5 -32t-2.5 -32t-5.5 -32q-16 -3 -36 -4.5t-34 -1.5t-34 1.5t-35 4.5q-3 17 -5.5 32.5t-2.5 31.5z" />
    <glyph glyph-name="Eogonek" unicode="&#x118;" horiz-adv-x="527" 
d="M439 375q0 -35 -9 -78h-193v-142h251q9 -42 9 -76q0 -37 -9 -79h-428v719h422q4 -22 6 -41t2 -36q0 -33 -8 -79h-245v-110h193q9 -44 9 -78zM491 26q-51 -30 -85 -62.5t-34 -74.5q0 -24 14 -33.5t33 -9.5q12 0 24 3t17 5q12 -16 17.5 -38.5t5.5 -42.5q-15 -6 -41.5 -10.5
t-58.5 -4.5q-26 0 -50 5t-43.5 17t-31 32t-11.5 50q0 48 34 92t97 72h113z" />
    <glyph glyph-name="eogonek" unicode="&#x119;" horiz-adv-x="538" 
d="M201 205q11 -41 38.5 -58t72.5 -17q29 0 65 7t71 21q14 -26 24.5 -62t11.5 -75q-89 -33 -182 -33q-72 0 -123.5 20t-84 55.5t-48 84.5t-15.5 107q0 57 16 107t48 87t80 58.5t112 21.5q53 0 94.5 -18t70.5 -49.5t44.5 -76t15.5 -96.5q0 -27 -2.5 -48.5t-4.5 -35.5h-304z
M281 402q-32 0 -55 -20t-27 -62h160q-2 35 -21.5 58.5t-56.5 23.5zM483 26q-51 -30 -85 -62.5t-34 -74.5q0 -24 14 -33.5t33 -9.5q12 0 24 3t17 5q12 -16 17.5 -38.5t5.5 -42.5q-15 -6 -41.5 -10.5t-58.5 -4.5q-26 0 -50 5t-43.5 17t-31 32t-11.5 50q0 48 34 92t97 72h113z
" />
    <glyph glyph-name="Ecaron" unicode="&#x11a;" horiz-adv-x="527" 
d="M439 375q0 -35 -9 -78h-193v-142h251q9 -42 9 -76q0 -37 -9 -79h-428v719h422q4 -22 6 -41t2 -36q0 -33 -8 -79h-245v-110h193q9 -44 9 -78zM278 774q-13 0 -34 1t-37 4l-127 123q13 4 33 5.5t40 1.5q19 0 38 -1t38 -6l49 -48l49 48q19 5 38 6t38 1q20 0 40 -1.5t33 -5.5
l-127 -123q-16 -3 -37 -4t-34 -1z" />
    <glyph glyph-name="ecaron" unicode="&#x11b;" horiz-adv-x="538" 
d="M201 205q11 -41 38.5 -58t72.5 -17q29 0 65 7t71 21q14 -26 24.5 -62t11.5 -75q-89 -33 -182 -33q-72 0 -123.5 20t-84 55.5t-48 84.5t-15.5 107q0 57 16 107t48 87t80 58.5t112 21.5q53 0 94.5 -18t70.5 -49.5t44.5 -76t15.5 -96.5q0 -27 -2.5 -48.5t-4.5 -35.5h-304z
M281 402q-32 0 -55 -20t-27 -62h160q-2 35 -21.5 58.5t-56.5 23.5zM310 579q-13 0 -34 1t-37 4l-127 123q13 4 33 5.5t40 1.5q19 0 38 -1t38 -6l49 -48l49 48q19 5 38 6t38 1q20 0 40 -1.5t33 -5.5l-127 -123q-16 -3 -37 -4t-34 -1z" />
    <glyph glyph-name="Gcircumflex" unicode="&#x11c;" horiz-adv-x="659" 
d="M434 389q27 4 48 6t39 2q17 0 41 -2t47 -6v-364q-59 -22 -116.5 -29t-98.5 -7q-88 0 -154 27.5t-110.5 76.5t-66.5 117t-22 148t23 148.5t66.5 118.5t107.5 78t145 28q48 0 91.5 -7t95.5 -29q-2 -41 -15 -80t-27 -66q-20 7 -36.5 12t-31.5 8t-30 4.5t-32 1.5
q-81 0 -125 -54.5t-44 -162.5q0 -107 43 -159.5t128 -52.5q19 0 34 3v240zM369 909q13 0 34 -1t37 -4l127 -123q-13 -4 -33 -5.5t-40 -1.5q-19 0 -38 1t-38 6l-49 48l-49 -48q-19 -5 -38 -6t-38 -1q-20 0 -40 1.5t-33 5.5l127 123q16 3 37 4t34 1z" />
    <glyph glyph-name="gcircumflex" unicode="&#x11d;" horiz-adv-x="536" 
d="M297 -12q-72 0 -122.5 21.5t-82.5 58.5t-46.5 87t-14.5 107q0 55 17.5 104t52 85t85.5 57t118 21q35 0 77 -8t92 -28q-1 -17 -4 -32t-7.5 -30.5t-11 -33t-15.5 -39.5q-34 14 -63 20.5t-50 6.5q-33 0 -56 -10t-37 -27t-20.5 -39.5t-6.5 -46.5q0 -67 29 -98.5t85 -31.5h18
v147q25 5 44.5 7t37.5 2q35 0 83 -9v-254q-29 -11 -81 -24t-121 -13zM286 714q13 0 34 -1t37 -4l127 -123q-13 -4 -33 -5.5t-40 -1.5q-19 0 -38 1t-38 6l-49 48l-49 -48q-19 -5 -38 -6t-38 -1q-20 0 -40 1.5t-33 5.5l127 123q16 3 37 4t34 1z" />
    <glyph glyph-name="Gbreve" unicode="&#x11e;" horiz-adv-x="659" 
d="M434 389q27 4 48 6t39 2q17 0 41 -2t47 -6v-364q-59 -22 -116.5 -29t-98.5 -7q-88 0 -154 27.5t-110.5 76.5t-66.5 117t-22 148t23 148.5t66.5 118.5t107.5 78t145 28q48 0 91.5 -7t95.5 -29q-2 -41 -15 -80t-27 -66q-20 7 -36.5 12t-31.5 8t-30 4.5t-32 1.5
q-81 0 -125 -54.5t-44 -162.5q0 -107 43 -159.5t128 -52.5q19 0 34 3v240zM369 853q29 0 42 13t14 36q15 3 31 5t35 2q20 0 38.5 -1.5t30.5 -4.5q-4 -41 -23 -67t-46 -40.5t-59 -20t-63 -5.5t-63 5.5t-59 20t-46 40.5t-23 67q12 3 30.5 4.5t38.5 1.5q19 0 35 -2t31 -5
q1 -23 14 -36t42 -13z" />
    <glyph glyph-name="gbreve" unicode="&#x11f;" horiz-adv-x="536" 
d="M297 -12q-72 0 -122.5 21.5t-82.5 58.5t-46.5 87t-14.5 107q0 55 17.5 104t52 85t85.5 57t118 21q35 0 77 -8t92 -28q-1 -17 -4 -32t-7.5 -30.5t-11 -33t-15.5 -39.5q-34 14 -63 20.5t-50 6.5q-33 0 -56 -10t-37 -27t-20.5 -39.5t-6.5 -46.5q0 -67 29 -98.5t85 -31.5h18
v147q25 5 44.5 7t37.5 2q35 0 83 -9v-254q-29 -11 -81 -24t-121 -13zM284 658q29 0 42 13t14 36q15 3 31 5t35 2q20 0 38.5 -1.5t30.5 -4.5q-4 -41 -23 -67t-46 -40.5t-59 -20t-63 -5.5t-63 5.5t-59 20t-46 40.5t-23 67q12 3 30.5 4.5t38.5 1.5q19 0 35 -2t31 -5
q1 -23 14 -36t42 -13z" />
    <glyph glyph-name="Gdotaccent" unicode="&#x120;" horiz-adv-x="659" 
d="M434 389q27 4 48 6t39 2q17 0 41 -2t47 -6v-364q-59 -22 -116.5 -29t-98.5 -7q-88 0 -154 27.5t-110.5 76.5t-66.5 117t-22 148t23 148.5t66.5 118.5t107.5 78t145 28q48 0 91.5 -7t95.5 -29q-2 -41 -15 -80t-27 -66q-20 7 -36.5 12t-31.5 8t-30 4.5t-32 1.5
q-81 0 -125 -54.5t-44 -162.5q0 -107 43 -159.5t128 -52.5q19 0 34 3v240zM291 845q0 16 2.5 31.5t5.5 32.5q15 3 35 4.5t34 1.5t34 -1.5t36 -4.5q3 -17 5.5 -32t2.5 -32t-2.5 -32t-5.5 -32q-16 -3 -36 -4.5t-34 -1.5t-34 1.5t-35 4.5q-3 17 -5.5 32.5t-2.5 31.5z" />
    <glyph glyph-name="gdotaccent" unicode="&#x121;" horiz-adv-x="536" 
d="M297 -12q-72 0 -122.5 21.5t-82.5 58.5t-46.5 87t-14.5 107q0 55 17.5 104t52 85t85.5 57t118 21q35 0 77 -8t92 -28q-1 -17 -4 -32t-7.5 -30.5t-11 -33t-15.5 -39.5q-34 14 -63 20.5t-50 6.5q-33 0 -56 -10t-37 -27t-20.5 -39.5t-6.5 -46.5q0 -67 29 -98.5t85 -31.5h18
v147q25 5 44.5 7t37.5 2q35 0 83 -9v-254q-29 -11 -81 -24t-121 -13zM226 650q0 16 2.5 31.5t5.5 32.5q15 3 35 4.5t34 1.5t34 -1.5t36 -4.5q3 -17 5.5 -32t2.5 -32t-2.5 -32t-5.5 -32q-16 -3 -36 -4.5t-34 -1.5t-34 1.5t-35 4.5q-3 17 -5.5 32.5t-2.5 31.5z" />
    <glyph glyph-name="Gcommaaccent" unicode="&#x122;" horiz-adv-x="659" 
d="M434 389q27 4 48 6t39 2q17 0 41 -2t47 -6v-364q-59 -22 -116.5 -29t-98.5 -7q-88 0 -154 27.5t-110.5 76.5t-66.5 117t-22 148t23 148.5t66.5 118.5t107.5 78t145 28q48 0 91.5 -7t95.5 -29q-2 -41 -15 -80t-27 -66q-20 7 -36.5 12t-31.5 8t-30 4.5t-32 1.5
q-81 0 -125 -54.5t-44 -162.5q0 -107 43 -159.5t128 -52.5q19 0 34 3v240zM305 -68q34 7 73 7q18 0 37 -1.5t38 -5.5l-71 -168q-29 -7 -59 -7t-65 7z" />
    <glyph glyph-name="gcommaaccent" unicode="&#x123;" horiz-adv-x="536" 
d="M297 -12q-72 0 -122.5 21.5t-82.5 58.5t-46.5 87t-14.5 107q0 55 17.5 104t52 85t85.5 57t118 21q35 0 77 -8t92 -28q-1 -17 -4 -32t-7.5 -30.5t-11 -33t-15.5 -39.5q-34 14 -63 20.5t-50 6.5q-33 0 -56 -10t-37 -27t-20.5 -39.5t-6.5 -46.5q0 -67 29 -98.5t85 -31.5h18
v147q25 5 44.5 7t37.5 2q35 0 83 -9v-254q-29 -11 -81 -24t-121 -13zM375 587q-18 -4 -37 -5.5t-38 -1.5q-20 0 -39.5 1.5t-39.5 5.5l73 148q32 7 63 7q15 0 31 -1.5t36 -5.5z" />
    <glyph glyph-name="Hcircumflex" unicode="&#x124;" horiz-adv-x="651" 
d="M503 -6q-37 0 -89 9v292h-177v-292q-53 -9 -88 -9q-37 0 -89 9v714q27 4 49 6t39 2q18 0 40.5 -2t48.5 -6v-265h177v265q27 4 48.5 6t39.5 2t40.5 -2t48.5 -6v-714q-53 -9 -88 -9zM325 909q13 0 34 -1t37 -4l127 -123q-13 -4 -33 -5.5t-40 -1.5q-19 0 -38 1t-38 6l-49 48
l-49 -48q-19 -5 -38 -6t-38 -1q-20 0 -40 1.5t-33 5.5l127 123q16 3 37 4t34 1z" />
    <glyph glyph-name="hcircumflex" unicode="&#x125;" horiz-adv-x="598" 
d="M373 191h-148v-190q-26 -4 -47 -6t-38 -2t-38 2t-46 6v516q22 5 43.5 7t41.5 2q19 0 41 -2t43 -7v-176h148v176q22 5 43.5 7t41.5 2q19 0 41 -2t43 -7v-516q-26 -4 -47 -6t-38 -2t-38 2t-46 6v190zM299 714q13 0 34 -1t37 -4l127 -123q-13 -4 -33 -5.5t-40 -1.5
q-19 0 -38 1t-38 6l-49 48l-49 -48q-19 -5 -38 -6t-38 -1q-20 0 -40 1.5t-33 5.5l127 123q16 3 37 4t34 1z" />
    <glyph glyph-name="Hbar" unicode="&#x126;" horiz-adv-x="651" 
d="M0 568q0 25 9 52h51v97q27 4 49 6t39 2q18 0 40.5 -2t48.5 -6v-97h177v97q27 4 48.5 6t39.5 2t40.5 -2t48.5 -6v-97h52q5 -14 6.5 -26.5t1.5 -24.5t-1.5 -25t-6.5 -27h-52v-514q-53 -9 -88 -9q-37 0 -89 9v282h-177v-282q-53 -9 -88 -9q-37 0 -89 9v514h-51q-9 27 -9 51z
M414 432v85h-177v-85h177z" />
    <glyph glyph-name="hbar" unicode="&#x127;" horiz-adv-x="598" 
d="M542 362v-361q-26 -4 -47 -6t-38 -2t-38 2t-46 6v190h-148v-190q-26 -4 -47 -6t-38 -2t-38 2t-46 6v361h-43q-5 12 -6 23.5t-1 20.5q0 8 1 19.5t6 23.5h43v68q22 5 43.5 7t41.5 2q19 0 41 -2t43 -7v-68h148v68q22 5 43.5 7t41.5 2q19 0 41 -2t43 -7v-68h43q5 -12 6 -23.5
t1 -19.5q0 -9 -1 -20.5t-6 -23.5h-43zM373 311v51h-148v-51h148z" />
    <glyph glyph-name="Itilde" unicode="&#x128;" horiz-adv-x="297" 
d="M149 -6q-37 0 -89 9v714q27 4 49 6t39 2q18 0 40.5 -2t48.5 -6v-714q-53 -9 -88 -9zM-42 870q19 22 48.5 38t67.5 16q20 0 37.5 -5.5t36.5 -12.5q17 -7 35.5 -12.5t38.5 -5.5t35.5 5.5t36.5 25.5q16 -17 27.5 -40t18.5 -47q-18 -23 -48 -38.5t-65 -15.5q-22 0 -42 6
t-38 12q-19 7 -36.5 12.5t-35.5 5.5q-20 0 -36.5 -6t-34.5 -25q-16 17 -27.5 40t-18.5 47z" />
    <glyph glyph-name="itilde" unicode="&#x129;" horiz-adv-x="285" 
d="M-48 675q19 22 48.5 38t67.5 16q20 0 37.5 -5.5t36.5 -12.5q17 -7 35.5 -12.5t38.5 -5.5t35.5 5.5t36.5 25.5q16 -17 27.5 -40t18.5 -47q-18 -23 -48 -38.5t-65 -15.5q-22 0 -42 6t-38 12q-19 7 -36.5 12.5t-35.5 5.5q-20 0 -36.5 -6t-34.5 -25q-16 17 -27.5 40t-18.5 47
zM227 1q-26 -4 -47 -6t-38 -2t-38 2t-46 6v516q22 5 43.5 7t41.5 2q19 0 41 -2t43 -7v-516z" />
    <glyph glyph-name="Imacron" unicode="&#x12a;" horiz-adv-x="297" 
d="M149 -6q-37 0 -89 9v714q27 4 49 6t39 2q18 0 40.5 -2t48.5 -6v-714q-53 -9 -88 -9zM300 908q7 -27 7 -56q0 -12 -1.5 -27t-5.5 -29h-302q-4 14 -5.5 28.5t-1.5 27.5t1.5 27.5t5.5 28.5h302z" />
    <glyph glyph-name="imacron" unicode="&#x12b;" horiz-adv-x="285" 
d="M294 713q7 -27 7 -56q0 -12 -1.5 -27t-5.5 -29h-302q-4 14 -5.5 28.5t-1.5 27.5t1.5 27.5t5.5 28.5h302zM227 1q-26 -4 -47 -6t-38 -2t-38 2t-46 6v516q22 5 43.5 7t41.5 2q19 0 41 -2t43 -7v-516z" />
    <glyph glyph-name="Ibreve" unicode="&#x12c;" horiz-adv-x="297" 
d="M149 -6q-37 0 -89 9v714q27 4 49 6t39 2q18 0 40.5 -2t48.5 -6v-714q-53 -9 -88 -9zM149 853q29 0 42 13t14 36q15 3 31 5t35 2q20 0 38.5 -1.5t30.5 -4.5q-4 -41 -23 -67t-46 -40.5t-59 -20t-63 -5.5t-63 5.5t-59 20t-46 40.5t-23 67q12 3 30.5 4.5t38.5 1.5q19 0 35 -2
t31 -5q1 -23 14 -36t42 -13z" />
    <glyph glyph-name="ibreve" unicode="&#x12d;" horiz-adv-x="285" 
d="M143 658q29 0 42 13t14 36q15 3 31 5t35 2q20 0 38.5 -1.5t30.5 -4.5q-4 -41 -23 -67t-46 -40.5t-59 -20t-63 -5.5t-63 5.5t-59 20t-46 40.5t-23 67q12 3 30.5 4.5t38.5 1.5q19 0 35 -2t31 -5q1 -23 14 -36t42 -13zM227 1q-26 -4 -47 -6t-38 -2t-38 2t-46 6v516
q22 5 43.5 7t41.5 2q19 0 41 -2t43 -7v-516z" />
    <glyph glyph-name="Iogonek" unicode="&#x12e;" horiz-adv-x="297" 
d="M149 -6q-37 0 -89 9v714q27 4 49 6t39 2q18 0 40.5 -2t48.5 -6v-714q-53 -9 -88 -9zM237 26q-51 -30 -85 -62.5t-34 -74.5q0 -24 14 -33.5t33 -9.5q12 0 24 3t17 5q12 -16 17.5 -38.5t5.5 -42.5q-15 -6 -41.5 -10.5t-58.5 -4.5q-26 0 -50 5t-43.5 17t-31 32t-11.5 50
q0 48 34 92t97 72h113z" />
    <glyph glyph-name="iogonek" unicode="&#x12f;" horiz-adv-x="281" 
d="M225 1q-26 -4 -47 -6t-38 -2t-38 2t-46 6v516q22 5 43.5 7t41.5 2q19 0 41 -2t43 -7v-516zM225 26q-51 -30 -85 -62.5t-34 -74.5q0 -24 14 -33.5t33 -9.5q12 0 24 3t17 5q12 -16 17.5 -38.5t5.5 -42.5q-15 -6 -41.5 -10.5t-58.5 -4.5q-26 0 -50 5t-43.5 17t-31 32
t-11.5 50q0 48 34 92t97 72h113z" />
    <glyph glyph-name="Idotaccent" unicode="&#x130;" horiz-adv-x="297" 
d="M149 -6q-37 0 -89 9v714q27 4 49 6t39 2q18 0 40.5 -2t48.5 -6v-714q-53 -9 -88 -9zM71 845q0 16 2.5 31.5t5.5 32.5q15 3 35 4.5t34 1.5t34 -1.5t36 -4.5q3 -17 5.5 -32t2.5 -32t-2.5 -32t-5.5 -32q-16 -3 -36 -4.5t-34 -1.5t-34 1.5t-35 4.5q-3 17 -5.5 32.5t-2.5 31.5
z" />
    <glyph glyph-name="IJ" unicode="&#x132;" horiz-adv-x="708" 
d="M149 -6q-37 0 -89 9v714q27 4 49 6t39 2q18 0 40.5 -2t48.5 -6v-714q-53 -9 -88 -9zM332 152q9 -2 27 -5t38 -3q12 0 26 1.5t25.5 9t19.5 22.5t8 42v344h-109q-9 42 -9 79q0 35 9 77h286v-520q0 -57 -18 -97.5t-49 -65.5t-72.5 -36.5t-89.5 -11.5q-29 0 -58 4.5t-52 11.5
q-1 8 -1.5 16t-0.5 17q0 58 20 115z" />
    <glyph glyph-name="ij" unicode="&#x133;" horiz-adv-x="658" 
d="M225 1q-26 -4 -47 -6t-38 -2t-38 2t-46 6v516q22 5 43.5 7t41.5 2q19 0 41 -2t43 -7v-516zM341 376q-5 20 -6.5 37.5t-1.5 33.5t1.5 33t6.5 37h269v-318q0 -57 -16.5 -97.5t-46 -65.5t-69 -36.5t-85.5 -11.5q-15 0 -42.5 3.5t-57.5 13.5q-1 8 -1.5 15.5t-0.5 15.5
q0 26 5 52t14 54q4 -1 12 -2.5t17.5 -2.5t18 -2t13.5 -1q11 0 23.5 1.5t23 9t17 22.5t6.5 42v167h-100z" />
    <glyph glyph-name="Jcircumflex" unicode="&#x134;" horiz-adv-x="411" 
d="M35 152q9 -2 27 -5t38 -3q12 0 26 1.5t25.5 9t19.5 22.5t8 42v344h-109q-9 42 -9 79q0 35 9 77h286v-520q0 -57 -18 -97.5t-49 -65.5t-72.5 -36.5t-89.5 -11.5q-29 0 -58 4.5t-52 11.5q-1 8 -1.5 16t-0.5 17q0 58 20 115zM208 909q13 0 34 -1t37 -4l127 -123
q-13 -4 -33 -5.5t-40 -1.5q-19 0 -38 1t-38 6l-49 48l-49 -48q-19 -5 -38 -6t-38 -1q-20 0 -40 1.5t-33 5.5l127 123q16 3 37 4t34 1z" />
    <glyph glyph-name="jcircumflex" unicode="&#x135;" horiz-adv-x="377" 
d="M60 376q-5 20 -6.5 37.5t-1.5 33.5t1.5 33t6.5 37h269v-318q0 -57 -16.5 -97.5t-46 -65.5t-69 -36.5t-85.5 -11.5q-15 0 -42.5 3.5t-57.5 13.5q-1 8 -1.5 15.5t-0.5 15.5q0 26 5 52t14 54q4 -1 12 -2.5t17.5 -2.5t18 -2t13.5 -1q11 0 23.5 1.5t23 9t17 22.5t6.5 42v167
h-100zM201 714q13 0 34 -1t37 -4l127 -123q-13 -4 -33 -5.5t-40 -1.5q-19 0 -38 1t-38 6l-49 48l-49 -48q-19 -5 -38 -6t-38 -1q-20 0 -40 1.5t-33 5.5l127 123q16 3 37 4t34 1z" />
    <glyph glyph-name="Kcommaaccent" unicode="&#x136;" horiz-adv-x="633" 
d="M446 372l187 -369q-17 -4 -45.5 -6.5t-51.5 -2.5q-29 0 -56 2.5t-46 6.5l-183 360l169 354q30 5 52 6.5t45 1.5q11 0 25 -0.5t27.5 -2t26 -3t21.5 -2.5zM60 717q27 4 49 6t39 2q18 0 40.5 -2t48.5 -6v-714q-53 -9 -88 -9q-37 0 -89 9v714zM270 -68q34 7 73 7
q18 0 37 -1.5t38 -5.5l-71 -168q-29 -7 -59 -7t-65 7z" />
    <glyph glyph-name="kcommaaccent" unicode="&#x137;" horiz-adv-x="563" 
d="M56 517q22 5 43.5 7t41.5 2q19 0 41 -2t43 -7v-515q-26 -5 -47 -6.5t-37 -1.5q-17 0 -38 1.5t-47 6.5v515zM359 517q18 4 44 6t46 2q26 0 52.5 -2t42.5 -6l-124 -240l138 -275q-18 -4 -45 -6t-47 -2q-26 0 -51.5 2t-40.5 6l-133 268zM227 -68q34 7 73 7q18 0 37 -1.5
t38 -5.5l-71 -168q-29 -7 -59 -7t-65 7z" />
    <glyph glyph-name="kgreenlandic" unicode="&#x138;" horiz-adv-x="563" 
d="M56 517q22 5 43.5 7t41.5 2q19 0 41 -2t43 -7v-515q-26 -5 -47 -6.5t-37 -1.5q-17 0 -38 1.5t-47 6.5v515zM359 517q18 4 44 6t46 2q26 0 52.5 -2t42.5 -6l-124 -240l138 -275q-18 -4 -45 -6t-47 -2q-26 0 -51.5 2t-40.5 6l-133 268z" />
    <glyph glyph-name="Lacute" unicode="&#x139;" horiz-adv-x="491" 
d="M60 717q27 4 49 6t39 2q18 0 40.5 -2t48.5 -6v-560h231q5 -25 6.5 -43.5t1.5 -33.5q0 -17 -1.5 -35.5t-6.5 -44.5h-408v717zM386.006 904q-17.999 3 -42.4971 4.5q-24.499 1.5 -50.4971 1.5q-52.9971 0 -91.9951 -6l-106.993 -123q16.999 -4 35.498 -5t37.498 -1
q42.9971 0 72.9951 6z" />
    <glyph glyph-name="lacute" unicode="&#x13a;" horiz-adv-x="434" 
d="M227 141h189q5 -20 6.5 -37t1.5 -33t-1.5 -33.5t-6.5 -37.5h-358l1 517q22 5 43.5 7t41.5 2q19 0 41 -2t43 -7zM386.006 709q-17.999 3 -42.4971 4.5q-24.499 1.5 -50.4971 1.5q-52.9971 0 -91.9951 -6l-106.993 -123q16.999 -4 35.498 -5t37.498 -1q42.9971 0 72.9951 6
z" />
    <glyph glyph-name="Lcommaaccent" unicode="&#x13b;" horiz-adv-x="491" 
d="M60 717q27 4 49 6t39 2q18 0 40.5 -2t48.5 -6v-560h231q5 -25 6.5 -43.5t1.5 -33.5q0 -17 -1.5 -35.5t-6.5 -44.5h-408v717zM194 -68q34 7 73 7q18 0 37 -1.5t38 -5.5l-71 -168q-29 -7 -59 -7t-65 7z" />
    <glyph glyph-name="lcommaaccent" unicode="&#x13c;" horiz-adv-x="434" 
d="M227 141h189q5 -20 6.5 -37t1.5 -33t-1.5 -33.5t-6.5 -37.5h-358l1 517q22 5 43.5 7t41.5 2q19 0 41 -2t43 -7zM167 -68q34 7 73 7q18 0 37 -1.5t38 -5.5l-71 -168q-29 -7 -59 -7t-65 7z" />
    <glyph glyph-name="Lcaron" unicode="&#x13d;" horiz-adv-x="491" 
d="M60 717q27 4 49 6t39 2q18 0 40.5 -2t48.5 -6v-560h231q5 -25 6.5 -43.5t1.5 -33.5q0 -17 -1.5 -35.5t-6.5 -44.5h-408v717zM304 719q27 6 60 6q15 0 32.5 -1.5t33.5 -4.5l-23 -204q-23 -6 -48 -6q-13 0 -27.5 1.5t-27.5 4.5v204z" />
    <glyph glyph-name="lcaron" unicode="&#x13e;" horiz-adv-x="434" 
d="M227 141h189q5 -20 6.5 -37t1.5 -33t-1.5 -33.5t-6.5 -37.5h-358l1 517q22 5 43.5 7t41.5 2q19 0 41 -2t43 -7zM294 521q27 6 60 6q15 0 32.5 -1.5t33.5 -4.5l-23 -204q-23 -6 -48 -6q-13 0 -27.5 1.5t-27.5 4.5v204z" />
    <glyph glyph-name="Ldot" unicode="&#x13f;" horiz-adv-x="491" 
d="M60 717q27 4 49 6t39 2q18 0 40.5 -2t48.5 -6v-560h231q5 -25 6.5 -43.5t1.5 -33.5q0 -17 -1.5 -35.5t-6.5 -44.5h-408v717zM314 417q0 16 2.5 31.5t5.5 32.5q15 3 35 4.5t34 1.5t34 -1.5t36 -4.5q3 -17 5.5 -32t2.5 -32t-2.5 -32t-5.5 -32q-16 -3 -36 -4.5t-34 -1.5
t-34 1.5t-35 4.5q-3 17 -5.5 32.5t-2.5 31.5z" />
    <glyph glyph-name="ldot" unicode="&#x140;" horiz-adv-x="437" 
d="M225 141h189q5 -20 6.5 -37t1.5 -33t-1.5 -33.5t-6.5 -37.5h-358l1 517q22 5 43.5 7t41.5 2q19 0 41 -2t43 -7zM281 323q0 16 2.5 31.5t5.5 32.5q15 3 35 4.5t34 1.5t34 -1.5t36 -4.5q3 -17 5.5 -32t2.5 -32t-2.5 -32t-5.5 -32q-16 -3 -36 -4.5t-34 -1.5t-34 1.5t-35 4.5
q-3 17 -5.5 32.5t-2.5 31.5z" />
    <glyph glyph-name="Lslash" unicode="&#x141;" horiz-adv-x="491" 
d="M237 157h231q5 -25 6.5 -43.5t1.5 -33.5q0 -17 -1.5 -35.5t-6.5 -44.5h-408v248l-52 -36q-6 28 -6 56t6 57l52 36v358h177v-235l104 72q6 -29 6 -56q0 -29 -6 -57l-104 -72v-214z" />
    <glyph glyph-name="lslash" unicode="&#x142;" horiz-adv-x="432" 
d="M56 270l1 247q22 5 43.5 7t41.5 2q19 0 41 -2t43 -7l-1 -127l63 44q3 -14 4.5 -25.5t1.5 -25.5q0 -15 -1.5 -26.5t-4.5 -25.5l-63 -45v-145h189q5 -20 6.5 -37t1.5 -33t-1.5 -33.5t-6.5 -37.5h-358v167l-48 -34q-3 14 -4.5 25t-1.5 26t1.5 26.5t4.5 25.5z" />
    <glyph glyph-name="Nacute" unicode="&#x143;" horiz-adv-x="659" 
d="M60 717q22 4 40 6t35 2q18 0 37.5 -2.5t33.5 -5.5l232 -392v392q26 4 47 6t38 2t36 -2t40 -6l-1 -714q-10 -3 -29 -6t-41 -3q-25 0 -45 3.5t-29 5.5l-233 390v-390q-44 -9 -80 -9t-81 9v714zM557.006 904q-17.999 3 -42.498 4.5q-24.498 1.5 -50.4961 1.5
q-52.9971 0 -91.9951 -6l-106.993 -123q16.999 -4 35.498 -5t37.498 -1q42.9971 0 72.9951 6z" />
    <glyph glyph-name="nacute" unicode="&#x144;" horiz-adv-x="565" 
d="M266 527q44 0 88 -7.5t79.5 -31.5t58 -69t22.5 -119v-299q-26 -5 -47 -6.5t-37 -1.5q-17 0 -38 1.5t-47 6.5v281q0 53 -20 76t-61 23q-11 0 -23.5 -2t-15.5 -4v-374q-26 -5 -47 -6.5t-37 -1.5q-17 0 -38 1.5t-47 6.5v491q35 12 85 23.5t125 11.5zM504.006 709
q-17.999 3 -42.4971 4.5q-24.499 1.5 -50.4971 1.5q-52.9971 0 -91.9951 -6l-106.993 -123q16.999 -4 35.498 -5t37.498 -1q42.9971 0 72.9951 6z" />
    <glyph glyph-name="Ncommaaccent" unicode="&#x145;" horiz-adv-x="659" 
d="M60 717q22 4 40 6t35 2q18 0 37.5 -2.5t33.5 -5.5l232 -392v392q26 4 47 6t38 2t36 -2t40 -6l-1 -714q-10 -3 -29 -6t-41 -3q-25 0 -45 3.5t-29 5.5l-233 390v-390q-44 -9 -80 -9t-81 9v714zM278 -68q34 7 73 7q18 0 37 -1.5t38 -5.5l-71 -168q-29 -7 -59 -7t-65 7z" />
    <glyph glyph-name="ncommaaccent" unicode="&#x146;" horiz-adv-x="565" 
d="M266 527q44 0 88 -7.5t79.5 -31.5t58 -69t22.5 -119v-299q-26 -5 -47 -6.5t-37 -1.5q-17 0 -38 1.5t-47 6.5v281q0 53 -20 76t-61 23q-11 0 -23.5 -2t-15.5 -4v-374q-26 -5 -47 -6.5t-37 -1.5q-17 0 -38 1.5t-47 6.5v491q35 12 85 23.5t125 11.5zM229 -68q34 7 73 7
q18 0 37 -1.5t38 -5.5l-71 -168q-29 -7 -59 -7t-65 7z" />
    <glyph glyph-name="Ncaron" unicode="&#x147;" horiz-adv-x="659" 
d="M60 717q22 4 40 6t35 2q18 0 37.5 -2.5t33.5 -5.5l232 -392v392q26 4 47 6t38 2t36 -2t40 -6l-1 -714q-10 -3 -29 -6t-41 -3q-25 0 -45 3.5t-29 5.5l-233 390v-390q-44 -9 -80 -9t-81 9v714zM332 774q-13 0 -34 1t-37 4l-127 123q13 4 33 5.5t40 1.5q19 0 38 -1t38 -6
l49 -48l49 48q19 5 38 6t38 1q20 0 40 -1.5t33 -5.5l-127 -123q-16 -3 -37 -4t-34 -1z" />
    <glyph glyph-name="ncaron" unicode="&#x148;" horiz-adv-x="565" 
d="M266 527q44 0 88 -7.5t79.5 -31.5t58 -69t22.5 -119v-299q-26 -5 -47 -6.5t-37 -1.5q-17 0 -38 1.5t-47 6.5v281q0 53 -20 76t-61 23q-11 0 -23.5 -2t-15.5 -4v-374q-26 -5 -47 -6.5t-37 -1.5q-17 0 -38 1.5t-47 6.5v491q35 12 85 23.5t125 11.5zM306 579q-13 0 -34 1
t-37 4l-127 123q13 4 33 5.5t40 1.5q19 0 38 -1t38 -6l49 -48l49 48q19 5 38 6t38 1q20 0 40 -1.5t33 -5.5l-127 -123q-16 -3 -37 -4t-34 -1z" />
    <glyph glyph-name="napostrophe" unicode="&#x149;" horiz-adv-x="565" 
d="M266 527q44 0 88 -7.5t79.5 -31.5t58 -69t22.5 -119v-299q-26 -5 -47 -6.5t-37 -1.5q-17 0 -38 1.5t-47 6.5v281q0 53 -20 76t-61 23q-11 0 -23.5 -2t-15.5 -4v-374q-26 -5 -47 -6.5t-37 -1.5q-17 0 -38 1.5t-47 6.5v491q35 12 85 23.5t125 11.5zM-39 719q14 3 33.5 4.5
t35.5 1.5q42 0 80 -6l-63 -158q-20 -3 -35.5 -4t-35.5 -1q-15 0 -28.5 1t-33.5 4z" />
    <glyph glyph-name="Eng" unicode="&#x14a;" horiz-adv-x="659" 
d="M359 -74q12 0 26 1.5t25.5 9t19.5 22.5t8 42v28l-217 354v-380q-44 -9 -80 -9t-81 9v714q22 4 40 6t35 2q18 0 37.5 -2.5t33.5 -5.5l232 -383v383q26 4 47 6t38 2t36 -2t40 -6v-732q0 -57 -15.5 -97.5t-43.5 -65.5t-67 -36.5t-87 -11.5q-29 0 -58 4.5t-52 11.5
q-1 8 -1.5 16.5t-0.5 16.5q0 54 20 111q9 -2 27 -5t38 -3z" />
    <glyph glyph-name="eng" unicode="&#x14b;" horiz-adv-x="565" 
d="M347 282q0 53 -20 76t-61 23q-11 0 -23.5 -2t-15.5 -4v-374q-26 -5 -47 -6.5t-37 -1.5q-17 0 -38 1.5t-47 6.5v491q35 12 85 23.5t125 11.5q44 0 88 -7.5t79.5 -31.5t58 -69t22.5 -119v-141q0 -35 -5.5 -65.5t-21.5 -53.5t-45 -36.5t-75 -13.5q-15 0 -39 2t-54 12
q-4 26 0.5 61.5t16.5 65.5q5 -2 11 -3.5t16 -1.5q15 0 21 8t6 25v123z" />
    <glyph glyph-name="Omacron" unicode="&#x14c;" horiz-adv-x="711" 
d="M41 357q0 80 18.5 148.5t57 118.5t98 78.5t141.5 28.5t141 -28.5t97.5 -78.5t57 -118.5t18.5 -148.5t-18.5 -147.5t-57 -117t-97.5 -77t-141 -27.5t-141.5 27.5t-98 77t-57 117t-18.5 147.5zM484 357q0 218 -127 218q-130 0 -130 -218q0 -109 31.5 -162.5t97.5 -53.5
q128 0 128 216zM506 908q7 -27 7 -56q0 -12 -1.5 -27t-5.5 -29h-302q-4 14 -5.5 28.5t-1.5 27.5t1.5 27.5t5.5 28.5h302z" />
    <glyph glyph-name="omacron" unicode="&#x14d;" horiz-adv-x="577" 
d="M31 256q0 61 16.5 111.5t49 86.5t80.5 55.5t111 19.5q64 0 112 -19.5t80.5 -55.5t49 -86.5t16.5 -111.5q0 -60 -16.5 -109.5t-49 -85t-80.5 -54.5t-112 -19q-63 0 -111 19t-80.5 54.5t-49 85t-16.5 109.5zM375 256q0 64 -21.5 98t-65.5 34t-65 -34t-21 -98q0 -63 21 -97
t65 -34t65.5 34t21.5 97zM439 713q7 -27 7 -56q0 -12 -1.5 -27t-5.5 -29h-302q-4 14 -5.5 28.5t-1.5 27.5t1.5 27.5t5.5 28.5h302z" />
    <glyph glyph-name="Obreve" unicode="&#x14e;" horiz-adv-x="711" 
d="M41 357q0 80 18.5 148.5t57 118.5t98 78.5t141.5 28.5t141 -28.5t97.5 -78.5t57 -118.5t18.5 -148.5t-18.5 -147.5t-57 -117t-97.5 -77t-141 -27.5t-141.5 27.5t-98 77t-57 117t-18.5 147.5zM484 357q0 218 -127 218q-130 0 -130 -218q0 -109 31.5 -162.5t97.5 -53.5
q128 0 128 216zM355 853q29 0 42 13t14 36q15 3 31 5t35 2q20 0 38.5 -1.5t30.5 -4.5q-4 -41 -23 -67t-46 -40.5t-59 -20t-63 -5.5t-63 5.5t-59 20t-46 40.5t-23 67q12 3 30.5 4.5t38.5 1.5q19 0 35 -2t31 -5q1 -23 14 -36t42 -13z" />
    <glyph glyph-name="obreve" unicode="&#x14f;" horiz-adv-x="577" 
d="M31 256q0 61 16.5 111.5t49 86.5t80.5 55.5t111 19.5q64 0 112 -19.5t80.5 -55.5t49 -86.5t16.5 -111.5q0 -60 -16.5 -109.5t-49 -85t-80.5 -54.5t-112 -19q-63 0 -111 19t-80.5 54.5t-49 85t-16.5 109.5zM375 256q0 64 -21.5 98t-65.5 34t-65 -34t-21 -98q0 -63 21 -97
t65 -34t65.5 34t21.5 97zM288 658q29 0 42 13t14 36q15 3 31 5t35 2q20 0 38.5 -1.5t30.5 -4.5q-4 -41 -23 -67t-46 -40.5t-59 -20t-63 -5.5t-63 5.5t-59 20t-46 40.5t-23 67q12 3 30.5 4.5t38.5 1.5q19 0 35 -2t31 -5q1 -23 14 -36t42 -13z" />
    <glyph glyph-name="Ohungarumlaut" unicode="&#x150;" horiz-adv-x="711" 
d="M41 357q0 80 18.5 148.5t57 118.5t98 78.5t141.5 28.5t141 -28.5t97.5 -78.5t57 -118.5t18.5 -148.5t-18.5 -147.5t-57 -117t-97.5 -77t-141 -27.5t-141.5 27.5t-98 77t-57 117t-18.5 147.5zM484 357q0 218 -127 218q-130 0 -130 -218q0 -109 31.5 -162.5t97.5 -53.5
q128 0 128 216zM307 781q-10 -2 -29 -4t-40 -2q-36 0 -69 6l117 123q22 4 42 5t39 1q41 0 77 -6zM523 781q-11 -2 -29.5 -4t-40.5 -2q-37 0 -68 6l116 123q23 4 43 5t39 1q39 0 77 -6z" />
    <glyph glyph-name="ohungarumlaut" unicode="&#x151;" horiz-adv-x="577" 
d="M31 256q0 61 16.5 111.5t49 86.5t80.5 55.5t111 19.5q64 0 112 -19.5t80.5 -55.5t49 -86.5t16.5 -111.5q0 -60 -16.5 -109.5t-49 -85t-80.5 -54.5t-112 -19q-63 0 -111 19t-80.5 54.5t-49 85t-16.5 109.5zM375 256q0 64 -21.5 98t-65.5 34t-65 -34t-21 -98q0 -63 21 -97
t65 -34t65.5 34t21.5 97zM250 586q-10 -2 -29 -4t-40 -2q-36 0 -69 6l117 123q22 4 42 5t39 1q41 0 77 -6zM466 586q-11 -2 -29.5 -4t-40.5 -2q-37 0 -68 6l116 123q23 4 43 5t39 1q39 0 77 -6z" />
    <glyph glyph-name="OE" unicode="&#x152;" horiz-adv-x="911" 
d="M873 155q4 -21 6 -40t2 -36t-2 -37.5t-6 -41.5h-390q-26 -6 -60 -9t-57 -3q-81 0 -142 28t-101.5 77.5t-61 117t-20.5 147.5t20.5 148t61 118t101.5 78.5t142 28.5q26 0 56.5 -2.5t56.5 -9.5h387q9 -42 9 -77q0 -17 -2 -37t-7 -41h-247v-110h196q5 -23 6.5 -42t1.5 -36
t-1.5 -36.5t-6.5 -42.5h-196v-142h254zM444 571q-14 4 -32.5 6t-44.5 2q-66 0 -103 -56.5t-37 -164.5q0 -109 36.5 -165t102.5 -56q27 0 45 2t33 7v425z" />
    <glyph glyph-name="oe" unicode="&#x153;" horiz-adv-x="876" 
d="M539 205q11 -41 38.5 -58t72.5 -17q29 0 65 7t71 21q14 -26 24.5 -62t11.5 -75q-89 -33 -182 -33q-61 0 -110 23t-74 56q-27 -35 -71 -57t-104 -22t-106.5 19t-78.5 54.5t-48.5 85t-16.5 109.5q0 61 16.5 111.5t49 86.5t80.5 55.5t111 19.5q55 0 100.5 -23t70.5 -58
q10 15 25.5 29.5t36.5 26t48 18.5t61 7q102 0 161 -63.5t59 -176.5q0 -27 -2.5 -48.5t-4.5 -35.5h-304zM619 402q-32 0 -54.5 -20t-27.5 -62h160q-2 36 -21.5 59t-56.5 23zM375 256q0 64 -21.5 98t-65.5 34t-65 -34t-21 -98q0 -63 21 -97t65 -34t65.5 34t21.5 97z" />
    <glyph glyph-name="Racute" unicode="&#x154;" horiz-adv-x="616" 
d="M60 717q49 5 90.5 9.5t87.5 4.5q55 0 110 -10.5t98 -36.5t70 -71t27 -114q0 -37 -8.5 -66.5t-22 -52.5t-30 -40t-32.5 -29l156 -308q-24 -4 -52.5 -6t-51.5 -2q-20 0 -46.5 2t-46.5 6l-142 327l9 5q12 6 26.5 20t27 33.5t21 43.5t8.5 50q0 50 -28 73t-69 23q-10 0 -17 -1
t-9 -2v-572q-53 -9 -87 -9q-37 0 -89 9v714zM506.006 904q-17.999 3 -42.4971 4.5q-24.499 1.5 -50.4971 1.5q-52.9971 0 -91.9951 -6l-106.993 -123q16.999 -4 35.498 -5t37.498 -1q42.9971 0 72.9951 6z" />
    <glyph glyph-name="racute" unicode="&#x155;" horiz-adv-x="549" 
d="M56 515q47 6 97.5 10t95.5 4q121 0 181.5 -45.5t60.5 -127.5q0 -31 -7 -54t-17 -39.5t-21 -26.5t-18 -16l114 -218q-20 -4 -44.5 -6t-47.5 -2q-28 0 -54 2t-43 6l-111 236l14 8q35 20 48 42.5t13 48.5t-15.5 42.5t-49.5 16.5q-19 0 -29 -2v-393q-26 -5 -47 -6.5t-37 -1.5
q-17 0 -37 1.5t-46 6.5v514zM483.006 709q-17.999 3 -42.4971 4.5q-24.499 1.5 -50.4971 1.5q-52.9971 0 -91.9951 -6l-106.993 -123q16.999 -4 35.498 -5t37.498 -1q42.9971 0 72.9951 6z" />
    <glyph glyph-name="Rcommaaccent" unicode="&#x156;" horiz-adv-x="616" 
d="M60 717q49 5 90.5 9.5t87.5 4.5q55 0 110 -10.5t98 -36.5t70 -71t27 -114q0 -37 -8.5 -66.5t-22 -52.5t-30 -40t-32.5 -29l156 -308q-24 -4 -52.5 -6t-51.5 -2q-20 0 -46.5 2t-46.5 6l-142 327l9 5q12 6 26.5 20t27 33.5t21 43.5t8.5 50q0 50 -28 73t-69 23q-10 0 -17 -1
t-9 -2v-572q-53 -9 -87 -9q-37 0 -89 9v714zM257 -68q34 7 73 7q18 0 37 -1.5t38 -5.5l-71 -168q-29 -7 -59 -7t-65 7z" />
    <glyph glyph-name="rcommaaccent" unicode="&#x157;" horiz-adv-x="549" 
d="M56 515q47 6 97.5 10t95.5 4q121 0 181.5 -45.5t60.5 -127.5q0 -31 -7 -54t-17 -39.5t-21 -26.5t-18 -16l114 -218q-20 -4 -44.5 -6t-47.5 -2q-28 0 -54 2t-43 6l-111 236l14 8q35 20 48 42.5t13 48.5t-15.5 42.5t-49.5 16.5q-19 0 -29 -2v-393q-26 -5 -47 -6.5t-37 -1.5
q-17 0 -37 1.5t-46 6.5v514zM222 -68q34 7 73 7q18 0 37 -1.5t38 -5.5l-71 -168q-29 -7 -59 -7t-65 7z" />
    <glyph glyph-name="Rcaron" unicode="&#x158;" horiz-adv-x="616" 
d="M60 717q49 5 90.5 9.5t87.5 4.5q55 0 110 -10.5t98 -36.5t70 -71t27 -114q0 -37 -8.5 -66.5t-22 -52.5t-30 -40t-32.5 -29l156 -308q-24 -4 -52.5 -6t-51.5 -2q-20 0 -46.5 2t-46.5 6l-142 327l9 5q12 6 26.5 20t27 33.5t21 43.5t8.5 50q0 50 -28 73t-69 23q-10 0 -17 -1
t-9 -2v-572q-53 -9 -87 -9q-37 0 -89 9v714zM297 774q-13 0 -34 1t-37 4l-127 123q13 4 33 5.5t40 1.5q19 0 38 -1t38 -6l49 -48l49 48q19 5 38 6t38 1q20 0 40 -1.5t33 -5.5l-127 -123q-16 -3 -37 -4t-34 -1z" />
    <glyph glyph-name="rcaron" unicode="&#x159;" horiz-adv-x="549" 
d="M56 515q47 6 97.5 10t95.5 4q121 0 181.5 -45.5t60.5 -127.5q0 -31 -7 -54t-17 -39.5t-21 -26.5t-18 -16l114 -218q-20 -4 -44.5 -6t-47.5 -2q-28 0 -54 2t-43 6l-111 236l14 8q35 20 48 42.5t13 48.5t-15.5 42.5t-49.5 16.5q-19 0 -29 -2v-393q-26 -5 -47 -6.5t-37 -1.5
q-17 0 -37 1.5t-46 6.5v514zM288 579q-13 0 -34 1t-37 4l-127 123q13 4 33 5.5t40 1.5q19 0 38 -1t38 -6l49 -48l49 48q19 5 38 6t38 1q20 0 40 -1.5t33 -5.5l-127 -123q-16 -3 -37 -4t-34 -1z" />
    <glyph glyph-name="Sacute" unicode="&#x15a;" horiz-adv-x="564" 
d="M340 439q42 -17 75.5 -34.5t57.5 -42t37 -59t13 -83.5q0 -53 -18.5 -95.5t-54.5 -73t-88.5 -47t-120.5 -16.5q-62 0 -109.5 10t-102.5 31q4 35 14 74.5t24 80.5q92 -40 160 -40q51 0 79.5 15.5t28.5 53.5q0 16 -6 27.5t-16 19.5t-22.5 13.5t-25.5 10.5l-56 21
q-36 13 -65.5 31t-50.5 42.5t-32.5 56.5t-11.5 75q0 53 18 94t50.5 69.5t78.5 43t103 14.5q51 0 98.5 -10t101.5 -29q-4 -32 -14.5 -70.5t-26.5 -72.5q-26 11 -61 23t-87 12q-16 0 -30.5 -3t-26 -9.5t-18.5 -18t-7 -28.5q0 -29 19 -43t45 -24zM501.006 904
q-17.999 3 -42.4971 4.5q-24.499 1.5 -50.4971 1.5q-52.9971 0 -91.9951 -6l-106.993 -123q16.999 -4 35.498 -5t37.498 -1q42.9971 0 72.9951 6z" />
    <glyph glyph-name="sacute" unicode="&#x15b;" horiz-adv-x="470" 
d="M305 324q30 -8 54.5 -19.5t42 -29.5t27.5 -44t10 -63q0 -38 -15.5 -71t-46 -57t-75 -38t-102.5 -14q-48 0 -89 7t-87 24q5 68 37 138q32 -15 67 -22.5t70 -7.5q12 0 25 1t23 4.5t16.5 9.5t6.5 16q0 13 -13 19.5t-30 11.5l-68 19q-53 15 -88 51t-35 98q0 39 16 71t45 54.5
t68.5 34.5t87.5 12q38 0 83 -8t89 -23q-2 -32 -13 -68.5t-25 -64.5q-27 11 -65 20t-70 9q-47 0 -47 -26q0 -11 11 -17t25 -10zM466.006 709q-17.999 3 -42.4971 4.5q-24.499 1.5 -50.4971 1.5q-52.9971 0 -91.9951 -6l-106.993 -123q16.999 -4 35.498 -5t37.498 -1
q42.9971 0 72.9951 6z" />
    <glyph glyph-name="Scircumflex" unicode="&#x15c;" horiz-adv-x="564" 
d="M340 439q42 -17 75.5 -34.5t57.5 -42t37 -59t13 -83.5q0 -53 -18.5 -95.5t-54.5 -73t-88.5 -47t-120.5 -16.5q-62 0 -109.5 10t-102.5 31q4 35 14 74.5t24 80.5q92 -40 160 -40q51 0 79.5 15.5t28.5 53.5q0 16 -6 27.5t-16 19.5t-22.5 13.5t-25.5 10.5l-56 21
q-36 13 -65.5 31t-50.5 42.5t-32.5 56.5t-11.5 75q0 53 18 94t50.5 69.5t78.5 43t103 14.5q51 0 98.5 -10t101.5 -29q-4 -32 -14.5 -70.5t-26.5 -72.5q-26 11 -61 23t-87 12q-16 0 -30.5 -3t-26 -9.5t-18.5 -18t-7 -28.5q0 -29 19 -43t45 -24zM302 909q13 0 34 -1t37 -4
l127 -123q-13 -4 -33 -5.5t-40 -1.5q-19 0 -38 1t-38 6l-49 48l-49 -48q-19 -5 -38 -6t-38 -1q-20 0 -40 1.5t-33 5.5l127 123q16 3 37 4t34 1z" />
    <glyph glyph-name="scircumflex" unicode="&#x15d;" horiz-adv-x="470" 
d="M305 324q30 -8 54.5 -19.5t42 -29.5t27.5 -44t10 -63q0 -38 -15.5 -71t-46 -57t-75 -38t-102.5 -14q-48 0 -89 7t-87 24q5 68 37 138q32 -15 67 -22.5t70 -7.5q12 0 25 1t23 4.5t16.5 9.5t6.5 16q0 13 -13 19.5t-30 11.5l-68 19q-53 15 -88 51t-35 98q0 39 16 71t45 54.5
t68.5 34.5t87.5 12q38 0 83 -8t89 -23q-2 -32 -13 -68.5t-25 -64.5q-27 11 -65 20t-70 9q-47 0 -47 -26q0 -11 11 -17t25 -10zM245 714q13 0 34 -1t37 -4l127 -123q-13 -4 -33 -5.5t-40 -1.5q-19 0 -38 1t-38 6l-49 48l-49 -48q-19 -5 -38 -6t-38 -1q-20 0 -40 1.5t-33 5.5
l127 123q16 3 37 4t34 1z" />
    <glyph glyph-name="Scedilla" unicode="&#x15e;" horiz-adv-x="564" 
d="M340 439q42 -17 75.5 -34.5t57.5 -42t37 -59t13 -83.5q0 -53 -18.5 -95.5t-54.5 -73t-88.5 -47t-120.5 -16.5q-62 0 -109.5 10t-102.5 31q4 35 14 74.5t24 80.5q92 -40 160 -40q51 0 79.5 15.5t28.5 53.5q0 16 -6 27.5t-16 19.5t-22.5 13.5t-25.5 10.5l-56 21
q-36 13 -65.5 31t-50.5 42.5t-32.5 56.5t-11.5 75q0 53 18 94t50.5 69.5t78.5 43t103 14.5q51 0 98.5 -10t101.5 -29q-4 -32 -14.5 -70.5t-26.5 -72.5q-26 11 -61 23t-87 12q-16 0 -30.5 -3t-26 -9.5t-18.5 -18t-7 -28.5q0 -29 19 -43t45 -24zM242 -115q-10 0 -22 -1.5
t-37 -9.5l-20 20l84 132h84l-49 -76q55 -2 86 -25.5t31 -61.5q0 -52 -43.5 -78.5t-117.5 -26.5q-23 0 -47.5 3t-44.5 11q0 11 5 31t16 36q19 -6 34.5 -8.5t34.5 -2.5q26 0 36 9t10 21t-10 19.5t-30 7.5z" />
    <glyph glyph-name="scedilla" unicode="&#x15f;" horiz-adv-x="470" 
d="M305 324q30 -8 54.5 -19.5t42 -29.5t27.5 -44t10 -63q0 -38 -15.5 -71t-46 -57t-75 -38t-102.5 -14q-48 0 -89 7t-87 24q5 68 37 138q32 -15 67 -22.5t70 -7.5q12 0 25 1t23 4.5t16.5 9.5t6.5 16q0 13 -13 19.5t-30 11.5l-68 19q-53 15 -88 51t-35 98q0 39 16 71t45 54.5
t68.5 34.5t87.5 12q38 0 83 -8t89 -23q-2 -32 -13 -68.5t-25 -64.5q-27 11 -65 20t-70 9q-47 0 -47 -26q0 -11 11 -17t25 -10zM201 -115q-10 0 -22 -1.5t-37 -9.5l-20 20l84 132h84l-49 -76q55 -2 86 -25.5t31 -61.5q0 -52 -43.5 -78.5t-117.5 -26.5q-23 0 -47.5 3t-44.5 11
q0 11 5 31t16 36q19 -6 34.5 -8.5t34.5 -2.5q26 0 36 9t10 21t-10 19.5t-30 7.5z" />
    <glyph glyph-name="Scaron" unicode="&#x160;" horiz-adv-x="564" 
d="M340 439q42 -17 75.5 -34.5t57.5 -42t37 -59t13 -83.5q0 -53 -18.5 -95.5t-54.5 -73t-88.5 -47t-120.5 -16.5q-62 0 -109.5 10t-102.5 31q4 35 14 74.5t24 80.5q92 -40 160 -40q51 0 79.5 15.5t28.5 53.5q0 16 -6 27.5t-16 19.5t-22.5 13.5t-25.5 10.5l-56 21
q-36 13 -65.5 31t-50.5 42.5t-32.5 56.5t-11.5 75q0 53 18 94t50.5 69.5t78.5 43t103 14.5q51 0 98.5 -10t101.5 -29q-4 -32 -14.5 -70.5t-26.5 -72.5q-26 11 -61 23t-87 12q-16 0 -30.5 -3t-26 -9.5t-18.5 -18t-7 -28.5q0 -29 19 -43t45 -24zM304 774q-13 0 -34 1t-37 4
l-127 123q13 4 33 5.5t40 1.5q19 0 38 -1t38 -6l49 -48l49 48q19 5 38 6t38 1q20 0 40 -1.5t33 -5.5l-127 -123q-16 -3 -37 -4t-34 -1z" />
    <glyph glyph-name="scaron" unicode="&#x161;" horiz-adv-x="470" 
d="M305 324q30 -8 54.5 -19.5t42 -29.5t27.5 -44t10 -63q0 -38 -15.5 -71t-46 -57t-75 -38t-102.5 -14q-48 0 -89 7t-87 24q5 68 37 138q32 -15 67 -22.5t70 -7.5q12 0 25 1t23 4.5t16.5 9.5t6.5 16q0 13 -13 19.5t-30 11.5l-68 19q-53 15 -88 51t-35 98q0 39 16 71t45 54.5
t68.5 34.5t87.5 12q38 0 83 -8t89 -23q-2 -32 -13 -68.5t-25 -64.5q-27 11 -65 20t-70 9q-47 0 -47 -26q0 -11 11 -17t25 -10zM265 579q-13 0 -34 1t-37 4l-127 123q13 4 33 5.5t40 1.5q19 0 38 -1t38 -6l49 -48l49 48q19 5 38 6t38 1q20 0 40 -1.5t33 -5.5l-127 -123
q-16 -3 -37 -4t-34 -1z" />
    <glyph glyph-name="Tcommaaccent" unicode="&#x162;" horiz-adv-x="558" 
d="M191 563h-167q-9 43 -9 79q0 33 9 77h511q4 -22 6 -41t2 -36q0 -33 -8 -79h-167v-560q-53 -9 -88 -9q-37 0 -89 9v560zM209 -68q34 7 73 7q18 0 37 -1.5t38 -5.5l-71 -168q-29 -7 -59 -7t-65 7z" />
    <glyph glyph-name="tcommaaccent" unicode="&#x163;" horiz-adv-x="511" 
d="M171 376h-148q-5 20 -6.5 37.5t-1.5 33.5t1.5 33t6.5 37h465q5 -20 6.5 -37t1.5 -33t-1.5 -33.5t-6.5 -37.5h-148v-375q-26 -4 -47 -6t-38 -2t-38 2t-46 6v375zM189 -68q34 7 73 7q18 0 37 -1.5t38 -5.5l-71 -168q-29 -7 -59 -7t-65 7z" />
    <glyph glyph-name="Tcaron" unicode="&#x164;" horiz-adv-x="558" 
d="M191 563h-167q-9 43 -9 79q0 33 9 77h511q4 -22 6 -41t2 -36q0 -33 -8 -79h-167v-560q-53 -9 -88 -9q-37 0 -89 9v560zM279 774q-13 0 -34 1t-37 4l-127 123q13 4 33 5.5t40 1.5q19 0 38 -1t38 -6l49 -48l49 48q19 5 38 6t38 1q20 0 40 -1.5t33 -5.5l-127 -123
q-16 -3 -37 -4t-34 -1z" />
    <glyph glyph-name="tcaron" unicode="&#x165;" horiz-adv-x="511" 
d="M171 376h-148q-5 20 -6.5 37.5t-1.5 33.5t1.5 33t6.5 37h465q5 -20 6.5 -37t1.5 -33t-1.5 -33.5t-6.5 -37.5h-148v-375q-26 -4 -47 -6t-38 -2t-38 2t-46 6v375zM255 579q-13 0 -34 1t-37 4l-127 123q13 4 33 5.5t40 1.5q19 0 38 -1t38 -6l49 -48l49 48q19 5 38 6t38 1
q20 0 40 -1.5t33 -5.5l-127 -123q-16 -3 -37 -4t-34 -1z" />
    <glyph glyph-name="Tbar" unicode="&#x166;" horiz-adv-x="558" 
d="M64 326q0 25 9 55h118v182h-167q-9 43 -9 79q0 33 9 77h511q4 -22 6 -41t2 -36q0 -33 -8 -79h-167v-182h118q5 -15 6.5 -28.5t1.5 -25.5t-1.5 -26t-6.5 -29h-118v-269q-53 -9 -88 -9q-37 0 -89 9v269h-118q-9 30 -9 54z" />
    <glyph glyph-name="tbar" unicode="&#x167;" horiz-adv-x="511" 
d="M67 174q-5 12 -6 25t-1 22q0 8 1 21t6 25h104v109h-148q-5 20 -6.5 37.5t-1.5 33.5t1.5 33t6.5 37h465q5 -20 6.5 -37t1.5 -33t-1.5 -33.5t-6.5 -37.5h-148v-109h103q5 -12 6 -25t1 -21q0 -9 -1 -22t-6 -25h-103v-173q-26 -4 -47 -6t-38 -2t-38 2t-46 6v173h-104z" />
    <glyph glyph-name="Utilde" unicode="&#x168;" horiz-adv-x="662" 
d="M331 -11q-81 0 -134.5 22t-84.5 63.5t-43.5 100.5t-12.5 133v409q29 4 50 5.5t40 1.5q17 0 37.5 -1.5t49.5 -5.5v-388q0 -50 4 -85t14.5 -57t29.5 -31.5t50 -9.5t50.5 9.5t30 31.5t14 57t3.5 85v388q30 4 50.5 5.5t37.5 1.5q18 0 39 -1.5t50 -5.5v-409q0 -74 -12.5 -133
t-43.5 -100.5t-84.5 -63.5t-134.5 -22zM140 870q19 22 48.5 38t67.5 16q20 0 37.5 -5.5t36.5 -12.5q17 -7 35.5 -12.5t38.5 -5.5t35.5 5.5t36.5 25.5q16 -17 27.5 -40t18.5 -47q-18 -23 -48 -38.5t-65 -15.5q-22 0 -42 6t-38 12q-19 7 -36.5 12.5t-35.5 5.5q-20 0 -36.5 -6
t-34.5 -25q-16 17 -27.5 40t-18.5 47z" />
    <glyph glyph-name="utilde" unicode="&#x169;" horiz-adv-x="565" 
d="M509 24q-17 -6 -40.5 -12t-50 -11.5t-54.5 -8.5t-55 -3q-51 0 -98 8t-82.5 32.5t-56.5 71t-21 124.5v292q22 5 43.5 7t41.5 2q19 0 41 -2t43 -7v-278q0 -60 20 -82t61 -22q17 0 26 1t13 2v379q22 5 43.5 7t41.5 2q19 0 41 -2t43 -7v-493zM87 675q19 22 48.5 38t67.5 16
q20 0 37.5 -5.5t36.5 -12.5q17 -7 35.5 -12.5t38.5 -5.5t35.5 5.5t36.5 25.5q16 -17 27.5 -40t18.5 -47q-18 -23 -48 -38.5t-65 -15.5q-22 0 -42 6t-38 12q-19 7 -36.5 12.5t-35.5 5.5q-20 0 -36.5 -6t-34.5 -25q-16 17 -27.5 40t-18.5 47z" />
    <glyph glyph-name="Umacron" unicode="&#x16a;" horiz-adv-x="662" 
d="M331 -11q-81 0 -134.5 22t-84.5 63.5t-43.5 100.5t-12.5 133v409q29 4 50 5.5t40 1.5q17 0 37.5 -1.5t49.5 -5.5v-388q0 -50 4 -85t14.5 -57t29.5 -31.5t50 -9.5t50.5 9.5t30 31.5t14 57t3.5 85v388q30 4 50.5 5.5t37.5 1.5q18 0 39 -1.5t50 -5.5v-409q0 -74 -12.5 -133
t-43.5 -100.5t-84.5 -63.5t-134.5 -22zM482 908q7 -27 7 -56q0 -12 -1.5 -27t-5.5 -29h-302q-4 14 -5.5 28.5t-1.5 27.5t1.5 27.5t5.5 28.5h302z" />
    <glyph glyph-name="umacron" unicode="&#x16b;" horiz-adv-x="565" 
d="M509 24q-17 -6 -40.5 -12t-50 -11.5t-54.5 -8.5t-55 -3q-51 0 -98 8t-82.5 32.5t-56.5 71t-21 124.5v292q22 5 43.5 7t41.5 2q19 0 41 -2t43 -7v-278q0 -60 20 -82t61 -22q17 0 26 1t13 2v379q22 5 43.5 7t41.5 2q19 0 41 -2t43 -7v-493zM426 713q7 -27 7 -56
q0 -12 -1.5 -27t-5.5 -29h-302q-4 14 -5.5 28.5t-1.5 27.5t1.5 27.5t5.5 28.5h302z" />
    <glyph glyph-name="Ubreve" unicode="&#x16c;" horiz-adv-x="662" 
d="M331 -11q-81 0 -134.5 22t-84.5 63.5t-43.5 100.5t-12.5 133v409q29 4 50 5.5t40 1.5q17 0 37.5 -1.5t49.5 -5.5v-388q0 -50 4 -85t14.5 -57t29.5 -31.5t50 -9.5t50.5 9.5t30 31.5t14 57t3.5 85v388q30 4 50.5 5.5t37.5 1.5q18 0 39 -1.5t50 -5.5v-409q0 -74 -12.5 -133
t-43.5 -100.5t-84.5 -63.5t-134.5 -22zM331 853q29 0 42 13t14 36q15 3 31 5t35 2q20 0 38.5 -1.5t30.5 -4.5q-4 -41 -23 -67t-46 -40.5t-59 -20t-63 -5.5t-63 5.5t-59 20t-46 40.5t-23 67q12 3 30.5 4.5t38.5 1.5q19 0 35 -2t31 -5q1 -23 14 -36t42 -13z" />
    <glyph glyph-name="ubreve" unicode="&#x16d;" horiz-adv-x="565" 
d="M509 24q-17 -6 -40.5 -12t-50 -11.5t-54.5 -8.5t-55 -3q-51 0 -98 8t-82.5 32.5t-56.5 71t-21 124.5v292q22 5 43.5 7t41.5 2q19 0 41 -2t43 -7v-278q0 -60 20 -82t61 -22q17 0 26 1t13 2v379q22 5 43.5 7t41.5 2q19 0 41 -2t43 -7v-493zM278 658q29 0 42 13t14 36
q15 3 31 5t35 2q20 0 38.5 -1.5t30.5 -4.5q-4 -41 -23 -67t-46 -40.5t-59 -20t-63 -5.5t-63 5.5t-59 20t-46 40.5t-23 67q12 3 30.5 4.5t38.5 1.5q19 0 35 -2t31 -5q1 -23 14 -36t42 -13z" />
    <glyph glyph-name="Uring" unicode="&#x16e;" horiz-adv-x="662" 
d="M331 -11q-81 0 -134.5 22t-84.5 63.5t-43.5 100.5t-12.5 133v409q29 4 50 5.5t40 1.5q17 0 37.5 -1.5t49.5 -5.5v-388q0 -50 4 -85t14.5 -57t29.5 -31.5t50 -9.5t50.5 9.5t30 31.5t14 57t3.5 85v388q30 4 50.5 5.5t37.5 1.5q18 0 39 -1.5t50 -5.5v-409q0 -74 -12.5 -133
t-43.5 -100.5t-84.5 -63.5t-134.5 -22zM206 880q0 54 36 84t89 30t89 -30t36 -84t-36 -84t-89 -30t-89 30t-36 84zM331 830q21 0 35.5 14t14.5 36q0 21 -14.5 35.5t-35.5 14.5q-22 0 -36 -14t-14 -36t14 -36t36 -14z" />
    <glyph glyph-name="uring" unicode="&#x16f;" horiz-adv-x="565" 
d="M509 24q-17 -6 -40.5 -12t-50 -11.5t-54.5 -8.5t-55 -3q-51 0 -98 8t-82.5 32.5t-56.5 71t-21 124.5v292q22 5 43.5 7t41.5 2q19 0 41 -2t43 -7v-278q0 -60 20 -82t61 -22q17 0 26 1t13 2v379q22 5 43.5 7t41.5 2q19 0 41 -2t43 -7v-493zM154 685q0 54 36 84t89 30
t89 -30t36 -84t-36 -84t-89 -30t-89 30t-36 84zM279 635q21 0 35.5 14t14.5 36q0 21 -14.5 35.5t-35.5 14.5q-22 0 -36 -14t-14 -36t14 -36t36 -14z" />
    <glyph glyph-name="Uhungarumlaut" unicode="&#x170;" horiz-adv-x="662" 
d="M331 -11q-81 0 -134.5 22t-84.5 63.5t-43.5 100.5t-12.5 133v409q29 4 50 5.5t40 1.5q17 0 37.5 -1.5t49.5 -5.5v-388q0 -50 4 -85t14.5 -57t29.5 -31.5t50 -9.5t50.5 9.5t30 31.5t14 57t3.5 85v388q30 4 50.5 5.5t37.5 1.5q18 0 39 -1.5t50 -5.5v-409q0 -74 -12.5 -133
t-43.5 -100.5t-84.5 -63.5t-134.5 -22zM283 781q-10 -2 -29 -4t-40 -2q-36 0 -69 6l117 123q22 4 42 5t39 1q41 0 77 -6zM499 781q-11 -2 -29.5 -4t-40.5 -2q-37 0 -68 6l116 123q23 4 43 5t39 1q39 0 77 -6z" />
    <glyph glyph-name="uhungarumlaut" unicode="&#x171;" horiz-adv-x="565" 
d="M509 24q-17 -6 -40.5 -12t-50 -11.5t-54.5 -8.5t-55 -3q-51 0 -98 8t-82.5 32.5t-56.5 71t-21 124.5v292q22 5 43.5 7t41.5 2q19 0 41 -2t43 -7v-278q0 -60 20 -82t61 -22q17 0 26 1t13 2v379q22 5 43.5 7t41.5 2q19 0 41 -2t43 -7v-493zM246 586q-10 -2 -29 -4t-40 -2
q-36 0 -69 6l117 123q22 4 42 5t39 1q41 0 77 -6zM462 586q-11 -2 -29.5 -4t-40.5 -2q-37 0 -68 6l116 123q23 4 43 5t39 1q39 0 77 -6z" />
    <glyph glyph-name="Uogonek" unicode="&#x172;" horiz-adv-x="662" 
d="M331 -11q-81 0 -134.5 22t-84.5 63.5t-43.5 100.5t-12.5 133v409q29 4 50 5.5t40 1.5q17 0 37.5 -1.5t49.5 -5.5v-388q0 -50 4 -85t14.5 -57t29.5 -31.5t50 -9.5t50.5 9.5t30 31.5t14 57t3.5 85v388q30 4 50.5 5.5t37.5 1.5q18 0 39 -1.5t50 -5.5v-409q0 -74 -12.5 -133
t-43.5 -100.5t-84.5 -63.5t-134.5 -22zM463 26q-51 -30 -85 -62.5t-34 -74.5q0 -24 14 -33.5t33 -9.5q12 0 24 3t17 5q12 -16 17.5 -38.5t5.5 -42.5q-15 -6 -41.5 -10.5t-58.5 -4.5q-26 0 -50 5t-43.5 17t-31 32t-11.5 50q0 48 34 92t97 72h113z" />
    <glyph glyph-name="uogonek" unicode="&#x173;" horiz-adv-x="565" 
d="M509 24q-17 -6 -40.5 -12t-50 -11.5t-54.5 -8.5t-55 -3q-51 0 -98 8t-82.5 32.5t-56.5 71t-21 124.5v292q22 5 43.5 7t41.5 2q19 0 41 -2t43 -7v-278q0 -60 20 -82t61 -22q17 0 26 1t13 2v379q22 5 43.5 7t41.5 2q19 0 41 -2t43 -7v-493zM508 26q-51 -30 -85 -62.5
t-34 -74.5q0 -24 14 -33.5t33 -9.5q12 0 24 3t17 5q12 -16 17.5 -38.5t5.5 -42.5q-15 -6 -41.5 -10.5t-58.5 -4.5q-26 0 -50 5t-43.5 17t-31 32t-11.5 50q0 48 34 92t97 72h113z" />
    <glyph glyph-name="Wcircumflex" unicode="&#x174;" horiz-adv-x="896" 
d="M720 717q26 5 44 6.5t37 1.5q20 0 42 -1.5t50 -6.5l-172 -714q-15 -3 -38.5 -6t-51.5 -3t-54.5 3.5t-35.5 5.5l-95 414l-101 -414q-9 -2 -33.5 -5.5t-52.5 -3.5t-50 3t-37 6l-169 713q28 5 54 7t46 2q19 0 39.5 -1.5t46.5 -6.5l83 -457q25 110 50 229.5t49 227.5
q18 3 40 5.5t45 2.5q20 0 41 -2.5t36 -5.5l104 -462zM449 909q13 0 34 -1t37 -4l127 -123q-13 -4 -33 -5.5t-40 -1.5q-19 0 -38 1t-38 6l-49 48l-49 -48q-19 -5 -38 -6t-38 -1q-20 0 -40 1.5t-33 5.5l127 123q16 3 37 4t34 1z" />
    <glyph glyph-name="wcircumflex" unicode="&#x175;" horiz-adv-x="799" 
d="M556 219l62 298q8 2 31 4t49 2q33 0 58.5 -2t36.5 -4l-162 -515q-17 -5 -37 -6.5t-40 -1.5t-40.5 1.5t-42.5 6.5l-73 280q-19 -67 -38.5 -141t-37.5 -139q-21 -5 -41.5 -6.5t-40.5 -1.5t-40 1.5t-37 6.5l-157 515q11 2 38.5 4t60.5 2q26 0 50.5 -2t32.5 -4l65 -306
l72 306q17 5 37.5 6.5t40.5 1.5t40.5 -1.5t41.5 -6.5zM404 714q13 0 34 -1t37 -4l127 -123q-13 -4 -33 -5.5t-40 -1.5q-19 0 -38 1t-38 6l-49 48l-49 -48q-19 -5 -38 -6t-38 -1q-20 0 -40 1.5t-33 5.5l127 123q16 3 37 4t34 1z" />
    <glyph glyph-name="Ycircumflex" unicode="&#x176;" horiz-adv-x="622" 
d="M433 717q23 4 48 6t51 2q17 0 44 -2.5t46 -5.5l-223 -459v-255q-53 -9 -88 -9q-37 0 -89 9v255q-26 54 -54.5 112.5l-57 117t-56.5 117t-54 112.5q17 3 46 5.5t55 2.5q21 0 46.5 -2.5t44.5 -5.5l123 -278zM311 909q13 0 34 -1t37 -4l127 -123q-13 -4 -33 -5.5t-40 -1.5
q-19 0 -38 1t-38 6l-49 48l-49 -48q-19 -5 -38 -6t-38 -1q-20 0 -40 1.5t-33 5.5l127 123q16 3 37 4t34 1z" />
    <glyph glyph-name="ycircumflex" unicode="&#x177;" horiz-adv-x="564" 
d="M384 517q8 2 30.5 4t48.5 2q33 0 59 -2t37 -4l-193 -335v-181q-26 -4 -47 -6t-38 -2t-38 2t-46 6v181l-192 335q11 2 38.5 4t60.5 2q26 0 51 -2t33 -4l98 -197zM282 714q13 0 34 -1t37 -4l127 -123q-13 -4 -33 -5.5t-40 -1.5q-19 0 -38 1t-38 6l-49 48l-49 -48
q-19 -5 -38 -6t-38 -1q-20 0 -40 1.5t-33 5.5l127 123q16 3 37 4t34 1z" />
    <glyph glyph-name="Ydieresis" unicode="&#x178;" horiz-adv-x="622" 
d="M433 717q23 4 48 6t51 2q17 0 44 -2.5t46 -5.5l-223 -459v-255q-53 -9 -88 -9q-37 0 -89 9v255q-26 54 -54.5 112.5l-57 117t-56.5 117t-54 112.5q17 3 46 5.5t55 2.5q21 0 46.5 -2.5t44.5 -5.5l123 -278zM348 841q0 30 6 60q15 3 35 4.5t34 1.5t34 -1.5t36 -4.5
q6 -30 6 -60t-6 -60q-16 -3 -36 -4.5t-34 -1.5t-34 1.5t-35 4.5q-6 30 -6 60zM123 841q0 30 6 60q15 3 35 4.5t34 1.5t34 -1.5t36 -4.5q6 -30 6 -60t-6 -60q-16 -3 -36 -4.5t-34 -1.5t-34 1.5t-35 4.5q-6 30 -6 60z" />
    <glyph glyph-name="Zacute" unicode="&#x179;" horiz-adv-x="577" 
d="M529 79q0 -37 -9 -79h-482l-18 27l276 536h-245q-5 22 -6.5 41t-1.5 36t1.5 37t6.5 42h487l15 -29l-274 -535h241q9 -42 9 -76zM527.006 904q-17.999 3 -42.4971 4.5q-24.499 1.5 -50.4971 1.5q-52.9971 0 -91.9951 -6l-106.993 -123q16.999 -4 35.498 -5t37.498 -1
q42.9971 0 72.9951 6z" />
    <glyph glyph-name="zacute" unicode="&#x17a;" horiz-adv-x="481" 
d="M252 137h191q7 -41 7 -70q0 -15 -1.5 -30.5t-5.5 -36.5h-420l-16 30l209 350h-171q-5 22 -6.5 38.5t-1.5 31.5t1.5 30.5t6.5 36.5h407l10 -32zM486.006 709q-17.999 3 -42.4971 4.5q-24.499 1.5 -50.4971 1.5q-52.9971 0 -91.9951 -6l-106.993 -123q16.999 -4 35.498 -5
t37.498 -1q42.9971 0 72.9951 6z" />
    <glyph glyph-name="Zdotaccent" unicode="&#x17b;" horiz-adv-x="577" 
d="M529 79q0 -37 -9 -79h-482l-18 27l276 536h-245q-5 22 -6.5 41t-1.5 36t1.5 37t6.5 42h487l15 -29l-274 -535h241q9 -42 9 -76zM228 845q0 16 2.5 31.5t5.5 32.5q15 3 35 4.5t34 1.5t34 -1.5t36 -4.5q3 -17 5.5 -32t2.5 -32t-2.5 -32t-5.5 -32q-16 -3 -36 -4.5t-34 -1.5
t-34 1.5t-35 4.5q-3 17 -5.5 32.5t-2.5 31.5z" />
    <glyph glyph-name="zdotaccent" unicode="&#x17c;" horiz-adv-x="481" 
d="M252 137h191q7 -41 7 -70q0 -15 -1.5 -30.5t-5.5 -36.5h-420l-16 30l209 350h-171q-5 22 -6.5 38.5t-1.5 31.5t1.5 30.5t6.5 36.5h407l10 -32zM174 650q0 16 2.5 31.5t5.5 32.5q15 3 35 4.5t34 1.5t34 -1.5t36 -4.5q3 -17 5.5 -32t2.5 -32t-2.5 -32t-5.5 -32
q-16 -3 -36 -4.5t-34 -1.5t-34 1.5t-35 4.5q-3 17 -5.5 32.5t-2.5 31.5z" />
    <glyph glyph-name="Zcaron" unicode="&#x17d;" horiz-adv-x="577" 
d="M529 79q0 -37 -9 -79h-482l-18 27l276 536h-245q-5 22 -6.5 41t-1.5 36t1.5 37t6.5 42h487l15 -29l-274 -535h241q9 -42 9 -76zM305 774q-13 0 -34 1t-37 4l-127 123q13 4 33 5.5t40 1.5q19 0 38 -1t38 -6l49 -48l49 48q19 5 38 6t38 1q20 0 40 -1.5t33 -5.5l-127 -123
q-16 -3 -37 -4t-34 -1z" />
    <glyph glyph-name="zcaron" unicode="&#x17e;" horiz-adv-x="481" 
d="M252 137h191q7 -41 7 -70q0 -15 -1.5 -30.5t-5.5 -36.5h-420l-16 30l209 350h-171q-5 22 -6.5 38.5t-1.5 31.5t1.5 30.5t6.5 36.5h407l10 -32zM277 579q-13 0 -34 1t-37 4l-127 123q13 4 33 5.5t40 1.5q19 0 38 -1t38 -6l49 -48l49 48q19 5 38 6t38 1q20 0 40 -1.5
t33 -5.5l-127 -123q-16 -3 -37 -4t-34 -1z" />
    <glyph glyph-name="florin" unicode="&#x192;" horiz-adv-x="599" 
d="M146 333q-5 23 -6 39t-1 31q0 14 1 29t6 38h93l6 46q13 97 63 150t144 53q30 0 53 -3t55 -12q-2 -40 -9 -74t-18 -66q-8 2 -26 6t-34 4q-24 0 -39.5 -12t-20.5 -52l-5 -40h98q5 -23 6 -38t1 -29q0 -15 -1 -31t-6 -39h-114l-30 -257q-11 -97 -62.5 -150t-144.5 -53
q-30 0 -53 3.5t-55 12.5q2 40 8.5 74t18.5 66q8 -2 23 -6t35 -4q28 0 42.5 12t19.5 52l29 250h-77z" />
    <glyph glyph-name="Scommaaccent" unicode="&#x218;" horiz-adv-x="564" 
d="M340 439q42 -17 75.5 -34.5t57.5 -42t37 -59t13 -83.5q0 -53 -18.5 -95.5t-54.5 -73t-88.5 -47t-120.5 -16.5q-62 0 -109.5 10t-102.5 31q4 35 14 74.5t24 80.5q92 -40 160 -40q51 0 79.5 15.5t28.5 53.5q0 16 -6 27.5t-16 19.5t-22.5 13.5t-25.5 10.5l-56 21
q-36 13 -65.5 31t-50.5 42.5t-32.5 56.5t-11.5 75q0 53 18 94t50.5 69.5t78.5 43t103 14.5q51 0 98.5 -10t101.5 -29q-4 -32 -14.5 -70.5t-26.5 -72.5q-26 11 -61 23t-87 12q-16 0 -30.5 -3t-26 -9.5t-18.5 -18t-7 -28.5q0 -29 19 -43t45 -24zM212 -68q34 7 73 7
q18 0 37 -1.5t38 -5.5l-71 -168q-29 -7 -59 -7t-65 7z" />
    <glyph glyph-name="scommaaccent" unicode="&#x219;" horiz-adv-x="470" 
d="M305 324q30 -8 54.5 -19.5t42 -29.5t27.5 -44t10 -63q0 -38 -15.5 -71t-46 -57t-75 -38t-102.5 -14q-48 0 -89 7t-87 24q5 68 37 138q32 -15 67 -22.5t70 -7.5q12 0 25 1t23 4.5t16.5 9.5t6.5 16q0 13 -13 19.5t-30 11.5l-68 19q-53 15 -88 51t-35 98q0 39 16 71t45 54.5
t68.5 34.5t87.5 12q38 0 83 -8t89 -23q-2 -32 -13 -68.5t-25 -64.5q-27 11 -65 20t-70 9q-47 0 -47 -26q0 -11 11 -17t25 -10zM166 -68q34 7 73 7q18 0 37 -1.5t38 -5.5l-71 -168q-29 -7 -59 -7t-65 7z" />
    <glyph glyph-name="uni021A" unicode="&#x21a;" horiz-adv-x="558" 
d="M191 563h-167q-9 43 -9 79q0 33 9 77h511q4 -22 6 -41t2 -36q0 -33 -8 -79h-167v-560q-53 -9 -88 -9q-37 0 -89 9v560zM209 -68q34 7 73 7q18 0 37 -1.5t38 -5.5l-71 -168q-29 -7 -59 -7t-65 7z" />
    <glyph glyph-name="uni021B" unicode="&#x21b;" horiz-adv-x="511" 
d="M171 376h-148q-5 20 -6.5 37.5t-1.5 33.5t1.5 33t6.5 37h465q5 -20 6.5 -37t1.5 -33t-1.5 -33.5t-6.5 -37.5h-148v-375q-26 -4 -47 -6t-38 -2t-38 2t-46 6v375zM185 -68q34 7 73 7q18 0 37 -1.5t38 -5.5l-71 -168q-29 -7 -59 -7t-65 7z" />
    <glyph glyph-name="apostrophe" unicode="&#x2bc;" horiz-adv-x="480" 
d="M189 719q14 3 33.5 4.5t35.5 1.5q42 0 80 -6l-63 -158q-20 -3 -35.5 -4t-35.5 -1q-15 0 -28.5 1t-33.5 4z" />
    <glyph glyph-name="circumflex" unicode="&#x2c6;" horiz-adv-x="480" 
d="M240 714q13 0 34 -1t37 -4l127 -123q-13 -4 -33 -5.5t-40 -1.5q-19 0 -38 1t-38 6l-49 48l-49 -48q-19 -5 -38 -6t-38 -1q-20 0 -40 1.5t-33 5.5l127 123q16 3 37 4t34 1z" />
    <glyph glyph-name="caron" unicode="&#x2c7;" horiz-adv-x="480" 
d="M240 579q-13 0 -34 1t-37 4l-127 123q13 4 33 5.5t40 1.5q19 0 38 -1t38 -6l49 -48l49 48q19 5 38 6t38 1q20 0 40 -1.5t33 -5.5l-127 -123q-16 -3 -37 -4t-34 -1z" />
    <glyph glyph-name="uni02C9" unicode="&#x2c9;" horiz-adv-x="480" 
d="M391 704q7 -27 7 -56q0 -12 -1.5 -27t-5.5 -29h-302q-4 14 -5.5 28.5t-1.5 27.5t1.5 27.5t5.5 28.5h302z" />
    <glyph glyph-name="breve" unicode="&#x2d8;" horiz-adv-x="480" 
d="M240 658q29 0 42 13t14 36q15 3 31 5t35 2q20 0 38.5 -1.5t30.5 -4.5q-4 -41 -23 -67t-46 -40.5t-59 -20t-63 -5.5t-63 5.5t-59 20t-46 40.5t-23 67q12 3 30.5 4.5t38.5 1.5q19 0 35 -2t31 -5q1 -23 14 -36t42 -13z" />
    <glyph glyph-name="dotaccent" unicode="&#x2d9;" horiz-adv-x="480" 
d="M162 650q0 16 2.5 31.5t5.5 32.5q15 3 35 4.5t34 1.5t34 -1.5t36 -4.5q3 -17 5.5 -32t2.5 -32t-2.5 -32t-5.5 -32q-16 -3 -36 -4.5t-34 -1.5t-34 1.5t-35 4.5q-3 17 -5.5 32.5t-2.5 31.5z" />
    <glyph glyph-name="ring" unicode="&#x2da;" horiz-adv-x="480" 
d="M115 685q0 54 36 84t89 30t89 -30t36 -84t-36 -84t-89 -30t-89 30t-36 84zM240 635q21 0 35.5 14t14.5 36q0 21 -14.5 35.5t-35.5 14.5q-22 0 -36 -14t-14 -36t14 -36t36 -14z" />
    <glyph glyph-name="ogonek" unicode="&#x2db;" horiz-adv-x="480" 
d="M362 26q-51 -30 -85 -62.5t-34 -74.5q0 -24 14 -33.5t33 -9.5q12 0 24 3t17 5q12 -16 17.5 -38.5t5.5 -42.5q-15 -6 -41.5 -10.5t-58.5 -4.5q-26 0 -50 5t-43.5 17t-31 32t-11.5 50q0 48 34 92t97 72h113z" />
    <glyph glyph-name="tilde" unicode="&#x2dc;" horiz-adv-x="480" 
d="M49 675q19 22 48.5 38t67.5 16q20 0 37.5 -5.5t36.5 -12.5q17 -7 35.5 -12.5t38.5 -5.5t35.5 5.5t36.5 25.5q16 -17 27.5 -40t18.5 -47q-18 -23 -48 -38.5t-65 -15.5q-22 0 -42 6t-38 12q-19 7 -36.5 12.5t-35.5 5.5q-20 0 -36.5 -6t-34.5 -25q-16 17 -27.5 40t-18.5 47z
" />
    <glyph glyph-name="hungarumlaut" unicode="&#x2dd;" horiz-adv-x="480" 
d="M132 586q-10 -2 -29 -4t-40 -2q-36 0 -69 6l117 123q22 4 42 5t39 1q41 0 77 -6zM348 586q-11 -2 -29.5 -4t-40.5 -2q-37 0 -68 6l116 123q23 4 43 5t39 1q39 0 77 -6z" />
    <glyph glyph-name="pi" unicode="&#x3c0;" horiz-adv-x="770" 
d="M341 1q-26 -4 -47 -6t-38 -2t-38 2t-46 6v381q-15 -2 -29.5 -8t-26.5 -13.5t-21 -15.5t-13 -14q-14 22 -23.5 40.5t-14.5 30.5q-4 12 -7.5 24.5t-6.5 32.5q26 24 64 41t103 17h502q4 -23 5.5 -38t1.5 -29t-1.5 -32.5t-5.5 -42.5h-94v-165q0 -46 8 -60t32 -14
q11 0 29.5 3.5t34.5 7.5q9 -22 13.5 -44t4.5 -52q0 -15 -1 -26.5t-2 -16.5q-27 -6 -54 -10t-52 -4q-94 0 -138 44t-44 143v194h-95v-374z" />
    <glyph glyph-name="Wgrave" unicode="&#x1e80;" horiz-adv-x="896" 
d="M720 717q26 5 44 6.5t37 1.5q20 0 42 -1.5t50 -6.5l-172 -714q-15 -3 -38.5 -6t-51.5 -3t-54.5 3.5t-35.5 5.5l-95 414l-101 -414q-9 -2 -33.5 -5.5t-52.5 -3.5t-50 3t-37 6l-169 713q28 5 54 7t46 2q19 0 39.5 -1.5t46.5 -6.5l83 -457q25 110 50 229.5t49 227.5
q18 3 40 5.5t45 2.5q20 0 41 -2.5t36 -5.5l104 -462zM232 904q18 3 42.5 4.5t50.5 1.5q53 0 92 -6l107 -123q-17 -4 -35.5 -5t-37.5 -1q-43 0 -73 6z" />
    <glyph glyph-name="wgrave" unicode="&#x1e81;" horiz-adv-x="799" 
d="M556 219l62 298q8 2 31 4t49 2q33 0 58.5 -2t36.5 -4l-162 -515q-17 -5 -37 -6.5t-40 -1.5t-40.5 1.5t-42.5 6.5l-73 280q-19 -67 -38.5 -141t-37.5 -139q-21 -5 -41.5 -6.5t-40.5 -1.5t-40 1.5t-37 6.5l-157 515q11 2 38.5 4t60.5 2q26 0 50.5 -2t32.5 -4l65 -306
l72 306q17 5 37.5 6.5t40.5 1.5t40.5 -1.5t41.5 -6.5zM183 709q18 3 42.5 4.5t50.5 1.5q53 0 92 -6l107 -123q-17 -4 -35.5 -5t-37.5 -1q-43 0 -73 6z" />
    <glyph glyph-name="Wacute" unicode="&#x1e82;" horiz-adv-x="896" 
d="M720 717q26 5 44 6.5t37 1.5q20 0 42 -1.5t50 -6.5l-172 -714q-15 -3 -38.5 -6t-51.5 -3t-54.5 3.5t-35.5 5.5l-95 414l-101 -414q-9 -2 -33.5 -5.5t-52.5 -3.5t-50 3t-37 6l-169 713q28 5 54 7t46 2q19 0 39.5 -1.5t46.5 -6.5l83 -457q25 110 50 229.5t49 227.5
q18 3 40 5.5t45 2.5q20 0 41 -2.5t36 -5.5l104 -462zM690.006 904q-17.999 3 -42.498 4.5q-24.498 1.5 -50.4961 1.5q-52.9971 0 -91.9951 -6l-106.993 -123q16.999 -4 35.498 -5t37.498 -1q42.9971 0 72.9951 6z" />
    <glyph glyph-name="wacute" unicode="&#x1e83;" horiz-adv-x="799" 
d="M556 219l62 298q8 2 31 4t49 2q33 0 58.5 -2t36.5 -4l-162 -515q-17 -5 -37 -6.5t-40 -1.5t-40.5 1.5t-42.5 6.5l-73 280q-19 -67 -38.5 -141t-37.5 -139q-21 -5 -41.5 -6.5t-40.5 -1.5t-40 1.5t-37 6.5l-157 515q11 2 38.5 4t60.5 2q26 0 50.5 -2t32.5 -4l65 -306
l72 306q17 5 37.5 6.5t40.5 1.5t40.5 -1.5t41.5 -6.5zM656.006 709q-17.999 3 -42.498 4.5q-24.498 1.5 -50.4961 1.5q-52.9971 0 -91.9951 -6l-106.993 -123q16.999 -4 35.498 -5t37.498 -1q42.9971 0 72.9951 6z" />
    <glyph glyph-name="Wdieresis" unicode="&#x1e84;" horiz-adv-x="896" 
d="M720 717q26 5 44 6.5t37 1.5q20 0 42 -1.5t50 -6.5l-172 -714q-15 -3 -38.5 -6t-51.5 -3t-54.5 3.5t-35.5 5.5l-95 414l-101 -414q-9 -2 -33.5 -5.5t-52.5 -3.5t-50 3t-37 6l-169 713q28 5 54 7t46 2q19 0 39.5 -1.5t46.5 -6.5l83 -457q25 110 50 229.5t49 227.5
q18 3 40 5.5t45 2.5q20 0 41 -2.5t36 -5.5l104 -462zM488 841q0 30 6 60q15 3 35 4.5t34 1.5t34 -1.5t36 -4.5q6 -30 6 -60t-6 -60q-16 -3 -36 -4.5t-34 -1.5t-34 1.5t-35 4.5q-6 30 -6 60zM263 841q0 30 6 60q15 3 35 4.5t34 1.5t34 -1.5t36 -4.5q6 -30 6 -60t-6 -60
q-16 -3 -36 -4.5t-34 -1.5t-34 1.5t-35 4.5q-6 30 -6 60z" />
    <glyph glyph-name="wdieresis" unicode="&#x1e85;" horiz-adv-x="799" 
d="M556 219l62 298q8 2 31 4t49 2q33 0 58.5 -2t36.5 -4l-162 -515q-17 -5 -37 -6.5t-40 -1.5t-40.5 1.5t-42.5 6.5l-73 280q-19 -67 -38.5 -141t-37.5 -139q-21 -5 -41.5 -6.5t-40.5 -1.5t-40 1.5t-37 6.5l-157 515q11 2 38.5 4t60.5 2q26 0 50.5 -2t32.5 -4l65 -306
l72 306q17 5 37.5 6.5t40.5 1.5t40.5 -1.5t41.5 -6.5zM441 646q0 30 6 60q15 3 35 4.5t34 1.5t34 -1.5t36 -4.5q6 -30 6 -60t-6 -60q-16 -3 -36 -4.5t-34 -1.5t-34 1.5t-35 4.5q-6 30 -6 60zM216 646q0 30 6 60q15 3 35 4.5t34 1.5t34 -1.5t36 -4.5q6 -30 6 -60t-6 -60
q-16 -3 -36 -4.5t-34 -1.5t-34 1.5t-35 4.5q-6 30 -6 60z" />
    <glyph glyph-name="Ygrave" unicode="&#x1ef2;" horiz-adv-x="622" 
d="M433 717q23 4 48 6t51 2q17 0 44 -2.5t46 -5.5l-223 -459v-255q-53 -9 -88 -9q-37 0 -89 9v255q-26 54 -54.5 112.5l-57 117t-56.5 117t-54 112.5q17 3 46 5.5t55 2.5q21 0 46.5 -2.5t44.5 -5.5l123 -278zM105 904q18 3 42.5 4.5t50.5 1.5q53 0 92 -6l107 -123
q-17 -4 -35.5 -5t-37.5 -1q-43 0 -73 6z" />
    <glyph glyph-name="ygrave" unicode="&#x1ef3;" horiz-adv-x="564" 
d="M384 517q8 2 30.5 4t48.5 2q33 0 59 -2t37 -4l-193 -335v-181q-26 -4 -47 -6t-38 -2t-38 2t-46 6v181l-192 335q11 2 38.5 4t60.5 2q26 0 51 -2t33 -4l98 -197zM67 709q18 3 42.5 4.5t50.5 1.5q53 0 92 -6l107 -123q-17 -4 -35.5 -5t-37.5 -1q-43 0 -73 6z" />
    <glyph glyph-name="endash" unicode="&#x2013;" horiz-adv-x="500" 
d="M498 349q5 -22 6.5 -40t1.5 -35t-1.5 -35.5t-6.5 -40.5h-496q-4 22 -6 40t-2 35t2 35.5t6 40.5h496z" />
    <glyph glyph-name="emdash" unicode="&#x2014;" horiz-adv-x="1000" 
d="M998 349q5 -22 6.5 -40t1.5 -35t-1.5 -35.5t-6.5 -40.5h-996q-4 22 -6 40t-2 35t2 35.5t6 40.5h996z" />
    <glyph glyph-name="quoteleft" unicode="&#x2018;" horiz-adv-x="316" 
d="M40 717q26 5 49.5 6.5t40.5 1.5q16 0 35.5 -1.5t41.5 -6.5l69 -267q-15 -3 -37.5 -5.5t-43.5 -2.5q-18 0 -37.5 1.5t-41.5 6.5z" />
    <glyph glyph-name="quoteright" unicode="&#x2019;" horiz-adv-x="316" 
d="M200 450q-22 -5 -41.5 -6.5t-37.5 -1.5q-21 0 -43.5 2.5t-37.5 5.5l69 267q22 5 41.5 6.5t35.5 1.5q17 0 40.5 -1.5t49.5 -6.5z" />
    <glyph glyph-name="quotesinglbase" unicode="&#x201a;" horiz-adv-x="316" 
d="M200 -124q-22 -5 -41.5 -6.5t-37.5 -1.5q-21 0 -43.5 2.5t-37.5 5.5l69 267q22 5 41.5 6.5t35.5 1.5q17 0 40.5 -1.5t49.5 -6.5z" />
    <glyph glyph-name="quotedblleft" unicode="&#x201c;" horiz-adv-x="546" 
d="M40 717q26 5 49.5 6.5t40.5 1.5q16 0 35.5 -1.5t41.5 -6.5l69 -267q-15 -3 -37.5 -5.5t-43.5 -2.5q-18 0 -37.5 1.5t-41.5 6.5zM270 717q26 5 49.5 6.5t40.5 1.5q16 0 35.5 -1.5t41.5 -6.5l69 -267q-15 -3 -37.5 -5.5t-43.5 -2.5q-18 0 -37.5 1.5t-41.5 6.5z" />
    <glyph glyph-name="quotedblright" unicode="&#x201d;" horiz-adv-x="545" 
d="M200 450q-22 -5 -41.5 -6.5t-37.5 -1.5q-21 0 -43.5 2.5t-37.5 5.5l69 267q22 5 41.5 6.5t35.5 1.5q17 0 40.5 -1.5t49.5 -6.5zM429 450q-22 -5 -41.5 -6.5t-37.5 -1.5q-21 0 -43.5 2.5t-37.5 5.5l69 267q22 5 41.5 6.5t35.5 1.5q17 0 40.5 -1.5t49.5 -6.5z" />
    <glyph glyph-name="quotedblbase" unicode="&#x201e;" horiz-adv-x="545" 
d="M200 -124q-22 -5 -41.5 -6.5t-37.5 -1.5q-21 0 -43.5 2.5t-37.5 5.5l69 267q22 5 41.5 6.5t35.5 1.5q17 0 40.5 -1.5t49.5 -6.5zM429 -124q-22 -5 -41.5 -6.5t-37.5 -1.5q-21 0 -43.5 2.5t-37.5 5.5l69 267q22 5 41.5 6.5t35.5 1.5q17 0 40.5 -1.5t49.5 -6.5z" />
    <glyph glyph-name="dagger" unicode="&#x2020;" horiz-adv-x="552" 
d="M194 717q21 4 41.5 6t39.5 2q37 0 83 -8v-247h145q9 -42 9 -75q0 -35 -9 -77h-145v-492q-46 -8 -83 -8q-19 0 -39.5 2t-41.5 6v492h-146q-5 21 -6.5 40t-1.5 36t1.5 36t6.5 40h146v247z" />
    <glyph glyph-name="daggerdbl" unicode="&#x2021;" horiz-adv-x="552" 
d="M358 73v-247q-46 -8 -83 -8q-19 0 -39.5 2t-41.5 6v247h-146q-5 21 -6.5 40t-1.5 36t1.5 36t6.5 40h146v149h-146q-5 21 -6.5 40t-1.5 36t1.5 36t6.5 40h146v191q21 4 41.5 6t39.5 2q37 0 83 -8v-191h145q9 -42 9 -75q0 -35 -9 -77h-145v-149h145q9 -42 9 -75
q0 -35 -9 -77h-145z" />
    <glyph glyph-name="bullet" unicode="&#x2022;" horiz-adv-x="470" 
d="M65 367q0 35 13.5 66t36.5 54t54 36.5t66 13.5t66 -13.5t54 -36.5t36.5 -54t13.5 -66t-13.5 -66t-36.5 -54t-54 -36.5t-66 -13.5t-66 13.5t-54 36.5t-36.5 54t-13.5 66z" />
    <glyph glyph-name="ellipsis" unicode="&#x2026;" horiz-adv-x="928" 
d="M148 179q20 0 41 -2t44 -5q4 -23 6 -44t2 -41t-2 -41t-6 -44q-23 -4 -44 -6t-41 -2t-41 2t-44 6q-4 23 -6 44t-2 41t2 41t6 44q23 3 44 5t41 2zM780 179q20 0 41 -2t44 -5q4 -23 6 -44t2 -41t-2 -41t-6 -44q-23 -4 -44 -6t-41 -2t-41 2t-44 6q-4 23 -6 44t-2 41t2 41
t6 44q23 3 44 5t41 2zM464 179q20 0 41 -2t44 -5q4 -23 6 -44t2 -41t-2 -41t-6 -44q-23 -4 -44 -6t-41 -2t-41 2t-44 6q-4 23 -6 44t-2 41t2 41t6 44q23 3 44 5t41 2z" />
    <glyph glyph-name="perthousand" unicode="&#x2030;" horiz-adv-x="1460" 
d="M280 505q0 46 -13 73t-42 27t-42 -27t-13 -73q0 -45 13 -73t42 -28t42 28t13 73zM33 505q0 41 11.5 79.5t35 68.5t59.5 48t86 18q49 0 85 -18t60 -48t35.5 -68.5t11.5 -79.5t-11.5 -79.5t-35.5 -68.5t-60 -48t-85 -18q-50 0 -86 18t-59.5 48t-35 68.5t-11.5 79.5zM378 2
q-17 -3 -36.5 -4.5t-37.5 -1.5q-16 0 -34 0.5t-45 5.5l413 707q17 3 36.5 4.5t37.5 1.5q16 0 34 -0.5t45 -5.5zM846 203q0 46 -13 73t-42 27t-42 -27t-13 -73q0 -45 13 -73t42 -28t42 28t13 73zM599 203q0 41 11.5 79.5t35 68.5t59.5 48t86 18q49 0 85 -18t60 -48
t35.5 -68.5t11.5 -79.5t-11.5 -79.5t-35.5 -68.5t-60 -48t-85 -18q-50 0 -86 18t-59.5 48t-35 68.5t-11.5 79.5zM1290 203q0 46 -13 73t-42 27t-42 -27t-13 -73q0 -45 13 -73t42 -28t42 28t13 73zM1043 203q0 41 11.5 79.5t35 68.5t59.5 48t86 18q49 0 85 -18t60 -48
t35.5 -68.5t11.5 -79.5t-11.5 -79.5t-35.5 -68.5t-60 -48t-85 -18q-50 0 -86 18t-59.5 48t-35 68.5t-11.5 79.5z" />
    <glyph glyph-name="guilsinglleft" unicode="&#x2039;" horiz-adv-x="386" 
d="M211 266l154 -222q-47 -9 -95 -9q-24 0 -46.5 2.5t-37.5 6.5l-156 222l156 222q15 4 37.5 6.5t46.5 2.5q48 0 95 -9z" />
    <glyph glyph-name="guilsinglright" unicode="&#x203a;" horiz-adv-x="386" 
d="M21 488q46 9 95 9q24 0 46.5 -2.5t37.5 -6.5l156 -222l-156 -222q-15 -4 -37.5 -6.5t-46.5 -2.5q-49 0 -95 9l154 222z" />
    <glyph glyph-name="fraction" unicode="&#x2044;" horiz-adv-x="96" 
d="M-82 2q-17 -3 -36.5 -4.5t-37.5 -1.5q-16 0 -34 0.5t-45 5.5l413 707q17 3 36.5 4.5t37.5 1.5q16 0 34 -0.5t45 -5.5z" />
    <glyph glyph-name="zerosuperior" unicode="&#x2070;" 
d="M280 505q0 46 -13 73t-42 27t-42 -27t-13 -73q0 -45 13 -73t42 -28t42 28t13 73zM33 505q0 41 11.5 79.5t35 68.5t59.5 48t86 18q49 0 85 -18t60 -48t35.5 -68.5t11.5 -79.5t-11.5 -79.5t-35.5 -68.5t-60 -48t-85 -18q-50 0 -86 18t-59.5 48t-35 68.5t-11.5 79.5z" />
    <glyph glyph-name="foursuperior" unicode="&#x2074;" 
d="M190 454h58v64q15 2 29 3t29 1q14 0 26.5 -1t27.5 -3v-64h36q6 -24 6 -49q0 -22 -6 -46h-36v-54q-15 -2 -27.5 -3.5t-28.5 -1.5q-14 0 -26.5 1t-29.5 4v54h-202l-13 21l155 342q29 -3 53.5 -10.5t49.5 -24.5z" />
    <glyph glyph-name="fivesuperior" unicode="&#x2075;" 
d="M197 604l-1 -42h23q67 0 108.5 -29.5t41.5 -92.5q0 -75 -54 -112t-147 -37q-19 0 -53.5 3.5t-70.5 14.5q2 26 7.5 54.5t21.5 51.5q29 -8 51.5 -13t42.5 -5q39 0 55 10.5t16 28.5q0 15 -15.5 25t-46.5 10q-17 0 -36.5 -3t-41.5 -12l-16 15l10 234h249q2 -9 4 -22.5
t2 -27.5t-2 -28t-4 -23h-144z" />
    <glyph glyph-name="sixsuperior" unicode="&#x2076;" 
d="M318 707q8 -11 12 -27.5t4 -32.5q0 -18 -4 -37q-48 -2 -83.5 -16t-47.5 -43q16 9 35 12.5t36 3.5q25 0 49 -7t42 -22.5t29 -40.5t11 -60q0 -36 -14.5 -63t-38.5 -45.5t-55 -28t-64 -9.5q-82 0 -127 46t-45 124q0 51 15.5 95.5t48 77.5t81.5 52t116 21zM234 483
q-24 0 -38 -13.5t-14 -34.5q0 -24 13.5 -37t35.5 -13t36 13t14 36q0 25 -13.5 37t-33.5 12z" />
    <glyph glyph-name="sevensuperior" unicode="&#x2077;" 
d="M395 686l-181 -395q-31 6 -57.5 15t-55.5 28l126 266h-161q-4 13 -5 26.5t-1 24.5q0 12 1 26.5t5 27.5h316z" />
    <glyph glyph-name="eightsuperior" unicode="&#x2078;" 
d="M390 602q0 -25 -14.5 -46t-31.5 -35q25 -15 45 -42t20 -62q0 -34 -15 -58t-39.5 -39t-57.5 -22t-69 -7q-38 0 -71.5 7t-59.5 22t-41 39t-15 58q0 36 20.5 62.5t45.5 41.5q-17 14 -31 34.5t-14 46.5q0 50 44 83.5t122 33.5q76 0 119 -33.5t43 -83.5zM274 423q0 15 -13 27
t-36 20q-20 -8 -33 -20t-13 -27q0 -13 10 -25t39 -12q24 0 35 12t11 25zM184 596q0 -14 12 -23t32 -14q15 5 28 15t13 22t-9.5 22.5t-31.5 10.5q-23 0 -33.5 -11t-10.5 -22z" />
    <glyph glyph-name="ninesuperior" unicode="&#x2079;" 
d="M132 290q-8 11 -12 27.5t-4 32.5q0 18 4 37q48 2 83.5 16t47.5 43q-16 -9 -35 -12.5t-36 -3.5q-26 0 -49.5 7t-41.5 22.5t-29 40.5t-11 60q0 36 14.5 63t38.5 45.5t55 28t64 9.5q82 0 127 -46t45 -124q0 -51 -16 -95.5t-48 -77.5t-81 -52.5t-116 -20.5zM216 514
q24 0 38 13.5t14 34.5q0 24 -13.5 37t-35.5 13t-36 -13t-14 -36q0 -25 13.5 -37t33.5 -12z" />
    <glyph glyph-name="zeroinferior" unicode="&#x2080;" 
d="M280 201q0 46 -13 73t-42 27t-42 -27t-13 -73q0 -45 13 -73t42 -28t42 28t13 73zM33 201q0 41 11.5 79.5t35 68.5t59.5 48t86 18q49 0 85 -18t60 -48t35.5 -68.5t11.5 -79.5t-11.5 -79.5t-35.5 -68.5t-60 -48t-85 -18q-50 0 -86 18t-59.5 48t-35 68.5t-11.5 79.5z" />
    <glyph glyph-name="oneinferior" unicode="&#x2081;" 
d="M91 1q-4 17 -5 30t-1 25t1 24t5 29h81v148l-69 -27q-17 23 -28.5 49t-17.5 49l203 80h33v-299h79q4 -17 5 -29t1 -24t-1 -25t-5 -30h-281z" />
    <glyph glyph-name="twoinferior" unicode="&#x2082;" 
d="M255 110h108q4 -17 5 -29.5t1 -24.5t-1 -25t-5 -30h-318l-9 23l109 132q35 42 51 68.5t16 43.5q0 18 -13 28t-36 10q-24 0 -42.5 -6.5t-47.5 -19.5q-10 20 -19 46.5t-12 55.5q25 14 63 23.5t75 9.5q75 0 120.5 -35.5t45.5 -99.5q0 -24 -8 -46.5t-20 -42.5t-26 -37
t-26 -31z" />
    <glyph glyph-name="threeinferior" unicode="&#x2083;" 
d="M72 296q-4 15 -5 28t-1 25t1 24.5t5 27.5h279l12 -21l-85 -129q46 -11 69.5 -42.5t23.5 -73.5q0 -37 -14.5 -64.5t-40 -46t-60.5 -28t-75 -9.5q-44 0 -77.5 7t-58.5 16q1 29 11 57.5t22 46.5q17 -8 42.5 -16t51.5 -8q28 0 48.5 11t20.5 35q0 17 -14.5 29.5t-46.5 12.5
q-8 0 -17.5 -1t-29.5 -7l-18 21l72 105h-115z" />
    <glyph glyph-name="fourinferior" unicode="&#x2084;" 
d="M190 150h58v64q15 2 29 3t29 1q14 0 26.5 -1t27.5 -3v-64h36q6 -24 6 -49q0 -22 -6 -46h-36v-54q-15 -2 -27.5 -3.5t-28.5 -1.5q-14 0 -26.5 1t-29.5 4v54h-202l-13 21l155 342q29 -3 53.5 -10.5t49.5 -24.5z" />
    <glyph glyph-name="fiveinferior" unicode="&#x2085;" 
d="M197 300l-1 -42h23q67 0 108.5 -29.5t41.5 -92.5q0 -75 -54 -112t-147 -37q-19 0 -53.5 3.5t-70.5 14.5q2 26 7.5 54.5t21.5 51.5q29 -8 51.5 -13t42.5 -5q39 0 55 10.5t16 28.5q0 15 -15.5 25t-46.5 10q-17 0 -36.5 -3t-41.5 -12l-16 15l10 234h249q2 -9 4 -22.5
t2 -27.5t-2 -28t-4 -23h-144z" />
    <glyph glyph-name="sixinferior" unicode="&#x2086;" 
d="M318 403q8 -11 12 -27.5t4 -32.5q0 -18 -4 -37q-48 -2 -83.5 -16t-47.5 -43q16 9 35 12.5t36 3.5q25 0 49 -7t42 -22.5t29 -40.5t11 -60q0 -36 -14.5 -63t-38.5 -45.5t-55 -28t-64 -9.5q-82 0 -127 46t-45 124q0 51 15.5 95.5t48 77.5t81.5 52t116 21zM234 179
q-24 0 -38 -13.5t-14 -34.5q0 -24 13.5 -37t35.5 -13t36 13t14 36q0 25 -13.5 37t-33.5 12z" />
    <glyph glyph-name="seveninferior" unicode="&#x2087;" 
d="M395 382l-181 -395q-31 6 -57.5 15t-55.5 28l126 266h-161q-4 13 -5 26.5t-1 24.5q0 12 1 26.5t5 27.5h316z" />
    <glyph glyph-name="eightinferior" unicode="&#x2088;" 
d="M390 298q0 -25 -14.5 -46t-31.5 -35q25 -15 45 -42t20 -62q0 -34 -15 -58t-39.5 -39t-57.5 -22t-69 -7q-38 0 -71.5 7t-59.5 22t-41 39t-15 58q0 36 20.5 62.5t45.5 41.5q-17 14 -31 34.5t-14 46.5q0 50 44 83.5t122 33.5q76 0 119 -33.5t43 -83.5zM274 119q0 15 -13 27
t-36 20q-20 -8 -33 -20t-13 -27q0 -13 10 -25t39 -12q24 0 35 12t11 25zM184 292q0 -14 12 -23t32 -14q15 5 28 15t13 22t-9.5 22.5t-31.5 10.5q-23 0 -33.5 -11t-10.5 -22z" />
    <glyph glyph-name="nineinferior" unicode="&#x2089;" 
d="M132 -14q-8 11 -12 27.5t-4 32.5q0 18 4 37q48 2 83.5 16t47.5 43q-16 -9 -35 -12.5t-36 -3.5q-26 0 -49.5 7t-41.5 22.5t-29 40.5t-11 60q0 36 14.5 63t38.5 45.5t55 28t64 9.5q82 0 127 -46t45 -124q0 -51 -16 -95.5t-48 -77.5t-81 -52.5t-116 -20.5zM216 210
q24 0 38 13.5t14 34.5q0 24 -13.5 37t-35.5 13t-36 -13t-14 -36q0 -25 13.5 -37t33.5 -12z" />
    <glyph glyph-name="Euro" unicode="&#x20ac;" horiz-adv-x="612" 
d="M302 223q14 -43 44.5 -63.5t84.5 -20.5q33 0 65.5 6.5t64.5 17.5q17 -36 26.5 -70t14.5 -71q-57 -21 -100 -27.5t-91 -6.5q-66 0 -115.5 16.5t-85.5 47.5t-58.5 74.5t-33.5 96.5h-87q-5 15 -5 44q0 28 5 45h76q-1 9 -1 18v19v33h-75q-5 15 -5 44q0 28 5 45h87
q11 55 34 100.5t59 78.5t85 51t113 18q24 0 45.5 -1.5t43.5 -5.5t45 -11t49 -17q-2 -41 -14 -78t-26 -63q-40 14 -68 19.5t-60 5.5q-52 0 -81 -24.5t-43 -72.5h182q5 -17 5 -45q0 -29 -5 -44h-195v-33v-19.5t1 -17.5h194q5 -17 5 -45q0 -29 -5 -44h-180z" />
    <glyph glyph-name="trademark" unicode="&#x2122;" horiz-adv-x="466" 
d="M430 526q-17 -3 -37 -3q-18 0 -34 3v92l-34 -75q-13 -2 -23 0l-34 75v-92q-17 -3 -36 -3t-35 3l8 204q11 2 20.5 3t17.5 1q14 0 33 -4l38 -94l37 94q19 4 33 4q8 0 17.5 -1t20.5 -3zM122 526q-17 -3 -36 -3q-20 0 -36 3v141h-45q-3 13 -3 32q0 18 3 33h162l2 -16t1 -17
q0 -8 -1 -16.5t-2 -15.5h-45v-141z" />
    <glyph glyph-name="Omega" unicode="&#x3a9;" horiz-adv-x="742" 
d="M371 718q78 0 136.5 -24t98 -68t59.5 -105.5t20 -136.5q0 -38 -6 -72t-15.5 -64t-21 -54.5t-23.5 -43.5h71q4 -25 5.5 -43.5t1.5 -34.5q0 -15 -1 -30.5t-6 -41.5h-282l-11 27l14 22q11 18 26.5 48.5t29.5 72.5t23.5 95t9.5 116q0 97 -33 139t-96 42t-96 -42t-33 -139
q0 -63 9.5 -116t23.5 -95t29.5 -72.5t26.5 -48.5l14 -22l-11 -27h-282q-5 26 -6 43t-1 32q0 16 1.5 33t5.5 42h71q-12 19 -23.5 43.5t-21 54.5t-15.5 64t-6 72q0 75 20 136.5t59.5 105.5t98 68t136.5 24z" />
    <glyph glyph-name="onequarter" unicode="&#xbc;" horiz-adv-x="927" 
d="M50 305q-4 17 -5 30t-1 25t1 24t5 29h81v148l-69 -27q-17 23 -28.5 49t-17.5 49l203 80h33v-299h79q4 -17 5 -29t1 -24t-1 -25t-5 -30h-281zM346 2q-17 -3 -36.5 -4.5t-37.5 -1.5q-16 0 -34 0.5t-45 5.5l413 707q17 3 36.5 4.5t37.5 1.5q16 0 34 -0.5t45 -5.5zM692 150
h58v64q15 2 29 3t29 1q14 0 26.5 -1t27.5 -3v-64h36q6 -24 6 -49q0 -22 -6 -46h-36v-54q-15 -2 -27.5 -3.5t-28.5 -1.5q-14 0 -26.5 1t-29.5 4v54h-202l-13 21l155 342q29 -3 53.5 -10.5t49.5 -24.5z" />
    <glyph glyph-name="onehalf" unicode="&#xbd;" horiz-adv-x="963" 
d="M50 305q-4 17 -5 30t-1 25t1 24t5 29h81v148l-69 -27q-17 23 -28.5 49t-17.5 49l203 80h33v-299h79q4 -17 5 -29t1 -24t-1 -25t-5 -30h-281zM826 110h108q4 -17 5 -29.5t1 -24.5t-1 -25t-5 -30h-318l-9 23l109 132q35 42 51 68.5t16 43.5q0 18 -13 28t-36 10
q-24 0 -42.5 -6.5t-47.5 -19.5q-10 20 -19 46.5t-12 55.5q25 14 63 23.5t75 9.5q75 0 120.5 -35.5t45.5 -99.5q0 -24 -8 -46.5t-20 -42.5t-26 -37t-26 -31zM346 2q-17 -3 -36.5 -4.5t-37.5 -1.5q-16 0 -34 0.5t-45 5.5l413 707q17 3 36.5 4.5t37.5 1.5q16 0 34 -0.5t45 -5.5
z" />
    <glyph glyph-name="threequarters" unicode="&#xbe;" horiz-adv-x="910" 
d="M51 600q-4 15 -5 28t-1 25t1 24.5t5 27.5h279l12 -21l-85 -129q46 -11 69.5 -42.5t23.5 -73.5q0 -37 -14.5 -64.5t-40 -46t-60.5 -28t-75 -9.5q-44 0 -77.5 7t-58.5 16q1 29 11 57.5t22 46.5q17 -8 42.5 -16t51.5 -8q28 0 48.5 11t20.5 35q0 17 -14.5 29.5t-46.5 12.5
q-8 0 -17.5 -1t-29.5 -7l-18 21l72 105h-115zM675 157h58v64q15 2 29 3t29 1q14 0 26.5 -1t27.5 -3v-64h36q6 -24 6 -49q0 -22 -6 -46h-36v-54q-15 -2 -27.5 -3.5t-28.5 -1.5q-14 0 -26.5 1t-29.5 4v54h-202l-13 21l155 342q29 -3 53.5 -10.5t49.5 -24.5zM329 2
q-17 -3 -36.5 -4.5t-37.5 -1.5q-16 0 -34 0.5t-45 5.5l413 707q17 3 36.5 4.5t37.5 1.5q16 0 34 -0.5t45 -5.5z" />
    <glyph glyph-name="onethird" unicode="&#x2153;" horiz-adv-x="943" 
d="M346 2q-17 -3 -36.5 -4.5t-37.5 -1.5q-16 0 -34 0.5t-45 5.5l413 707q17 3 36.5 4.5t37.5 1.5q16 0 34 -0.5t45 -5.5zM50 305q-4 17 -5 30t-1 25t1 24t5 29h81v148l-69 -27q-17 23 -28.5 49t-17.5 49l203 80h33v-299h79q4 -17 5 -29t1 -24t-1 -25t-5 -30h-281zM621 296
q-4 15 -5 28t-1 25t1 24.5t5 27.5h279l12 -21l-85 -129q46 -11 69.5 -42.5t23.5 -73.5q0 -37 -14.5 -64.5t-40 -46t-60.5 -28t-75 -9.5q-44 0 -77.5 7t-58.5 16q1 29 11 57.5t22 46.5q17 -8 42.5 -16t51.5 -8q28 0 48.5 11t20.5 35q0 17 -14.5 29.5t-46.5 12.5
q-8 0 -17.5 -1t-29.5 -7l-18 21l72 105h-115z" />
    <glyph glyph-name="twothirds" unicode="&#x2154;" horiz-adv-x="972" 
d="M243 414h108q4 -17 5 -29.5t1 -24.5t-1 -25t-5 -30h-318l-9 23l109 132q35 42 51 68.5t16 43.5q0 18 -13 28t-36 10q-24 0 -42.5 -6.5t-47.5 -19.5q-10 20 -19 46.5t-12 55.5q25 14 63 23.5t75 9.5q75 0 120.5 -35.5t45.5 -99.5q0 -24 -8 -46.5t-20 -42.5t-26 -37
t-26 -31zM375 2q-17 -3 -36.5 -4.5t-37.5 -1.5q-16 0 -34 0.5t-45 5.5l413 707q17 3 36.5 4.5t37.5 1.5q16 0 34 -0.5t45 -5.5zM650 296q-4 15 -5 28t-1 25t1 24.5t5 27.5h279l12 -21l-85 -129q46 -11 69.5 -42.5t23.5 -73.5q0 -37 -14.5 -64.5t-40 -46t-60.5 -28t-75 -9.5
q-44 0 -77.5 7t-58.5 16q1 29 11 57.5t22 46.5q17 -8 42.5 -16t51.5 -8q28 0 48.5 11t20.5 35q0 17 -14.5 29.5t-46.5 12.5q-8 0 -17.5 -1t-29.5 -7l-18 21l72 105h-115z" />
    <glyph glyph-name="oneeighth" unicode="&#x215b;" horiz-adv-x="966" 
d="M50 305q-4 17 -5 30t-1 25t1 24t5 29h81v148l-69 -27q-17 23 -28.5 49t-17.5 49l203 80h33v-299h79q4 -17 5 -29t1 -24t-1 -25t-5 -30h-281zM346 2q-17 -3 -36.5 -4.5t-37.5 -1.5q-16 0 -34 0.5t-45 5.5l413 707q17 3 36.5 4.5t37.5 1.5q16 0 34 -0.5t45 -5.5zM924 298
q0 -25 -14.5 -46t-31.5 -35q25 -15 45 -42t20 -62q0 -34 -15 -58t-39.5 -39t-57.5 -22t-69 -7q-38 0 -71.5 7t-59.5 22t-41 39t-15 58q0 36 20.5 62.5t45.5 41.5q-17 14 -31 34.5t-14 46.5q0 50 44 83.5t122 33.5q76 0 119 -33.5t43 -83.5zM808 119q0 15 -13 27t-36 20
q-20 -8 -33 -20t-13 -27q0 -13 10 -25t39 -12q24 0 35 12t11 25zM718 292q0 -14 12 -23t32 -14q15 5 28 15t13 22t-9.5 22.5t-31.5 10.5q-23 0 -33.5 -11t-10.5 -22z" />
    <glyph glyph-name="threeeighths" unicode="&#x215c;" horiz-adv-x="949" 
d="M51 600q-4 15 -5 28t-1 25t1 24.5t5 27.5h279l12 -21l-85 -129q46 -11 69.5 -42.5t23.5 -73.5q0 -37 -14.5 -64.5t-40 -46t-60.5 -28t-75 -9.5q-44 0 -77.5 7t-58.5 16q1 29 11 57.5t22 46.5q17 -8 42.5 -16t51.5 -8q28 0 48.5 11t20.5 35q0 17 -14.5 29.5t-46.5 12.5
q-8 0 -17.5 -1t-29.5 -7l-18 21l72 105h-115zM329 2q-17 -3 -36.5 -4.5t-37.5 -1.5q-16 0 -34 0.5t-45 5.5l413 707q17 3 36.5 4.5t37.5 1.5q16 0 34 -0.5t45 -5.5zM907 298q0 -25 -14.5 -46t-31.5 -35q25 -15 45 -42t20 -62q0 -34 -15 -58t-39.5 -39t-57.5 -22t-69 -7
q-38 0 -71.5 7t-59.5 22t-41 39t-15 58q0 36 20.5 62.5t45.5 41.5q-17 14 -31 34.5t-14 46.5q0 50 44 83.5t122 33.5q76 0 119 -33.5t43 -83.5zM791 119q0 15 -13 27t-36 20q-20 -8 -33 -20t-13 -27q0 -13 10 -25t39 -12q24 0 35 12t11 25zM701 292q0 -14 12 -23t32 -14
q15 5 28 15t13 22t-9.5 22.5t-31.5 10.5q-23 0 -33.5 -11t-10.5 -22z" />
    <glyph glyph-name="fiveeighths" unicode="&#x215d;" horiz-adv-x="949" 
d="M177 604l-1 -42h23q67 0 108.5 -29.5t41.5 -92.5q0 -75 -54 -112t-147 -37q-19 0 -53.5 3.5t-70.5 14.5q2 26 7.5 54.5t21.5 51.5q29 -8 51.5 -13t42.5 -5q39 0 55 10.5t16 28.5q0 15 -15.5 25t-46.5 10q-17 0 -36.5 -3t-41.5 -12l-16 15l10 234h249q2 -9 4 -22.5
t2 -27.5t-2 -28t-4 -23h-144zM329 2q-17 -3 -36.5 -4.5t-37.5 -1.5q-16 0 -34 0.5t-45 5.5l413 707q17 3 36.5 4.5t37.5 1.5q16 0 34 -0.5t45 -5.5zM907 298q0 -25 -14.5 -46t-31.5 -35q25 -15 45 -42t20 -62q0 -34 -15 -58t-39.5 -39t-57.5 -22t-69 -7q-38 0 -71.5 7
t-59.5 22t-41 39t-15 58q0 36 20.5 62.5t45.5 41.5q-17 14 -31 34.5t-14 46.5q0 50 44 83.5t122 33.5q76 0 119 -33.5t43 -83.5zM791 119q0 15 -13 27t-36 20q-20 -8 -33 -20t-13 -27q0 -13 10 -25t39 -12q24 0 35 12t11 25zM701 292q0 -14 12 -23t32 -14q15 5 28 15t13 22
t-9.5 22.5t-31.5 10.5q-23 0 -33.5 -11t-10.5 -22z" />
    <glyph glyph-name="seveneighths" unicode="&#x215e;" horiz-adv-x="889" 
d="M346 686l-181 -395q-31 6 -57.5 15t-55.5 28l126 266h-161q-4 13 -5 26.5t-1 24.5q0 12 1 26.5t5 27.5h316zM269 2q-17 -3 -36.5 -4.5t-37.5 -1.5q-16 0 -34 0.5t-45 5.5l413 707q17 3 36.5 4.5t37.5 1.5q16 0 34 -0.5t45 -5.5zM847 298q0 -25 -14.5 -46t-31.5 -35
q25 -15 45 -42t20 -62q0 -34 -15 -58t-39.5 -39t-57.5 -22t-69 -7q-38 0 -71.5 7t-59.5 22t-41 39t-15 58q0 36 20.5 62.5t45.5 41.5q-17 14 -31 34.5t-14 46.5q0 50 44 83.5t122 33.5q76 0 119 -33.5t43 -83.5zM731 119q0 15 -13 27t-36 20q-20 -8 -33 -20t-13 -27
q0 -13 10 -25t39 -12q24 0 35 12t11 25zM641 292q0 -14 12 -23t32 -14q15 5 28 15t13 22t-9.5 22.5t-31.5 10.5q-23 0 -33.5 -11t-10.5 -22z" />
    <glyph glyph-name="onefifth" unicode="&#x2155;" horiz-adv-x="921" 
d="M50 305q-4 17 -5 30t-1 25t1 24t5 29h81v148l-69 -27q-17 23 -28.5 49t-17.5 49l203 80h33v-299h79q4 -17 5 -29t1 -24t-1 -25t-5 -30h-281zM346 2q-17 -3 -36.5 -4.5t-37.5 -1.5q-16 0 -34 0.5t-45 5.5l413 707q17 3 36.5 4.5t37.5 1.5q16 0 34 -0.5t45 -5.5zM726 300
l-1 -42h23q67 0 108.5 -29.5t41.5 -92.5q0 -75 -54 -112t-147 -37q-19 0 -53.5 3.5t-70.5 14.5q2 26 7.5 54.5t21.5 51.5q29 -8 51.5 -13t42.5 -5q39 0 55 10.5t16 28.5q0 15 -15.5 25t-46.5 10q-17 0 -36.5 -3t-41.5 -12l-16 15l10 234h249q2 -9 4 -22.5t2 -27.5t-2 -28
t-4 -23h-144z" />
    <glyph glyph-name="twofifths" unicode="&#x2156;" horiz-adv-x="950" 
d="M243 414h108q4 -17 5 -29.5t1 -24.5t-1 -25t-5 -30h-318l-9 23l109 132q35 42 51 68.5t16 43.5q0 18 -13 28t-36 10q-24 0 -42.5 -6.5t-47.5 -19.5q-10 20 -19 46.5t-12 55.5q25 14 63 23.5t75 9.5q75 0 120.5 -35.5t45.5 -99.5q0 -24 -8 -46.5t-20 -42.5t-26 -37
t-26 -31zM375 2q-17 -3 -36.5 -4.5t-37.5 -1.5q-16 0 -34 0.5t-45 5.5l413 707q17 3 36.5 4.5t37.5 1.5q16 0 34 -0.5t45 -5.5zM755 300l-1 -42h23q67 0 108.5 -29.5t41.5 -92.5q0 -75 -54 -112t-147 -37q-19 0 -53.5 3.5t-70.5 14.5q2 26 7.5 54.5t21.5 51.5
q29 -8 51.5 -13t42.5 -5q39 0 55 10.5t16 28.5q0 15 -15.5 25t-46.5 10q-17 0 -36.5 -3t-41.5 -12l-16 15l10 234h249q2 -9 4 -22.5t2 -27.5t-2 -28t-4 -23h-144z" />
    <glyph glyph-name="threefifths" unicode="&#x2157;" horiz-adv-x="904" 
d="M51 600q-4 15 -5 28t-1 25t1 24.5t5 27.5h279l12 -21l-85 -129q46 -11 69.5 -42.5t23.5 -73.5q0 -37 -14.5 -64.5t-40 -46t-60.5 -28t-75 -9.5q-44 0 -77.5 7t-58.5 16q1 29 11 57.5t22 46.5q17 -8 42.5 -16t51.5 -8q28 0 48.5 11t20.5 35q0 17 -14.5 29.5t-46.5 12.5
q-8 0 -17.5 -1t-29.5 -7l-18 21l72 105h-115zM329 2q-17 -3 -36.5 -4.5t-37.5 -1.5q-16 0 -34 0.5t-45 5.5l413 707q17 3 36.5 4.5t37.5 1.5q16 0 34 -0.5t45 -5.5zM709 300l-1 -42h23q67 0 108.5 -29.5t41.5 -92.5q0 -75 -54 -112t-147 -37q-19 0 -53.5 3.5t-70.5 14.5
q2 26 7.5 54.5t21.5 51.5q29 -8 51.5 -13t42.5 -5q39 0 55 10.5t16 28.5q0 15 -15.5 25t-46.5 10q-17 0 -36.5 -3t-41.5 -12l-16 15l10 234h249q2 -9 4 -22.5t2 -27.5t-2 -28t-4 -23h-144z" />
    <glyph glyph-name="fourfifths" unicode="&#x2158;" horiz-adv-x="953" 
d="M181 454h58v64q15 2 29 3t29 1q14 0 26.5 -1t27.5 -3v-64h36q6 -24 6 -49q0 -22 -6 -46h-36v-54q-15 -2 -27.5 -3.5t-28.5 -1.5q-14 0 -26.5 1t-29.5 4v54h-202l-13 21l155 342q29 -3 53.5 -10.5t49.5 -24.5zM378 2q-17 -3 -36.5 -4.5t-37.5 -1.5q-16 0 -34 0.5t-45 5.5
l413 707q17 3 36.5 4.5t37.5 1.5q16 0 34 -0.5t45 -5.5zM758 300l-1 -42h23q67 0 108.5 -29.5t41.5 -92.5q0 -75 -54 -112t-147 -37q-19 0 -53.5 3.5t-70.5 14.5q2 26 7.5 54.5t21.5 51.5q29 -8 51.5 -13t42.5 -5q39 0 55 10.5t16 28.5q0 15 -15.5 25t-46.5 10
q-17 0 -36.5 -3t-41.5 -12l-16 15l10 234h249q2 -9 4 -22.5t2 -27.5t-2 -28t-4 -23h-144z" />
    <glyph glyph-name="onesixth" unicode="&#x2159;" horiz-adv-x="918" 
d="M50 305q-4 17 -5 30t-1 25t1 24t5 29h81v148l-69 -27q-17 23 -28.5 49t-17.5 49l203 80h33v-299h79q4 -17 5 -29t1 -24t-1 -25t-5 -30h-281zM346 2q-17 -3 -36.5 -4.5t-37.5 -1.5q-16 0 -34 0.5t-45 5.5l413 707q17 3 36.5 4.5t37.5 1.5q16 0 34 -0.5t45 -5.5zM812 403
q8 -11 12 -27.5t4 -32.5q0 -18 -4 -37q-48 -2 -83.5 -16t-47.5 -43q16 9 35 12.5t36 3.5q25 0 49 -7t42 -22.5t29 -40.5t11 -60q0 -36 -14.5 -63t-38.5 -45.5t-55 -28t-64 -9.5q-82 0 -127 46t-45 124q0 51 15.5 95.5t48 77.5t81.5 52t116 21zM728 179q-24 0 -38 -13.5
t-14 -34.5q0 -24 13.5 -37t35.5 -13t36 13t14 36q0 25 -13.5 37t-33.5 12z" />
    <glyph glyph-name="fivesixths" unicode="&#x215a;" horiz-adv-x="901" 
d="M177 604l-1 -42h23q67 0 108.5 -29.5t41.5 -92.5q0 -75 -54 -112t-147 -37q-19 0 -53.5 3.5t-70.5 14.5q2 26 7.5 54.5t21.5 51.5q29 -8 51.5 -13t42.5 -5q39 0 55 10.5t16 28.5q0 15 -15.5 25t-46.5 10q-17 0 -36.5 -3t-41.5 -12l-16 15l10 234h249q2 -9 4 -22.5
t2 -27.5t-2 -28t-4 -23h-144zM329 2q-17 -3 -36.5 -4.5t-37.5 -1.5q-16 0 -34 0.5t-45 5.5l413 707q17 3 36.5 4.5t37.5 1.5q16 0 34 -0.5t45 -5.5zM795 403q8 -11 12 -27.5t4 -32.5q0 -18 -4 -37q-48 -2 -83.5 -16t-47.5 -43q16 9 35 12.5t36 3.5q25 0 49 -7t42 -22.5
t29 -40.5t11 -60q0 -36 -14.5 -63t-38.5 -45.5t-55 -28t-64 -9.5q-82 0 -127 46t-45 124q0 51 15.5 95.5t48 77.5t81.5 52t116 21zM711 179q-24 0 -38 -13.5t-14 -34.5q0 -24 13.5 -37t35.5 -13t36 13t14 36q0 25 -13.5 37t-33.5 12z" />
    <glyph glyph-name="oneseventh" unicode="&#xf506;" horiz-adv-x="967" 
d="M50 305q-4 17 -5 30t-1 25t1 24t5 29h81v148l-69 -27q-17 23 -28.5 49t-17.5 49l203 80h33v-299h79q4 -17 5 -29t1 -24t-1 -25t-5 -30h-281zM346 2q-17 -3 -36.5 -4.5t-37.5 -1.5q-16 0 -34 0.5t-45 5.5l413 707q17 3 36.5 4.5t37.5 1.5q16 0 34 -0.5t45 -5.5zM944 382
l-181 -395q-31 6 -57.5 15t-55.5 28l126 266h-161q-4 13 -5 26.5t-1 24.5q0 12 1 26.5t5 27.5h316z" />
    <glyph glyph-name="twosevenths" unicode="&#xf507;" horiz-adv-x="996" 
d="M243 414h108q4 -17 5 -29.5t1 -24.5t-1 -25t-5 -30h-318l-9 23l109 132q35 42 51 68.5t16 43.5q0 18 -13 28t-36 10q-24 0 -42.5 -6.5t-47.5 -19.5q-10 20 -19 46.5t-12 55.5q25 14 63 23.5t75 9.5q75 0 120.5 -35.5t45.5 -99.5q0 -24 -8 -46.5t-20 -42.5t-26 -37
t-26 -31zM375 2q-17 -3 -36.5 -4.5t-37.5 -1.5q-16 0 -34 0.5t-45 5.5l413 707q17 3 36.5 4.5t37.5 1.5q16 0 34 -0.5t45 -5.5zM973 382l-181 -395q-31 6 -57.5 15t-55.5 28l126 266h-161q-4 13 -5 26.5t-1 24.5q0 12 1 26.5t5 27.5h316z" />
    <glyph glyph-name="threesevenths" unicode="&#xf508;" horiz-adv-x="950" 
d="M51 600q-4 15 -5 28t-1 25t1 24.5t5 27.5h279l12 -21l-85 -129q46 -11 69.5 -42.5t23.5 -73.5q0 -37 -14.5 -64.5t-40 -46t-60.5 -28t-75 -9.5q-44 0 -77.5 7t-58.5 16q1 29 11 57.5t22 46.5q17 -8 42.5 -16t51.5 -8q28 0 48.5 11t20.5 35q0 17 -14.5 29.5t-46.5 12.5
q-8 0 -17.5 -1t-29.5 -7l-18 21l72 105h-115zM329 2q-17 -3 -36.5 -4.5t-37.5 -1.5q-16 0 -34 0.5t-45 5.5l413 707q17 3 36.5 4.5t37.5 1.5q16 0 34 -0.5t45 -5.5zM927 382l-181 -395q-31 6 -57.5 15t-55.5 28l126 266h-161q-4 13 -5 26.5t-1 24.5q0 12 1 26.5t5 27.5h316z
" />
    <glyph glyph-name="foursevenths" unicode="&#xf509;" horiz-adv-x="999" 
d="M181 454h58v64q15 2 29 3t29 1q14 0 26.5 -1t27.5 -3v-64h36q6 -24 6 -49q0 -22 -6 -46h-36v-54q-15 -2 -27.5 -3.5t-28.5 -1.5q-14 0 -26.5 1t-29.5 4v54h-202l-13 21l155 342q29 -3 53.5 -10.5t49.5 -24.5zM378 2q-17 -3 -36.5 -4.5t-37.5 -1.5q-16 0 -34 0.5t-45 5.5
l413 707q17 3 36.5 4.5t37.5 1.5q16 0 34 -0.5t45 -5.5zM976 382l-181 -395q-31 6 -57.5 15t-55.5 28l126 266h-161q-4 13 -5 26.5t-1 24.5q0 12 1 26.5t5 27.5h316z" />
    <glyph glyph-name="fivesevenths" unicode="&#xf50a;" horiz-adv-x="950" 
d="M177 604l-1 -42h23q67 0 108.5 -29.5t41.5 -92.5q0 -75 -54 -112t-147 -37q-19 0 -53.5 3.5t-70.5 14.5q2 26 7.5 54.5t21.5 51.5q29 -8 51.5 -13t42.5 -5q39 0 55 10.5t16 28.5q0 15 -15.5 25t-46.5 10q-17 0 -36.5 -3t-41.5 -12l-16 15l10 234h249q2 -9 4 -22.5
t2 -27.5t-2 -28t-4 -23h-144zM329 2q-17 -3 -36.5 -4.5t-37.5 -1.5q-16 0 -34 0.5t-45 5.5l413 707q17 3 36.5 4.5t37.5 1.5q16 0 34 -0.5t45 -5.5zM927 382l-181 -395q-31 6 -57.5 15t-55.5 28l126 266h-161q-4 13 -5 26.5t-1 24.5q0 12 1 26.5t5 27.5h316z" />
    <glyph glyph-name="sixsevenths" unicode="&#xf50b;" horiz-adv-x="965" 
d="M285 707q8 -11 12 -27.5t4 -32.5q0 -18 -4 -37q-48 -2 -83.5 -16t-47.5 -43q16 9 35 12.5t36 3.5q25 0 49 -7t42 -22.5t29 -40.5t11 -60q0 -36 -14.5 -63t-38.5 -45.5t-55 -28t-64 -9.5q-82 0 -127 46t-45 124q0 51 15.5 95.5t48 77.5t81.5 52t116 21zM201 483
q-24 0 -38 -13.5t-14 -34.5q0 -24 13.5 -37t35.5 -13t36 13t14 36q0 25 -13.5 37t-33.5 12zM344 2q-17 -3 -36.5 -4.5t-37.5 -1.5q-16 0 -34 0.5t-45 5.5l413 707q17 3 36.5 4.5t37.5 1.5q16 0 34 -0.5t45 -5.5zM942 382l-181 -395q-31 6 -57.5 15t-55.5 28l126 266h-161
q-4 13 -5 26.5t-1 24.5q0 12 1 26.5t5 27.5h316z" />
    <glyph glyph-name="oneninth" unicode="&#xf50c;" horiz-adv-x="945" 
d="M50 305q-4 17 -5 30t-1 25t1 24t5 29h81v148l-69 -27q-17 23 -28.5 49t-17.5 49l203 80h33v-299h79q4 -17 5 -29t1 -24t-1 -25t-5 -30h-281zM346 2q-17 -3 -36.5 -4.5t-37.5 -1.5q-16 0 -34 0.5t-45 5.5l413 707q17 3 36.5 4.5t37.5 1.5q16 0 34 -0.5t45 -5.5zM661 -14
q-8 11 -12 27.5t-4 32.5q0 18 4 37q48 2 83.5 16t47.5 43q-16 -9 -35 -12.5t-36 -3.5q-26 0 -49.5 7t-41.5 22.5t-29 40.5t-11 60q0 36 14.5 63t38.5 45.5t55 28t64 9.5q82 0 127 -46t45 -124q0 -51 -16 -95.5t-48 -77.5t-81 -52.5t-116 -20.5zM745 210q24 0 38 13.5
t14 34.5q0 24 -13.5 37t-35.5 13t-36 -13t-14 -36q0 -25 13.5 -37t33.5 -12z" />
    <glyph glyph-name="twoninths" unicode="&#xf50d;" horiz-adv-x="974" 
d="M375 2q-17 -3 -36.5 -4.5t-37.5 -1.5q-16 0 -34 0.5t-45 5.5l413 707q17 3 36.5 4.5t37.5 1.5q16 0 34 -0.5t45 -5.5zM690 -14q-8 11 -12 27.5t-4 32.5q0 18 4 37q48 2 83.5 16t47.5 43q-16 -9 -35 -12.5t-36 -3.5q-26 0 -49.5 7t-41.5 22.5t-29 40.5t-11 60
q0 36 14.5 63t38.5 45.5t55 28t64 9.5q82 0 127 -46t45 -124q0 -51 -16 -95.5t-48 -77.5t-81 -52.5t-116 -20.5zM774 210q24 0 38 13.5t14 34.5q0 24 -13.5 37t-35.5 13t-36 -13t-14 -36q0 -25 13.5 -37t33.5 -12zM243 414h108q4 -17 5 -29.5t1 -24.5t-1 -25t-5 -30h-318
l-9 23l109 132q35 42 51 68.5t16 43.5q0 18 -13 28t-36 10q-24 0 -42.5 -6.5t-47.5 -19.5q-10 20 -19 46.5t-12 55.5q25 14 63 23.5t75 9.5q75 0 120.5 -35.5t45.5 -99.5q0 -24 -8 -46.5t-20 -42.5t-26 -37t-26 -31z" />
    <glyph glyph-name="fourninths" unicode="&#xf50e;" horiz-adv-x="977" 
d="M181 454h58v64q15 2 29 3t29 1q14 0 26.5 -1t27.5 -3v-64h36q6 -24 6 -49q0 -22 -6 -46h-36v-54q-15 -2 -27.5 -3.5t-28.5 -1.5q-14 0 -26.5 1t-29.5 4v54h-202l-13 21l155 342q29 -3 53.5 -10.5t49.5 -24.5zM378 2q-17 -3 -36.5 -4.5t-37.5 -1.5q-16 0 -34 0.5t-45 5.5
l413 707q17 3 36.5 4.5t37.5 1.5q16 0 34 -0.5t45 -5.5zM693 -14q-8 11 -12 27.5t-4 32.5q0 18 4 37q48 2 83.5 16t47.5 43q-16 -9 -35 -12.5t-36 -3.5q-26 0 -49.5 7t-41.5 22.5t-29 40.5t-11 60q0 36 14.5 63t38.5 45.5t55 28t64 9.5q82 0 127 -46t45 -124
q0 -51 -16 -95.5t-48 -77.5t-81 -52.5t-116 -20.5zM777 210q24 0 38 13.5t14 34.5q0 24 -13.5 37t-35.5 13t-36 -13t-14 -36q0 -25 13.5 -37t33.5 -12z" />
    <glyph glyph-name="fiveninths" unicode="&#xf50f;" horiz-adv-x="928" 
d="M177 604l-1 -42h23q67 0 108.5 -29.5t41.5 -92.5q0 -75 -54 -112t-147 -37q-19 0 -53.5 3.5t-70.5 14.5q2 26 7.5 54.5t21.5 51.5q29 -8 51.5 -13t42.5 -5q39 0 55 10.5t16 28.5q0 15 -15.5 25t-46.5 10q-17 0 -36.5 -3t-41.5 -12l-16 15l10 234h249q2 -9 4 -22.5
t2 -27.5t-2 -28t-4 -23h-144zM329 2q-17 -3 -36.5 -4.5t-37.5 -1.5q-16 0 -34 0.5t-45 5.5l413 707q17 3 36.5 4.5t37.5 1.5q16 0 34 -0.5t45 -5.5zM644 -14q-8 11 -12 27.5t-4 32.5q0 18 4 37q48 2 83.5 16t47.5 43q-16 -9 -35 -12.5t-36 -3.5q-26 0 -49.5 7t-41.5 22.5
t-29 40.5t-11 60q0 36 14.5 63t38.5 45.5t55 28t64 9.5q82 0 127 -46t45 -124q0 -51 -16 -95.5t-48 -77.5t-81 -52.5t-116 -20.5zM728 210q24 0 38 13.5t14 34.5q0 24 -13.5 37t-35.5 13t-36 -13t-14 -36q0 -25 13.5 -37t33.5 -12z" />
    <glyph glyph-name="sevenninths" unicode="&#xf510;" horiz-adv-x="868" 
d="M346 686l-181 -395q-31 6 -57.5 15t-55.5 28l126 266h-161q-4 13 -5 26.5t-1 24.5q0 12 1 26.5t5 27.5h316zM269 2q-17 -3 -36.5 -4.5t-37.5 -1.5q-16 0 -34 0.5t-45 5.5l413 707q17 3 36.5 4.5t37.5 1.5q16 0 34 -0.5t45 -5.5zM584 -14q-8 11 -12 27.5t-4 32.5
q0 18 4 37q48 2 83.5 16t47.5 43q-16 -9 -35 -12.5t-36 -3.5q-26 0 -49.5 7t-41.5 22.5t-29 40.5t-11 60q0 36 14.5 63t38.5 45.5t55 28t64 9.5q82 0 127 -46t45 -124q0 -51 -16 -95.5t-48 -77.5t-81 -52.5t-116 -20.5zM668 210q24 0 38 13.5t14 34.5q0 24 -13.5 37
t-35.5 13t-36 -13t-14 -36q0 -25 13.5 -37t33.5 -12z" />
    <glyph glyph-name="eightninths" unicode="&#xf511;" horiz-adv-x="982" 
d="M373 602q0 -25 -14.5 -46t-31.5 -35q25 -15 45 -42t20 -62q0 -34 -15 -58t-39.5 -39t-57.5 -22t-69 -7q-38 0 -71.5 7t-59.5 22t-41 39t-15 58q0 36 20.5 62.5t45.5 41.5q-17 14 -31 34.5t-14 46.5q0 50 44 83.5t122 33.5q76 0 119 -33.5t43 -83.5zM257 423q0 15 -13 27
t-36 20q-20 -8 -33 -20t-13 -27q0 -13 10 -25t39 -12q24 0 35 12t11 25zM167 596q0 -14 12 -23t32 -14q15 5 28 15t13 22t-9.5 22.5t-31.5 10.5q-23 0 -33.5 -11t-10.5 -22zM383 2q-17 -3 -36.5 -4.5t-37.5 -1.5q-16 0 -34 0.5t-45 5.5l413 707q17 3 36.5 4.5t37.5 1.5
q16 0 34 -0.5t45 -5.5zM698 -14q-8 11 -12 27.5t-4 32.5q0 18 4 37q48 2 83.5 16t47.5 43q-16 -9 -35 -12.5t-36 -3.5q-26 0 -49.5 7t-41.5 22.5t-29 40.5t-11 60q0 36 14.5 63t38.5 45.5t55 28t64 9.5q82 0 127 -46t45 -124q0 -51 -16 -95.5t-48 -77.5t-81 -52.5
t-116 -20.5zM782 210q24 0 38 13.5t14 34.5q0 24 -13.5 37t-35.5 13t-36 -13t-14 -36q0 -25 13.5 -37t33.5 -12z" />
    <glyph glyph-name="partialdiff" unicode="&#x2202;" horiz-adv-x="599" 
d="M74 668q33 21 79 36t111 15q83 0 139 -32t89.5 -84.5t48 -119.5t14.5 -137q0 -187 -74 -272.5t-209 -85.5q-42 0 -84.5 12t-77.5 40.5t-57 74.5t-22 114q0 60 20.5 105t53.5 75t73.5 45t81.5 15q50 0 78.5 -11.5t40.5 -19.5q-11 66 -45 102.5t-91 36.5q-32 0 -63 -9
t-58 -23q-22 32 -33.5 63.5t-14.5 59.5zM284 128q29 0 48 13t30.5 36.5t17 56.5t6.5 73q-23 12 -48.5 18t-45.5 6q-47 0 -71 -29t-24 -74q0 -47 22.5 -73.5t64.5 -26.5z" />
    <glyph glyph-name="Delta" unicode="&#x2206;" horiz-adv-x="637" 
d="M229 706q26 3 47.5 5t43.5 2q20 0 41 -2t50 -5l224 -706h-633zM409 150q-14 48 -25 87.5t-21.5 77.5t-21.5 78t-25 90q-26 -85 -49.5 -165t-49.5 -168h192z" />
    <glyph glyph-name="product" unicode="&#x220f;" horiz-adv-x="745" 
d="M105 566h-81q-9 42 -9 77q0 34 9 76h698q4 -21 6 -40t2 -36t-2 -36.5t-6 -40.5h-80v-742q-53 -9 -88 -9q-37 0 -89 9v742h-183v-742q-53 -9 -88 -9q-37 0 -89 9v742z" />
    <glyph glyph-name="summation" unicode="&#x2211;" horiz-adv-x="565" 
d="M33 -177l-18 27l223 443l-211 396l17 30h498q4 -22 6 -41t2 -36q0 -33 -8 -79h-253l134 -264l-156 -320h267q4 -22 6 -41t2 -36q0 -33 -8 -79h-501z" />
    <glyph glyph-name="minus" unicode="&#x2212;" horiz-adv-x="579" 
d="M71 282q-3 20 -5 36.5t-2 34.5q0 17 2 34.5t5 37.5h436q4 -20 6 -37t2 -34t-2 -34.5t-6 -37.5h-436z" />
    <glyph glyph-name="uni2215" unicode="&#x2215;" horiz-adv-x="96" 
d="M-82 2q-17 -3 -36.5 -4.5t-37.5 -1.5q-16 0 -34 0.5t-45 5.5l413 707q17 3 36.5 4.5t37.5 1.5q16 0 34 -0.5t45 -5.5z" />
    <glyph glyph-name="radical" unicode="&#x221a;" horiz-adv-x="585" 
d="M130 274h-89q-5 21 -6.5 39t-1.5 35t1.5 35t6.5 39h215l58 -220q16 57 35 121.5t38 130t37.5 129.5t34.5 121q18 3 40 4.5t40 1.5q17 0 40 -1.5t49 -6.5l-230 -702l-36 -4t-51 -2q-28 0 -48 2t-38 4z" />
    <glyph glyph-name="infinity" unicode="&#x221e;" horiz-adv-x="759" 
d="M544 73q-42 0 -84.5 21t-83.5 71q-41 -46 -80 -67.5t-81 -21.5q-38 0 -70 14.5t-55 40t-36.5 61t-13.5 77.5t13.5 77.5t36.5 61.5t55 40.5t70 14.5q42 0 84 -22t83 -71q42 47 81 68.5t81 21.5q37 0 69.5 -14.5t55.5 -40t36.5 -61t13.5 -77.5t-13.5 -77.5t-36.5 -61.5
t-55.5 -40.5t-69.5 -14.5zM544 325q-17 0 -34 -12t-46 -47q27 -35 44.5 -46t34.5 -11q19 0 32.5 15.5t13.5 42.5q0 26 -13.5 42t-31.5 16zM214 211q17 0 34 11.5t46 47.5q-28 34 -45.5 45.5t-33.5 11.5q-18 0 -31.5 -15.5t-13.5 -42.5q0 -26 13.5 -42t30.5 -16z" />
    <glyph glyph-name="integral" unicode="&#x222b;" horiz-adv-x="383" 
d="M387 567q-8 2 -27 5.5t-35 3.5q-25 0 -43 -12.5t-16 -50.5l19 -556q2 -54 -15.5 -92.5t-48.5 -64t-71.5 -37.5t-83.5 -12q-36 0 -59.5 4.5t-36.5 9.5q2 42 8.5 75.5t18.5 65.5q6 -2 22 -5.5t36 -3.5q26 0 45 14t17 51l-19 552q-2 53 13 91.5t42.5 64t66.5 38t85 12.5
q30 0 53 -3.5t55 -12.5q-2 -40 -8 -72.5t-18 -64.5z" />
    <glyph glyph-name="approxequal" unicode="&#x2248;" horiz-adv-x="579" 
d="M206 553q23 0 44 -6t43 -14l38 -12t39 -6q9 0 17 1.5t17.5 6t20.5 12t25 20.5q26 -25 43.5 -55t26.5 -58q-25 -29 -63 -48.5t-86 -19.5q-24 0 -46.5 6t-44.5 14q-20 6 -38 11.5t-35 5.5q-9 0 -17.5 -1t-17.5 -5t-19.5 -12t-25.5 -21q-24 25 -42.5 53.5t-26.5 58.5
q24 28 62 48.5t86 20.5zM206 334q23 0 44 -6t43 -14l38 -12t39 -6q9 0 17 1.5t17.5 6t20.5 12t25 20.5q26 -25 43.5 -55t26.5 -58q-25 -29 -63 -48.5t-86 -19.5q-24 0 -46.5 6t-44.5 14q-20 6 -38 11.5t-35 5.5q-9 0 -17.5 -1t-17.5 -5t-19.5 -12t-25.5 -21
q-24 25 -42.5 53.5t-26.5 58.5q24 28 62 48.5t86 20.5z" />
    <glyph glyph-name="notequal" unicode="&#x2260;" horiz-adv-x="579" 
d="M259 173l-43 -92q-8 -4 -23 -6t-30 -2q-13 0 -27 1.5t-25 6.5l43 92h-83q-3 20 -5 36.5t-2 34.5q0 17 2 34.5t5 37.5h149l34 73h-183q-3 20 -5 36.5t-2 34.5q0 17 2 34.5t5 37.5h250l42 91q8 4 23 6t30 2q13 0 27 -1.5t25 -6.5l-42 -91h81q4 -20 6 -37t2 -34t-2 -34.5
t-6 -37.5h-148l-34 -73h182q4 -20 6 -37t2 -34t-2 -34.5t-6 -37.5h-248z" />
    <glyph glyph-name="lessequal" unicode="&#x2264;" horiz-adv-x="579" 
d="M240 409l260 -82q5 -20 5.5 -38t0.5 -35q0 -7 -0.5 -18t-1.5 -23t-2.5 -23.5t-3.5 -20.5l-415 164q-10 41 -10 79q0 37 10 73l415 164q4 -17 6 -42.5t2 -39.5q0 -17 -0.5 -34t-5.5 -37zM71 -11q-3 20 -5 36.5t-2 34.5q0 17 2 34.5t5 37.5h436q4 -20 6 -37t2 -34t-2 -34.5
t-6 -37.5h-436z" />
    <glyph glyph-name="greaterequal" unicode="&#x2265;" horiz-adv-x="579" 
d="M341.015 413l-259.984 -87q-4.99902 -20 -5.49902 -38t-0.5 -35q0 -7 0.5 -18t1.5 -23q0.999023 -12 2.49902 -23.5t3.5 -20.5l414.975 169q10 41 10 79q0 37 -10 73l-414.975 169q-4 -17 -5.99902 -42.5q-2 -25.5 -2 -39.5q0 -17 0.5 -34t5.49902 -37zM508.004 -10
q3 20 5 36.5t2 34.5q0 17 -2 34.5t-5 37.5h-435.973q-4 -20 -6 -37t-2 -34t2 -34.5t6 -37.5h435.973z" />
    <glyph glyph-name="lozenge" unicode="&#x25ca;" horiz-adv-x="581" 
d="M384 361l-91 202l-91 -202l91 -205zM30 361l182 358q24 4 46 5t35 1q16 0 36.5 -1t41.5 -6l180 -357l-182 -359q-25 -5 -46.5 -6t-35.5 -1q-15 0 -35.5 1.5t-41.5 6.5z" />
    <glyph glyph-name="ff" unicode="&#xfb00;" horiz-adv-x="922" 
d="M225 155v-153q-21 -5 -43 -6.5t-41 -1.5q-20 0 -41.5 1.5t-43.5 6.5v515h382q5 -20 6.5 -37t1.5 -33t-1.5 -33.5t-6.5 -37.5h-213v-80h172q5 -20 6.5 -37t1.5 -33t-1.5 -33.5t-6.5 -37.5h-172zM686 155v-153q-21 -5 -43 -6.5t-41 -1.5q-20 0 -41.5 1.5t-43.5 6.5v515h382
q5 -20 6.5 -37t1.5 -33t-1.5 -33.5t-6.5 -37.5h-213v-80h172q5 -20 6.5 -37t1.5 -33t-1.5 -33.5t-6.5 -37.5h-172z" />
    <glyph glyph-name="fi" unicode="&#xfb01;" horiz-adv-x="742" 
d="M225 155v-153q-21 -5 -43 -6.5t-41 -1.5q-20 0 -41.5 1.5t-43.5 6.5v515h382q5 -20 6.5 -37t1.5 -33t-1.5 -33.5t-6.5 -37.5h-213v-80h172q5 -20 6.5 -37t1.5 -33t-1.5 -33.5t-6.5 -37.5h-172zM686 1q-26 -4 -47 -6t-38 -2t-38 2t-46 6v516q22 5 43.5 7t41.5 2
q19 0 41 -2t43 -7v-516z" />
    <glyph glyph-name="fl" unicode="&#xfb02;" horiz-adv-x="898" 
d="M225 155v-153q-21 -5 -43 -6.5t-41 -1.5q-20 0 -41.5 1.5t-43.5 6.5v515h382q5 -20 6.5 -37t1.5 -33t-1.5 -33.5t-6.5 -37.5h-213v-80h172q5 -20 6.5 -37t1.5 -33t-1.5 -33.5t-6.5 -37.5h-172zM686 141h189q5 -20 6.5 -37t1.5 -33t-1.5 -33.5t-6.5 -37.5h-358l1 517
q22 5 43.5 7t41.5 2q19 0 41 -2t43 -7z" />
    <glyph glyph-name="ffi" unicode="&#xfb03;" horiz-adv-x="1203" 
d="M225 155v-153q-21 -5 -43 -6.5t-41 -1.5q-20 0 -41.5 1.5t-43.5 6.5v515h382q5 -20 6.5 -37t1.5 -33t-1.5 -33.5t-6.5 -37.5h-213v-80h172q5 -20 6.5 -37t1.5 -33t-1.5 -33.5t-6.5 -37.5h-172zM686 155v-153q-21 -5 -43 -6.5t-41 -1.5q-20 0 -41.5 1.5t-43.5 6.5v515h382
q5 -20 6.5 -37t1.5 -33t-1.5 -33.5t-6.5 -37.5h-213v-80h172q5 -20 6.5 -37t1.5 -33t-1.5 -33.5t-6.5 -37.5h-172zM1147 1q-26 -4 -47 -6t-38 -2t-38 2t-46 6v516q22 5 43.5 7t41.5 2q19 0 41 -2t43 -7v-516z" />
    <glyph glyph-name="ffl" unicode="&#xfb04;" horiz-adv-x="1359" 
d="M225 155v-153q-21 -5 -43 -6.5t-41 -1.5q-20 0 -41.5 1.5t-43.5 6.5v515h382q5 -20 6.5 -37t1.5 -33t-1.5 -33.5t-6.5 -37.5h-213v-80h172q5 -20 6.5 -37t1.5 -33t-1.5 -33.5t-6.5 -37.5h-172zM687 155v-153q-21 -5 -43 -6.5t-41 -1.5q-20 0 -41.5 1.5t-43.5 6.5v515h382
q5 -20 6.5 -37t1.5 -33t-1.5 -33.5t-6.5 -37.5h-213v-80h172q5 -20 6.5 -37t1.5 -33t-1.5 -33.5t-6.5 -37.5h-172zM1147 141h189q5 -20 6.5 -37t1.5 -33t-1.5 -33.5t-6.5 -37.5h-358l1 517q22 5 43.5 7t41.5 2q19 0 41 -2t43 -7z" />
    <glyph glyph-name="zero.alt" unicode="&#xf800;" horiz-adv-x="577" 
d="M283 -12q-63 0 -109.5 20t-78 56t-47 85.5t-15.5 108.5t17.5 108.5t50.5 85.5t81 56.5t110 20.5q63 0 110 -20.5t78.5 -56.5t47.5 -85.5t16 -108.5t-18 -108.5t-52 -85.5t-82.5 -56t-108.5 -20zM286 131q36 0 59.5 29t23.5 98q0 71 -24 100t-59 29q-40 0 -62.5 -29
t-22.5 -100q0 -69 24 -98t61 -29z" />
    <glyph glyph-name="one.alt" unicode="&#xf801;" horiz-adv-x="480" 
d="M89 282q-43 48 -62 121l282 126h42v-392h117q5 -20 6.5 -36t1.5 -32t-1.5 -32.5t-6.5 -36.5h-400q-5 20 -6.5 36.5t-1.5 32.5t1.5 32t6.5 36h121v187z" />
    <glyph glyph-name="two.alt" unicode="&#xf802;" horiz-adv-x="519" 
d="M27 0l-9 33l120 120q35 35 61 61.5t43 47.5t25.5 38.5t8.5 35.5q0 24 -18 37.5t-53 13.5q-32 0 -68.5 -12.5t-68.5 -29.5q-16 29 -27 65t-13 67q38 19 89 35.5t115 16.5q43 0 83 -10.5t71 -31.5t49 -53t18 -75q0 -27 -8 -51t-21 -46.5t-30 -43t-34 -38.5l-42 -45h155
q5 -20 6.5 -35.5t1.5 -31.5t-1.5 -32t-6.5 -36h-446z" />
    <glyph glyph-name="three.alt" unicode="&#xf803;" horiz-adv-x="495" 
d="M47 393q-5 19 -6.5 35.5t-1.5 31.5t1.5 29t6.5 34h375l15 -29l-115 -163q34 -4 59 -17.5t41.5 -33.5t24.5 -45t8 -53q0 -48 -19 -84.5t-52.5 -61t-79 -36.5t-97.5 -12q-33 0 -58.5 1.5t-48 5.5t-45 10t-48.5 14q2 31 12.5 67t25.5 60q35 -10 69.5 -17.5t72.5 -7.5
q21 0 40 3t33.5 10t22.5 18.5t8 28.5q0 26 -23 42t-65 16q-27 0 -48.5 -3t-28.5 -5l-17 25l103 137h-165z" />
    <glyph glyph-name="four.alt" unicode="&#xf804;" horiz-adv-x="533" 
d="M449 85v-82q-23 -4 -38 -6t-29 -2q-18 0 -40.5 2t-42.5 5v83h-268l-16 25l182 428q35 -5 76 -19.5t73 -35.5l-119 -267h72v78q23 3 43.5 5t34.5 2q18 0 35 -2t37 -4v-79h44q5 -20 6.5 -33.5t1.5 -29.5t-1.5 -32t-6.5 -36h-44z" />
    <glyph glyph-name="five.alt" unicode="&#xf805;" horiz-adv-x="493" 
d="M203 393l-2 -58q12 2 34.5 4t41.5 2q80 0 127 -41.5t47 -116.5q0 -44 -13.5 -80t-43.5 -61.5t-76.5 -39.5t-112.5 -14q-30 0 -60 3.5t-55.5 9t-45 11t-30.5 10.5q2 36 13.5 71t25.5 58q36 -14 70 -22t65 -8q56 0 76 14t20 37q0 26 -22 39.5t-61 13.5q-35 0 -69.5 -8.5
t-57.5 -17.5l-19 18l14 306h341q5 -20 6.5 -34t1.5 -29t-1.5 -31.5t-6.5 -35.5h-207z" />
    <glyph glyph-name="six.alt" unicode="&#xf806;" horiz-adv-x="512" 
d="M31 211q0 64 21.5 121t64 101t107 71.5t151.5 33.5q6 -6 14 -25t8 -50q0 -21 -1.5 -31.5t-3.5 -18.5q-29 -1 -57.5 -6.5t-53 -16.5t-44 -26.5t-29.5 -36.5q7 5 31 16t66 11q32 0 64 -9.5t57.5 -30t41 -53t15.5 -77.5q0 -50 -19.5 -87t-51 -61t-71.5 -36t-82 -12
q-112 0 -170 58t-58 165zM261 243q-31 0 -48.5 -16.5t-17.5 -50.5q0 -35 17 -51.5t46 -16.5q27 0 45 17.5t18 50.5q0 34 -17 50.5t-43 16.5z" />
    <glyph glyph-name="seven.alt" unicode="&#xf807;" horiz-adv-x="509" 
d="M491 523l13 -30l-269 -509q-38 11 -77.5 31t-71.5 43l178 321h-226q-5 19 -6.5 39t-1.5 35t1.5 32.5t6.5 37.5h453z" />
    <glyph glyph-name="eight.alt" unicode="&#xf808;" horiz-adv-x="563" 
d="M36 146q0 48 24.5 81t62.5 52q-29 19 -45.5 46.5t-16.5 58.5q0 65 57.5 105t165.5 40q104 0 160.5 -40t56.5 -105q0 -32 -16 -59t-45 -47q37 -18 62 -51t25 -81q0 -42 -18.5 -72t-51.5 -49t-77.5 -28t-96.5 -9q-54 0 -99 9t-78 28t-51.5 49t-18.5 72zM353 152
q0 23 -16.5 38.5t-53.5 25.5q-42 -11 -57.5 -27.5t-15.5 -36.5q0 -23 19 -39t54 -16t52.5 17.5t17.5 37.5zM220 383q0 -18 13.5 -32.5t48.5 -22.5q35 8 48 22.5t13 32.5q0 14 -15 28.5t-44 14.5q-32 0 -48 -15t-16 -28z" />
    <glyph glyph-name="nine.alt" unicode="&#xf809;" horiz-adv-x="512" 
d="M481.002 306.013q0 -63.9961 -21.499 -120.992q-21.498 -56.9971 -63.9961 -100.994q-42.4971 -43.9971 -106.993 -71.4951q-64.4961 -27.499 -151.491 -33.498q-5.99902 5.99902 -13.999 24.998q-7.99902 18.999 -7.99902 49.9971q0 20.999 1.5 31.498t3.49902 18.499
q28.999 1 57.4971 6.49902q28.498 5.5 52.9971 16.499q24.498 11 43.9971 26.499t29.498 36.4971q-7 -4.99902 -30.998 -15.999q-23.999 -10.999 -65.9961 -10.999q-31.998 0 -63.9961 9.5q-31.998 9.49902 -57.4961 29.998q-25.499 20.498 -40.998 52.9961t-15.499 77.4961
q0 49.9961 19.499 86.9941t50.9971 60.9961q31.498 23.999 71.4951 35.998q39.998 11.999 81.9951 11.999q111.993 0 169.99 -57.9961q57.9961 -57.9971 57.9961 -164.99zM251.016 274.015q30.998 0 48.4971 16.499t17.499 50.4971q0 34.998 -16.999 51.4971
t-45.9971 16.499q-26.998 0 -44.9971 -17.499t-17.999 -50.4971q0 -33.998 16.999 -50.4971t42.9971 -16.499z" />
    <glyph glyph-name="zero.sups" unicode="&#xf80a;" 
d="M280 625q0 46 -13 73t-42 27t-42 -27t-13 -73q0 -45 13 -73t42 -28t42 28t13 73zM33 625q0 41 11.5 79.5t35 68.5t59.5 48t86 18q49 0 85 -18t60 -48t35.5 -68.5t11.5 -79.5t-11.5 -79.5t-35.5 -68.5t-60 -48t-85 -18q-50 0 -86 18t-59.5 48t-35 68.5t-11.5 79.5z" />
    <glyph glyph-name="one.sups" unicode="&#xf80b;" 
d="M91 425q-4 17 -5 30t-1 25t1 24t5 29h81v148l-69 -27q-17 23 -28.5 49t-17.5 49l203 80h33v-299h79q4 -17 5 -29t1 -24t-1 -25t-5 -30h-281z" />
    <glyph glyph-name="two.sups" unicode="&#xf80c;" 
d="M255 534h108q4 -17 5 -29.5t1 -24.5t-1 -25t-5 -30h-318l-9 23l109 132q35 42 51 68.5t16 43.5q0 18 -13 28t-36 10q-24 0 -42.5 -6.5t-47.5 -19.5q-10 20 -19 46.5t-12 55.5q25 14 63 23.5t75 9.5q75 0 120.5 -35.5t45.5 -99.5q0 -24 -8 -46.5t-20 -42.5t-26 -37
t-26 -31z" />
    <glyph glyph-name="three.sups" unicode="&#xf80d;" 
d="M72 720q-4 15 -5 28t-1 25t1 24.5t5 27.5h279l12 -21l-85 -129q46 -11 69.5 -42.5t23.5 -73.5q0 -37 -14.5 -64.5t-40 -46t-60.5 -28t-75 -9.5q-44 0 -77.5 7t-58.5 16q1 29 11 57.5t22 46.5q17 -8 42.5 -16t51.5 -8q28 0 48.5 11t20.5 35q0 17 -14.5 29.5t-46.5 12.5
q-8 0 -17.5 -1t-29.5 -7l-18 21l72 105h-115z" />
    <glyph glyph-name="four.sups" unicode="&#xf80e;" 
d="M190 574h58v64q15 2 29 3t29 1q14 0 26.5 -1t27.5 -3v-64h36q6 -24 6 -49q0 -22 -6 -46h-36v-54q-15 -2 -27.5 -3.5t-28.5 -1.5q-14 0 -26.5 1t-29.5 4v54h-202l-13 21l155 342q29 -3 53.5 -10.5t49.5 -24.5z" />
    <glyph glyph-name="five.sups" unicode="&#xf80f;" 
d="M197 724l-1 -42h23q67 0 108.5 -29.5t41.5 -92.5q0 -75 -54 -112t-147 -37q-19 0 -53.5 3.5t-70.5 14.5q2 26 7.5 54.5t21.5 51.5q29 -8 51.5 -13t42.5 -5q39 0 55 10.5t16 28.5q0 15 -15.5 25t-46.5 10q-17 0 -36.5 -3t-41.5 -12l-16 15l10 234h249q2 -9 4 -22.5
t2 -27.5t-2 -28t-4 -23h-144z" />
    <glyph glyph-name="six.sups" unicode="&#xf810;" 
d="M318 827q8 -11 12 -27.5t4 -32.5q0 -18 -4 -37q-48 -2 -83.5 -16t-47.5 -43q16 9 35 12.5t36 3.5q25 0 49 -7t42 -22.5t29 -40.5t11 -60q0 -36 -14.5 -63t-38.5 -45.5t-55 -28t-64 -9.5q-82 0 -127 46t-45 124q0 51 15.5 95.5t48 77.5t81.5 52t116 21zM234 603
q-24 0 -38 -13.5t-14 -34.5q0 -24 13.5 -37t35.5 -13t36 13t14 36q0 25 -13.5 37t-33.5 12z" />
    <glyph glyph-name="seven.sups" unicode="&#xf811;" 
d="M395 806l-181 -395q-31 6 -57.5 15t-55.5 28l126 266h-161q-4 13 -5 26.5t-1 24.5q0 12 1 26.5t5 27.5h316z" />
    <glyph glyph-name="eight.sups" unicode="&#xf812;" 
d="M390 722q0 -25 -14.5 -46t-31.5 -35q25 -15 45 -42t20 -62q0 -34 -15 -58t-39.5 -39t-57.5 -22t-69 -7q-38 0 -71.5 7t-59.5 22t-41 39t-15 58q0 36 20.5 62.5t45.5 41.5q-17 14 -31 34.5t-14 46.5q0 50 44 83.5t122 33.5q76 0 119 -33.5t43 -83.5zM274 543q0 15 -13 27
t-36 20q-20 -8 -33 -20t-13 -27q0 -13 10 -25t39 -12q24 0 35 12t11 25zM184 716q0 -14 12 -23t32 -14q15 5 28 15t13 22t-9.5 22.5t-31.5 10.5q-23 0 -33.5 -11t-10.5 -22z" />
    <glyph glyph-name="nine.sups" unicode="&#xf813;" 
d="M132 410q-8 11 -12 27.5t-4 32.5q0 18 4 37q48 2 83.5 16t47.5 43q-16 -9 -35 -12.5t-36 -3.5q-26 0 -49.5 7t-41.5 22.5t-29 40.5t-11 60q0 36 14.5 63t38.5 45.5t55 28t64 9.5q82 0 127 -46t45 -124q0 -51 -16 -95.5t-48 -77.5t-81 -52.5t-116 -20.5zM216 634
q24 0 38 13.5t14 34.5q0 24 -13.5 37t-35.5 13t-36 -13t-14 -36q0 -25 13.5 -37t33.5 -12z" />
    <glyph glyph-name="zero.sinf" unicode="&#xf814;" 
d="M280 81q0 46 -13 73t-42 27t-42 -27t-13 -73q0 -45 13 -73t42 -28t42 28t13 73zM33 81q0 41 11.5 79.5t35 68.5t59.5 48t86 18q49 0 85 -18t60 -48t35.5 -68.5t11.5 -79.5t-11.5 -79.5t-35.5 -68.5t-60 -48t-85 -18q-50 0 -86 18t-59.5 48t-35 68.5t-11.5 79.5z" />
    <glyph glyph-name="one.sinf" unicode="&#xf815;" 
d="M91 -119q-4 17 -5 30t-1 25t1 24t5 29h81v148l-69 -27q-17 23 -28.5 49t-17.5 49l203 80h33v-299h79q4 -17 5 -29t1 -24t-1 -25t-5 -30h-281z" />
    <glyph glyph-name="two.sinf" unicode="&#xf816;" 
d="M255 -10h108q4 -17 5 -29.5t1 -24.5t-1 -25t-5 -30h-318l-9 23l109 132q35 42 51 68.5t16 43.5q0 18 -13 28t-36 10q-24 0 -42.5 -6.5t-47.5 -19.5q-10 20 -19 46.5t-12 55.5q25 14 63 23.5t75 9.5q75 0 120.5 -35.5t45.5 -99.5q0 -24 -8 -46.5t-20 -42.5t-26 -37
t-26 -31z" />
    <glyph glyph-name="three.sinf" unicode="&#xf817;" 
d="M72 176q-4 15 -5 28t-1 25t1 24.5t5 27.5h279l12 -21l-85 -129q46 -11 69.5 -42.5t23.5 -73.5q0 -37 -14.5 -64.5t-40 -46t-60.5 -28t-75 -9.5q-44 0 -77.5 7t-58.5 16q1 29 11 57.5t22 46.5q17 -8 42.5 -16t51.5 -8q28 0 48.5 11t20.5 35q0 17 -14.5 29.5t-46.5 12.5
q-8 0 -17.5 -1t-29.5 -7l-18 21l72 105h-115z" />
    <glyph glyph-name="four.sinf" unicode="&#xf818;" 
d="M190 30h58v64q15 2 29 3t29 1q14 0 26.5 -1t27.5 -3v-64h36q6 -24 6 -49q0 -22 -6 -46h-36v-54q-15 -2 -27.5 -3.5t-28.5 -1.5q-14 0 -26.5 1t-29.5 4v54h-202l-13 21l155 342q29 -3 53.5 -10.5t49.5 -24.5z" />
    <glyph glyph-name="five.sinf" unicode="&#xf819;" 
d="M197 180l-1 -42h23q67 0 108.5 -29.5t41.5 -92.5q0 -75 -54 -112t-147 -37q-19 0 -53.5 3.5t-70.5 14.5q2 26 7.5 54.5t21.5 51.5q29 -8 51.5 -13t42.5 -5q39 0 55 10.5t16 28.5q0 15 -15.5 25t-46.5 10q-17 0 -36.5 -3t-41.5 -12l-16 15l10 234h249q2 -9 4 -22.5
t2 -27.5t-2 -28t-4 -23h-144z" />
    <glyph glyph-name="six.sinf" unicode="&#xf81a;" 
d="M318 283q8 -11 12 -27.5t4 -32.5q0 -18 -4 -37q-48 -2 -83.5 -16t-47.5 -43q16 9 35 12.5t36 3.5q25 0 49 -7t42 -22.5t29 -40.5t11 -60q0 -36 -14.5 -63t-38.5 -45.5t-55 -28t-64 -9.5q-82 0 -127 46t-45 124q0 51 15.5 95.5t48 77.5t81.5 52t116 21zM234 59
q-24 0 -38 -13.5t-14 -34.5q0 -24 13.5 -37t35.5 -13t36 13t14 36q0 25 -13.5 37t-33.5 12z" />
    <glyph glyph-name="seven.sinf" unicode="&#xf81b;" 
d="M395 262l-181 -395q-31 6 -57.5 15t-55.5 28l126 266h-161q-4 13 -5 26.5t-1 24.5q0 12 1 26.5t5 27.5h316z" />
    <glyph glyph-name="eight.sinf" unicode="&#xf81c;" 
d="M390 178q0 -25 -14.5 -46t-31.5 -35q25 -15 45 -42t20 -62q0 -34 -15 -58t-39.5 -39t-57.5 -22t-69 -7q-38 0 -71.5 7t-59.5 22t-41 39t-15 58q0 36 20.5 62.5t45.5 41.5q-17 14 -31 34.5t-14 46.5q0 50 44 83.5t122 33.5q76 0 119 -33.5t43 -83.5zM274 -1q0 15 -13 27
t-36 20q-20 -8 -33 -20t-13 -27q0 -13 10 -25t39 -12q24 0 35 12t11 25zM184 172q0 -14 12 -23t32 -14q15 5 28 15t13 22t-9.5 22.5t-31.5 10.5q-23 0 -33.5 -11t-10.5 -22z" />
    <glyph glyph-name="nine.sinf" unicode="&#xf81d;" 
d="M132 -134q-8 11 -12 27.5t-4 32.5q0 18 4 37q48 2 83.5 16t47.5 43q-16 -9 -35 -12.5t-36 -3.5q-26 0 -49.5 7t-41.5 22.5t-29 40.5t-11 60q0 36 14.5 63t38.5 45.5t55 28t64 9.5q82 0 127 -46t45 -124q0 -51 -16 -95.5t-48 -77.5t-81 -52.5t-116 -20.5zM216 90
q24 0 38 13.5t14 34.5q0 24 -13.5 37t-35.5 13t-36 -13t-14 -36q0 -25 13.5 -37t33.5 -12z" />
    <glyph glyph-name="caron.alt" horiz-adv-x="480" 
d="M177 719q27 6 60 6q15 0 32.5 -1.5t33.5 -4.5l-23 -204q-23 -6 -48 -6q-13 0 -27.5 1.5t-27.5 4.5v204z" />
    <glyph glyph-name="commaaccent" horiz-adv-x="480" 
d="M189 -68q34 7 73 7q18 0 37 -1.5t38 -5.5l-71 -168q-29 -7 -59 -7t-65 7z" />
    <glyph glyph-name="revcommaaccent" horiz-adv-x="480" 
d="M292 587q-18 -4 -37 -5.5t-38 -1.5q-20 0 -39.5 1.5t-39.5 5.5l73 148q32 7 63 7q15 0 31 -1.5t36 -5.5z" />
    <glyph glyph-name="euro.alt" horiz-adv-x="540" 
d="M270 177q24 -52 98 -52q14 0 26 1t24.5 4t27 7.5t33.5 11.5q14 -26 23.5 -59t12.5 -68q-27 -11 -48 -17.5t-40.5 -10.5t-38.5 -5t-41 -1q-48 0 -89.5 11t-74.5 34.5t-56 59t-33 84.5h-58q-4 12 -4 30q0 19 4 32h50v42h-50q-4 12 -4 30q0 19 4 32h59q12 49 36.5 84.5
t58 58t74 33t84.5 10.5q36 0 74 -7t85 -27q0 -16 -4.5 -34.5t-10 -36t-11.5 -32.5t-10 -24q-24 10 -53.5 17.5t-56.5 7.5q-12 0 -25 -1.5t-26 -6.5t-24 -15t-18 -27h189q3 -14 3 -29q0 -18 -3 -33h-202v-20v-11.5t1 -10.5h201q3 -14 3 -29q0 -18 -3 -33h-187z" />
    <glyph glyph-name="dollar.alt" horiz-adv-x="480" 
d="M168 207q-63 17 -99.5 53t-36.5 106q0 29 10.5 55.5t31 48t49.5 36t66 20.5v76q25 6 45 6t47 -6v-72q35 -3 73.5 -10.5t74.5 -19.5q0 -15 -3.5 -32t-8.5 -35t-11.5 -35t-13.5 -31q-11 5 -27 10.5t-34.5 10.5t-39 8.5t-39.5 3.5q-24 0 -36 -7.5t-12 -18.5t11.5 -17
t33.5 -12l53 -14q68 -18 106.5 -55t38.5 -105q0 -30 -11 -58t-32 -51t-52 -40t-71 -25v-74q-23 -6 -45 -6q-20 0 -47 6v66q-42 2 -83.5 9t-83.5 24q2 33 12.5 70t27.5 63q38 -14 75 -21.5t68 -7.5q34 0 53.5 6.5t19.5 23.5q0 11 -12.5 20t-32.5 14z" />
    <glyph glyph-name="cent.alt" horiz-adv-x="376" 
d="M173 -7q-73 15 -112 65t-39 129q0 73 39.5 125.5t111.5 68.5v61q25 6 43 6q17 0 40 -6v-57q21 -2 41 -6.5t46 -14.5q0 -27 -6 -58t-20 -59q-40 17 -73 17q-35 0 -59 -18.5t-24 -58.5q0 -44 24.5 -61t61.5 -17q20 0 36.5 5t34.5 14q4 -8 9.5 -21t9.5 -29t7 -34t3 -34
q-26 -10 -48 -14.5t-43 -6.5v-51q-23 -6 -40 -6q-18 0 -43 6v55z" />
    <glyph glyph-name="sterling.alt" horiz-adv-x="513" 
d="M445 363q-29 13 -54 19t-54 6q-22 0 -36 -6t-22 -16t-11 -23.5t-3 -27.5h138q5 -17 6.5 -29.5t1.5 -26.5t-1.5 -27.5t-6.5 -30.5h-131q-1 -25 -6.5 -41t-10.5 -23h216q5 -20 6.5 -36t1.5 -32t-1.5 -32.5t-6.5 -36.5h-430l-8 32l7 5q16 12 29 25.5t23 32t15.5 44.5t7.5 62
h-61q-5 17 -6.5 30.5t-1.5 27.5t1.5 26.5t6.5 29.5h51v4q0 39 12.5 76.5t38.5 67.5t67.5 48t100.5 18q35 0 74 -7.5t87 -27.5q-3 -46 -16 -78.5t-24 -52.5z" />
    <glyph glyph-name="yen.alt" horiz-adv-x="539" 
d="M353 81v-81q-26 -4 -46.5 -5t-37.5 -1t-37 1t-45 5v81h-121q-4 11 -5 20t-1 17t1 17t5 20h121v48h-121q-4 11 -5 20t-1 17t1 17t5 20h90l-147 240q17 3 43.5 4.5t49.5 1.5t42.5 -1t40.5 -5l89 -178l89 178q15 3 35 4.5t39 1.5q9 0 21.5 -0.5t25.5 -1t25 -2t21 -2.5
l-146 -240h99q4 -11 5 -20t1 -17t-1 -17t-5 -20h-130v-48h130q4 -11 5 -20t1 -17t-1 -17t-5 -20h-130z" />
    <glyph glyph-name="florin.alt" horiz-adv-x="467" 
d="M433 376q-5 2 -21.5 5.5t-34.5 3.5q-26 0 -43 -14t-21 -49l-3 -23h102q5 -24 6.5 -39.5t1.5 -31.5q0 -14 -1.5 -29t-6.5 -37h-119l-20 -161q-11 -97 -62.5 -150t-144.5 -53q-30 0 -56 3.5t-52 12.5q2 40 9 73t18 65l24 -6t38 -4q24 0 38.5 13t19.5 53l19 154h-82
q-4 23 -5.5 39t-1.5 31q0 14 1.5 29t5.5 38h98l6 44q13 88 65 137t140 49q30 0 53 -3.5t55 -12.5q-2 -40 -8 -72.5t-18 -64.5z" />
    <glyph glyph-name="at.alt" horiz-adv-x="656" 
d="M376 130q-25 -13 -45 -18t-51 -5q-20 0 -39 6t-33 19.5t-22.5 34t-8.5 49.5q0 43 14.5 78.5t39 61t57 40t69.5 14.5q34 0 60 -5t56 -15l-39 -198q2 -1 6.5 -2t15.5 -1q19 0 34 10t25 27t15.5 38.5t5.5 45.5q0 67 -46 103.5t-122 36.5q-60 0 -105 -19.5t-75.5 -51.5
t-45.5 -73.5t-15 -85.5q0 -39 12.5 -67t34 -46t51 -26.5t63.5 -8.5q32 0 61.5 4.5t58.5 15.5q8 -13 13.5 -35.5t8.5 -40.5q-27 -14 -67.5 -21t-81.5 -7q-48 0 -92.5 13t-78 41t-53.5 71.5t-20 103.5q0 55 19.5 110.5t59.5 100.5t102 73t146 28q51 0 98 -13t82 -39.5t56 -66
t21 -93.5q0 -44 -12.5 -82t-35 -66t-54 -43.5t-69.5 -15.5q-35 0 -53.5 7.5t-20.5 12.5zM363 325q-1 0 -4 0.5t-9 0.5q-33 0 -52 -29t-19 -71q0 -20 8.5 -28.5t23.5 -8.5t27 4z" />
    <glyph glyph-name="zero.alt2" horiz-adv-x="624" 
d="M312 -12q-74 0 -126 28t-84.5 77t-47.5 115.5t-15 144.5q0 77 15 144t47.5 116.5t84.5 77.5t126 28t126 -28t84.5 -77.5t47.5 -116.5t15 -144q0 -78 -15 -144.5t-47.5 -115.5t-84.5 -77t-126 -28zM312 135q45 0 67 56t22 162q0 105 -21.5 160.5t-66.5 55.5
q-46 0 -69.5 -55.5t-23.5 -160.5q0 -106 23 -162t69 -56z" />
    <glyph glyph-name="one.alt2" horiz-adv-x="526" 
d="M89 452q-9 13 -18 30t-17 35t-14 36.5t-9 35.5l293 125h43v-564h128q9 -39 9 -74q0 -37 -9 -76h-428q-9 39 -9 76q0 35 9 74h130v344z" />
    <glyph glyph-name="two.alt2" horiz-adv-x="527" 
d="M177 266q31 44 52 76.5t34 58t18.5 46t5.5 40.5q0 34 -24.5 55.5t-69.5 21.5q-35 0 -68 -12t-61 -28q-15 29 -28 69t-14 78q40 20 89 34t106 14q51 0 96 -15t78.5 -43.5t53 -69.5t19.5 -92q0 -35 -9.5 -68t-24.5 -64.5t-34.5 -62.5t-40.5 -62l-62 -92h181q9 -42 9 -73
q0 -35 -9 -77h-450l-13 29z" />
    <glyph glyph-name="three.alt2" horiz-adv-x="539" 
d="M43 556q-9 39 -9 76q0 36 9 75h423l18 -28l-142 -245q72 -13 112 -62.5t40 -127.5q0 -62 -22.5 -110t-62 -80.5t-93 -49t-114.5 -16.5q-28 0 -52 1.5t-47.5 6t-47 11t-50.5 17.5q2 37 14.5 75t29.5 68q38 -13 73 -21.5t74 -8.5q59 0 93.5 24t34.5 73q0 21 -9 37t-24 26.5
t-34 16t-40 5.5q-16 0 -33.5 -1.5t-40.5 -7.5l-22 33l123 213h-201z" />
    <glyph glyph-name="four.alt2" horiz-adv-x="627" 
d="M579 268q9 -39 9 -74t-9 -74h-53v-118q-21 -5 -41.5 -6.5t-39.5 -1.5q-20 0 -40.5 1.5t-42.5 6.5v118h-318l-17 30l269 576q39 -5 76.5 -17.5t72.5 -39.5l-182 -401h99v112q22 5 42.5 6.5t40.5 1.5q19 0 39.5 -1.5t41.5 -6.5v-112h53z" />
    <glyph glyph-name="five.alt2" horiz-adv-x="544" 
d="M449 707q9 -42 9 -73q0 -35 -9 -77h-211l-2 -104q9 2 17 2h19q49 0 90 -14t70 -41t45 -67t16 -92q0 -62 -21 -109t-60.5 -79t-95.5 -48t-125 -16q-13 0 -32.5 2t-43.5 5.5t-50.5 10t-51.5 15.5q1 19 5.5 39.5t10.5 40t12.5 37t13.5 31.5q39 -14 71 -21.5t62 -7.5
q36 0 61 8t40 20.5t21.5 29t6.5 34.5q0 38 -27 61t-86 23q-24 0 -51.5 -5.5t-57.5 -19.5l-26 17l15 398h365z" />
    <glyph glyph-name="six.alt2" horiz-adv-x="596" 
d="M444 727q8 -8 15 -28.5t7 -49.5q0 -24 -3 -43t-8 -31q-39 -3 -74 -14.5t-64 -30.5t-50.5 -44t-32.5 -56l3 -2q11 14 40.5 26t71.5 12q43 0 80.5 -13t66 -40.5t45 -70.5t16.5 -104t-20 -107.5t-54.5 -78t-80.5 -47.5t-98 -16q-126 0 -192 72t-66 218q0 84 23 160.5
t71.5 137.5t124 101t179.5 49zM305 333q-38 0 -62 -25t-24 -73q0 -53 23 -80t59 -27t61 25t25 77q0 54 -23.5 78.5t-58.5 24.5z" />
    <glyph glyph-name="seven.alt2" horiz-adv-x="550" 
d="M33 556q-5 21 -7 41t-2 37q0 31 9 73h486l15 -27l-285 -699q-42 10 -77.5 23t-75.5 40l210 512h-273z" />
    <glyph glyph-name="eight.alt2" horiz-adv-x="581" 
d="M511 526q0 -45 -20.5 -82t-58.5 -63q46 -25 77.5 -70.5t31.5 -111.5q0 -56 -21.5 -95.5t-57.5 -65t-81.5 -37.5t-93.5 -12t-93.5 12t-81 37.5t-57 65t-21.5 95.5q0 66 31 111t76 71q-39 26 -58.5 63t-19.5 82q0 43 17.5 78.5t47.5 61t71 39.5t88 14q48 0 89 -14t71 -39.5
t47 -61t17 -78.5zM374 206q0 38 -25 64t-63 39q-38 -13 -61.5 -39t-23.5 -64q0 -35 22 -58t64 -23q44 0 65.5 23t21.5 58zM221 527q0 -31 18.5 -52.5t47.5 -32.5q31 11 49 32t18 53q0 25 -16.5 43.5t-49.5 18.5t-50 -18.5t-17 -43.5z" />
    <glyph glyph-name="nine.alt2" horiz-adv-x="596" 
d="M152 -19q-8 8 -15 28.5t-7 49.5q0 24 3 43t8 31q39 3 74 14.5t64 30t50.5 44t32.5 56.5l-3 2q-11 -14 -40.5 -26t-71.5 -12q-43 0 -80.5 13t-66 40.5t-45 70.5t-16.5 104t20 107.5t54.5 78t80.5 47.5t98 16q126 0 192 -72t66 -218q0 -84 -23 -161t-71.5 -137.5
t-124 -100.5t-179.5 -49zM291 375q38 0 62 25t24 73q0 53 -23 80t-59 27t-61 -25t-25 -77q0 -54 23.5 -78.5t58.5 -24.5z" />
    <glyph glyph-name="hyphen.cap" horiz-adv-x="369" 
d="M42 374q0 34 9 76h268q5 -21 6.5 -39.5t1.5 -35.5t-1.5 -36t-6.5 -40h-268q-9 42 -9 75z" />
    <glyph glyph-name="ampersand.alt" horiz-adv-x="634" 
d="M391 336l113 92h28v-91h75q7 -34 7 -54q0 -12 -1 -26t-6 -32h-75v-50q0 -45 -19 -80t-53.5 -59t-83 -36t-108.5 -12q-46 0 -88 9t-74.5 29t-51.5 51.5t-19 75.5t22 79t54 54q-57 34 -57 101q0 36 15.5 62.5t42 44.5t61 26.5t72.5 8.5q27 0 60.5 -3t73.5 -17q2 -26 -7 -58
t-25 -52q-35 10 -54 12t-32 2q-28 0 -40.5 -11.5t-12.5 -25.5q0 -16 11.5 -27.5t41.5 -11.5zM282 112q31 0 50.5 7t31 19t15.5 27.5t4 32.5v27h-112q-34 0 -53 -15t-19 -42q0 -29 22 -42.5t61 -13.5z" />
    <glyph glyph-name="exclam.alt" horiz-adv-x="271" 
d="M54 517q43 9 82 9t81 -9l-9 -310q-15 -3 -35.5 -4t-36.5 -1t-37 1t-36 4zM62 0q-6 34 -6 67q0 34 6 66q17 3 37 4.5t37 1.5t37 -1.5t36 -4.5q6 -35 6 -67q0 -35 -6 -66q-17 -3 -37 -4.5t-37 -1.5t-37 1.5t-36 4.5z" />
    <glyph glyph-name="question.alt" horiz-adv-x="418" 
d="M115 0q-6 34 -6 67q0 34 6 66q17 3 37 4.5t37 1.5t37 -1.5t36 -4.5q6 -35 6 -67q0 -35 -6 -66q-17 -3 -37 -4.5t-37 -1.5t-37 1.5t-36 4.5zM117 310q20 0 41 3t38 10t27.5 18.5t10.5 28.5q0 22 -17 33.5t-48 11.5q-18 0 -36 -3t-33.5 -7.5t-27 -9.5t-17.5 -8
q-14 23 -23 51.5t-11 59.5q36 14 79.5 22t85.5 8q104 0 150.5 -39.5t46.5 -107.5q0 -34 -11 -58t-28.5 -41t-39.5 -27.5t-44 -17.5v-48q-17 -3 -36 -4.5t-36 -1.5t-36 1.5t-35 4.5v121z" />
    <glyph glyph-name="ordfeminine.alt" horiz-adv-x="383" 
d="M223 316q-7 1 -13 1.5t-17 0.5q-24 0 -39 -10t-15 -30q0 -12 5.5 -19.5t13.5 -11t17.5 -5t17.5 -1.5q9 0 16.5 0.5t13.5 1.5v73zM181 394q17 0 26.5 -0.5t15.5 -1.5q-1 24 -15.5 34.5t-46.5 10.5q-18 0 -45 -3.5t-50 -11.5q-11 18 -17.5 43t-5.5 43q32 10 70 15.5t65 5.5
q75 0 122.5 -37.5t47.5 -114.5v-206q-12 -4 -31.5 -8t-42 -7.5t-46 -5.5t-44.5 -2q-37 0 -67.5 7t-52.5 22t-34 38.5t-12 57.5q0 35 15 58.5t38 37.5t52 19.5t58 5.5z" />
    <glyph glyph-name="ordmasculine.alt" horiz-adv-x="429" 
d="M265 338q0 89 -52 89q-50 0 -50 -89q0 -42 12 -65.5t38 -23.5q27 0 39.5 23.5t12.5 65.5zM28 338q0 40 12 75t35 61t58 40.5t80 14.5q46 0 81 -14.5t59 -40.5t36 -61t12 -75t-12 -75t-36 -60.5t-59 -40t-81 -14.5q-45 0 -80 14.5t-58 40t-35 60.5t-12 75z" />
    <glyph glyph-name="questiondown.alt" horiz-adv-x="418" 
d="M303 516q6 -35 6 -67q0 -35 -6 -66q-17 -3 -37 -4.5t-37 -1.5t-37 1.5t-36 4.5q-6 34 -6 67q0 34 6 66q17 3 37 4.5t37 1.5t37 -1.5t36 -4.5zM301 206q-20 0 -41 -3t-38 -10t-27.5 -18.5t-10.5 -28.5q0 -22 17 -33.5t48 -11.5q18 0 36 3t33.5 7.5t27 9.5t17.5 8
q14 -23 23 -51.5t11 -59.5q-36 -14 -79.5 -22t-85.5 -8q-104 0 -150.5 39.5t-46.5 107.5q0 34 11 58t28.5 41t39.5 27.5t44 17.5v48q17 3 36 4.5t36 1.5t36 -1.5t35 -4.5v-121z" />
    <glyph glyph-name="exclamdown.alt" horiz-adv-x="271" 
d="M217 3q-44 -9 -82 -9q-39 0 -81 9l9 310q15 3 35.5 4t36.5 1t37 -1t36 -4zM209 520q6 -35 6 -67q0 -35 -6 -66q-17 -3 -37 -4.5t-37 -1.5t-37 1.5t-36 4.5q-6 34 -6 67q0 34 6 66q17 3 37 4.5t37 1.5t37 -1.5t36 -4.5z" />
    <glyph glyph-name="percent.alt" horiz-adv-x="903" 
d="M577 522q37 6 64 6q26 0 62 -6l-378 -522q-36 -6 -63 -6q-26 0 -62 6zM238 357q0 36 -12 56.5t-38 20.5t-38 -20.5t-12 -56.5q0 -35 12 -56t38 -21t38 21t12 56zM20 357q0 32 10 63t31 55t52.5 38.5t74.5 14.5t74.5 -14.5t52.5 -38.5t31 -55t10 -63t-10 -63t-31 -55
t-52.5 -38.5t-74.5 -14.5t-74.5 14.5t-52.5 38.5t-31 55t-10 63zM765 159q0 36 -12 56.5t-38 20.5t-38 -20.5t-12 -56.5q0 -35 12 -56t38 -21t38 21t12 56zM547 159q0 32 10 63t31 55t52.5 38.5t74.5 14.5t74.5 -14.5t52.5 -38.5t31 -55t10 -63t-10 -63t-31 -55t-52.5 -38.5
t-74.5 -14.5t-74.5 14.5t-52.5 38.5t-31 55t-10 63z" />
    <glyph glyph-name="perthousand.alt" horiz-adv-x="1295" 
d="M577 522q37 6 64 6q26 0 62 -6l-378 -522q-36 -6 -63 -6q-26 0 -62 6zM238 357q0 36 -12 56.5t-38 20.5t-38 -20.5t-12 -56.5q0 -35 12 -56t38 -21t38 21t12 56zM20 357q0 32 10 63t31 55t52.5 38.5t74.5 14.5t74.5 -14.5t52.5 -38.5t31 -55t10 -63t-10 -63t-31 -55
t-52.5 -38.5t-74.5 -14.5t-74.5 14.5t-52.5 38.5t-31 55t-10 63zM765 159q0 36 -12 56.5t-38 20.5t-38 -20.5t-12 -56.5q0 -35 12 -56t38 -21t38 21t12 56zM547 159q0 32 10 63t31 55t52.5 38.5t74.5 14.5t74.5 -14.5t52.5 -38.5t31 -55t10 -63t-10 -63t-31 -55t-52.5 -38.5
t-74.5 -14.5t-74.5 14.5t-52.5 38.5t-31 55t-10 63zM1157 159q0 36 -12 56.5t-38 20.5t-38 -20.5t-12 -56.5q0 -35 12 -56t38 -21t38 21t12 56zM939 159q0 32 10 63t31 55t52.5 38.5t74.5 14.5t74.5 -14.5t52.5 -38.5t31 -55t10 -63t-10 -63t-31 -55t-52.5 -38.5
t-74.5 -14.5t-74.5 14.5t-52.5 38.5t-31 55t-10 63z" />
    <glyph glyph-name="slash.alt" horiz-adv-x="346" 
d="M191 517q19 3 40 4.5t38 1.5q16 0 35 -1.5t37 -4.5l-186 -517q-18 -3 -37 -4.5t-36 -1.5q-16 0 -37.5 1.5t-39.5 4.5z" />
    <glyph glyph-name="backslash.alt" horiz-adv-x="346" 
d="M341 0q-18 -3 -39.5 -4.5t-37.5 -1.5q-17 0 -36 1.5t-37 4.5l-186 517q18 3 37 4.5t35 1.5q17 0 38 -1.5t40 -4.5z" />
    <glyph glyph-name="parenleft.alt" horiz-adv-x="287" 
d="M187 259q0 -57 8 -105t20 -86.5t26 -67t26 -47.5q-33 -6 -71 -6q-36 0 -70 6q-20 21 -35.5 54.5t-27 74t-17.5 86t-6 91.5t6 91.5t17.5 86t27 73.5t35.5 54q34 6 71 6t70 -6q-12 -19 -26 -47.5t-26 -66.5t-20 -86t-8 -105z" />
    <glyph glyph-name="parenright.alt" horiz-adv-x="287" 
d="M100 259q0 57 -8 105t-20 86t-26 66.5t-26 47.5q33 6 70 6q36 0 71 -6q19 -21 35 -54t27.5 -73.5t17.5 -86t6 -91.5t-6 -91.5t-17.5 -86t-27.5 -74t-35 -54.5q-35 -6 -70 -6q-38 0 -71 6q12 19 26 47.5t26 67t20 86.5t8 105z" />
    <glyph glyph-name="braceleft.alt" horiz-adv-x="320" 
d="M30 271q31 14 42.5 32.5t13.5 51.5l3 80q2 64 43 99.5t127 35.5h27q2 -11 3 -23.5t1 -25.5t-0.5 -27t-2.5 -27q-18 0 -29 -4.5t-17 -12.5t-8 -18t-2 -22l-2 -60q-2 -40 -19 -60.5t-34 -31.5q17 -11 34 -31.5t19 -60.5l2 -49q0 -12 2 -22t8 -18t17 -12.5t29 -4.5
q2 -14 2.5 -29.5t0.5 -29.5t-1 -28.5t-3 -25.5h-27q-86 0 -127 35.5t-43 99.5l-3 79q-2 33 -13.5 51.5t-42.5 32.5v26z" />
    <glyph glyph-name="braceright.alt" horiz-adv-x="320" 
d="M290 245q-31 -14 -42.5 -32.5t-13.5 -51.5l-3 -79q-2 -64 -43 -99.5t-127 -35.5h-27q-2 11 -3 25.5t-1 28.5t0.5 29.5t2.5 29.5q18 0 29 4.5t17 12.5t8 18t2 22l2 49q2 40 19 60.5t34 31.5q-17 11 -34 31.5t-19 60.5l-2 60q0 12 -2 22t-8 18t-17 12.5t-29 4.5
q-2 13 -2.5 27t-0.5 27t1 25.5t3 23.5h27q86 0 127 -35.5t43 -99.5l3 -80q2 -33 13.5 -51.5t42.5 -32.5v-26z" />
    <glyph glyph-name="bracketleft.alt" horiz-adv-x="303" 
d="M40 570h237q6 -29 6 -57q0 -31 -6 -59h-94v-391h94q6 -29 6 -59q0 -29 -6 -57h-237v623z" />
    <glyph glyph-name="bracketright.alt" horiz-adv-x="303" 
d="M263 -53h-237q-6 28 -6 57q0 30 6 59h94v391h-94q-6 28 -6 59q0 28 6 57h237v-623z" />
    <glyph glyph-name="asterisk.alt" horiz-adv-x="369" 
d="M330 444q13 -20 19.5 -42t9.5 -40l-92 -38l55 -86q-15 -16 -33.5 -28t-39.5 -23l-64 72l-65 -74q-41 20 -71 52l53 86q-23 9 -46.5 19.5t-45.5 18.5q2 22 10 43.5t17 38.5l96 -21l7 100q10 2 22.5 3t20.5 1q9 0 21.5 -1t23.5 -3l8 -99zM183 401q-7 0 -15.5 0.5t-14.5 2.5
q-6 -19 -13.5 -39.5t-16.5 -37.5q15 -6 30 -18t31 -24q17 13 31.5 24.5t28.5 17.5q-9 20 -13.5 39t-10.5 36q-11 -1 -21.5 -1h-15.5z" />
    <glyph glyph-name="quoteleft.alt" horiz-adv-x="274" 
d="M25 518q26 5 46.5 6.5t37.5 1.5q16 0 32.5 -1.5t38.5 -6.5l69 -222q-15 -3 -34.5 -5.5t-40.5 -2.5q-18 0 -34.5 1.5t-38.5 6.5z" />
    <glyph glyph-name="quoteright.alt" horiz-adv-x="274" 
d="M173 296q-22 -5 -38.5 -6.5t-34.5 -1.5q-21 0 -40.5 2.5t-34.5 5.5l69 222q22 5 38.5 6.5t32.5 1.5q17 0 37.5 -1.5t46.5 -6.5z" />
    </font>
</defs>
</svg>
